  0
SECTION
  2
HEADER
  9
$ACADVER
  1
AC1009
  9
$INSBASE
 10
0.0
 20
0.0
 30
0.0
  9
$EXTMIN
 10
-854.191224
 20
-425.559452
 30
-0.000001
  9
$EXTMAX
 10
908.68225
 20
425.502203
 30
0.000005
  9
$LIMMIN
 10
-854.191224
 20
-425.559452
  9
$LIMMAX
 10
908.68225
 20
425.502203
  9
$ORTHOMODE
 70
     1
  9
$REGENMODE
 70
     1
  9
$FILLMODE
 70
     1
  9
$QTEXTMODE
 70
     0
  9
$MIRRTEXT
 70
     0
  9
$DRAGMODE
 70
     2
  9
$LTSCALE
 40
50.0
  9
$OSMODE
 70
     0
  9
$ATTMODE
 70
     1
  9
$TEXTSIZE
 40
200.0
  9
$TRACEWID
 40
1.0
  9
$TEXTSTYLE
  7
STANDARD
  9
$CLAYER
  8
TEAM-MAS
  9
$CELTYPE
  6
BYLAYER
  9
$CECOLOR
 62
   256
  9
$DIMSCALE
 40
0.0
  9
$DIMASZ
 40
20.0
  9
$DIMEXO
 40
10.0
  9
$DIMDLI
 40
1.0
  9
$DIMRND
 40
0.0
  9
$DIMDLE
 40
0.0
  9
$DIMEXE
 40
1.0
  9
$DIMTP
 40
0.0
  9
$DIMTM
 40
0.0
  9
$DIMTXT
 40
35.0
  9
$DIMCEN
 40
1.0
  9
$DIMTSZ
 40
0.0
  9
$DIMTOL
 70
     0
  9
$DIMLIM
 70
     0
  9
$DIMTIH
 70
     0
  9
$DIMTOH
 70
     0
  9
$DIMSE1
 70
     0
  9
$DIMSE2
 70
     0
  9
$DIMTAD
 70
     0
  9
$DIMZIN
 70
     0
  9
$DIMBLK
  1

  9
$DIMASO
 70
     1
  9
$DIMSHO
 70
     0
  9
$DIMPOST
  1

  9
$DIMAPOST
  1

  9
$DIMALT
 70
     0
  9
$DIMALTD
 70
     2
  9
$DIMALTF
 40
25.4
  9
$DIMLFAC
 40
1.0
  9
$DIMTOFL
 70
     0
  9
$DIMTVP
 40
0.0
  9
$DIMTIX
 70
     0
  9
$DIMSOXD
 70
     0
  9
$DIMSAH
 70
     0
  9
$DIMBLK1
  1

  9
$DIMBLK2
  1

  9
$DIMSTYLE
  2
TEAM
  9
$DIMCLRD
 70
     9
  9
$DIMCLRE
 70
     9
  9
$DIMCLRT
 70
    11
  9
$DIMTFAC
 40
1.0
  9
$DIMGAP
 40
7.0
  9
$LUNITS
 70
     2
  9
$LUPREC
 70
     1
  9
$SKETCHINC
 40
1.0
  9
$FILLETRAD
 40
5.0
  9
$AUNITS
 70
     0
  9
$AUPREC
 70
     0
  9
$MENU
  1
ROPLANS
  9
$ELEVATION
 40
0.0
  9
$PELEVATION
 40
0.0
  9
$THICKNESS
 40
0.0
  9
$LIMCHECK
 70
     0
  9
$BLIPMODE
 70
     1
  9
$CHAMFERA
 40
0.0
  9
$CHAMFERB
 40
0.0
  9
$SKPOLY
 70
     0
  9
$TDCREATE
 40
2450392.957851
  9
$TDUPDATE
 40
2456052.474209
  9
$TDINDWG
 40
2.075828
  9
$TDUSRTIMER
 40
2.075828
  9
$USRTIMER
 70
     1
  9
$ANGBASE
 50
0.0
  9
$ANGDIR
 70
     0
  9
$PDMODE
 70
     0
  9
$PDSIZE
 40
0.0
  9
$PLINEWID
 40
0.0
  9
$COORDS
 70
     2
  9
$SPLFRAME
 70
     0
  9
$SPLINETYPE
 70
     6
  9
$SPLINESEGS
 70
     8
  9
$ATTDIA
 70
     0
  9
$ATTREQ
 70
     0
  9
$HANDLING
 70
     1
  9
$HANDSEED
  5
F6
  9
$SURFTAB1
 70
    36
  9
$SURFTAB2
 70
    36
  9
$SURFTYPE
 70
     6
  9
$SURFU
 70
     6
  9
$SURFV
 70
     6
  9
$UCSNAME
  2

  9
$UCSORG
 10
0.0
 20
0.0
 30
0.0
  9
$UCSXDIR
 10
1.0
 20
0.0
 30
0.0
  9
$UCSYDIR
 10
0.0
 20
1.0
 30
0.0
  9
$PUCSNAME
  2

  9
$PUCSORG
 10
0.0
 20
0.0
 30
0.0
  9
$PUCSXDIR
 10
1.0
 20
0.0
 30
0.0
  9
$PUCSYDIR
 10
0.0
 20
1.0
 30
0.0
  9
$USERI1
 70
     0
  9
$USERI2
 70
     0
  9
$USERI3
 70
     0
  9
$USERI4
 70
     0
  9
$USERI5
 70
     0
  9
$USERR1
 40
0.0
  9
$USERR2
 40
0.0
  9
$USERR3
 40
0.0
  9
$USERR4
 40
0.0
  9
$USERR5
 40
0.0
  9
$WORLDVIEW
 70
     1
  9
$SHADEDGE
 70
     0
  9
$SHADEDIF
 70
    70
  9
$TILEMODE
 70
     1
  9
$MAXACTVP
 70
    16
  9
$PLIMCHECK
 70
     0
  9
$PEXTMIN
 10
-0.805942
 20
0.005011
 30
0.0
  9
$PEXTMAX
 10
20.250094
 20
11.356329
 30
0.0
  9
$PLIMMIN
 10
0.0
 20
0.0
  9
$PLIMMAX
 10
12.0
 20
9.0
  9
$UNITMODE
 70
     0
  9
$VISRETAIN
 70
     0
  9
$PLINEGEN
 70
     0
  9
$PSLTSCALE
 70
     0
  0
ENDSEC
  0
SECTION
  2
TABLES
  0
TABLE
  2
VPORT
 70
     2
  0
VPORT
  2
*ACTIVE
 70
     0
 10
0.0
 20
0.0
 11
1.0
 21
1.0
 12
27.245513
 22
-0.028624
 13
0.0
 23
0.0
 14
1.0
 24
1.0
 15
50.0
 25
50.0
 16
0.0
 26
0.0
 36
1.0
 17
0.0
 27
0.0
 37
0.0
 40
925.155193
 41
1.911765
 42
50.0
 43
0.0
 44
0.0
 50
0.0
 51
0.0
 71
     0
 72
   100
 73
     1
 74
     1
 75
     0
 76
     0
 77
     0
 78
     0
  0
ENDTAB
  0
TABLE
  2
LTYPE
 70
     3
  0
LTYPE
  2
CONTINUOUS
 70
     0
  3
Solid Line
 72
    65
 73
     0
 40
0.0
  0
LTYPE
  2
31
 70
     0
  3

 72
    65
 73
     4
 40
2.1
 49
1.5
 49
-0.3
 49
0.0
 49
-0.3
  0
LTYPE
  2
22
 70
     0
  3

 72
    65
 73
     2
 40
1.4
 49
1.2
 49
-0.2
  0
ENDTAB
  0
TABLE
  2
LAYER
 70
     9
  0
LAYER
  2
0
 70
     0
 62
     7
  6
CONTINUOUS
  0
LAYER
  2
DEFPOINTS
 70
     0
 62
     7
  6
CONTINUOUS
  0
LAYER
  2
TEAM-BODY
 70
     0
 62
     2
  6
CONTINUOUS
  0
LAYER
  2
TEAM-AXE
 70
     0
 62
    10
  6
31
  0
LAYER
  2
TEAM-MAS
 70
     0
 62
     9
  6
CONTINUOUS
  0
LAYER
  2
TEAM-TXT
 70
     0
 62
    11
  6
CONTINUOUS
  0
LAYER
  2
TEAM-DET1
 70
     0
 62
     4
  6
CONTINUOUS
  0
LAYER
  2
TEAM-HIDE
 70
     0
 62
     8
  6
22
  0
LAYER
  2
TEAM-INSP
 70
     0
 62
     5
  6
CONTINUOUS
  0
ENDTAB
  0
TABLE
  2
STYLE
 70
     2
  0
STYLE
  2
STANDARD
 70
     0
 40
0.0
 41
1.0
 50
0.0
 71
     0
 42
200.0
  3
txt
  4

  0
STYLE
  2
TEAM
 70
     0
 40
0.0
 41
0.8
 50
15.0
 71
     0
 42
7.0
  3
ROMANS.shx
  4

  0
ENDTAB
  0
TABLE
  2
VIEW
 70
     0
  0
ENDTAB
  0
TABLE
  2
UCS
 70
     0
  0
ENDTAB
  0
TABLE
  2
APPID
 70
     1
  0
APPID
  2
ACAD
 70
     0
  0
ENDTAB
  0
TABLE
  2
DIMSTYLE
 70
     1
  0
DIMSTYLE
  2
TEAM
 70
     0
  3

  4

  5

  6

  7

 40
0.0
 41
20.0
 42
10.0
 43
1.0
 44
1.0
 45
0.0
 46
0.0
 47
0.0
 48
0.0
140
35.0
141
1.0
142
0.0
143
25.4
144
1.0
145
0.0
146
1.0
147
7.0
 71
     0
 72
     0
 73
     0
 74
     0
 75
     0
 76
     0
 77
     0
 78
     0
170
     0
171
     2
172
     0
173
     0
174
     0
175
     0
176
     9
177
     9
178
    11
  0
ENDTAB
  0
ENDSEC
  0
SECTION
  2
BLOCKS
  0
BLOCK
  8
0
  2
$MODEL_SPACE
 70
     0
 10
0.0
 20
0.0
 30
0.0
  3
$MODEL_SPACE
  1

  0
ENDBLK
  5
DE
  8
0
  0
BLOCK
 67
     1
  8
0
  2
$PAPER_SPACE
 70
     0
 10
0.0
 20
0.0
 30
0.0
  3
$PAPER_SPACE
  1

  0
ENDBLK
  5
DC
 67
     1
  8
0
  0
BLOCK
  8
0
  2
*D0
 70
     1
 10
0.0
 20
0.0
 30
0.0
  3
*D0
  1

  0
LINE
  5
22
  8
0
  6
BYBLOCK
 62
     9
 10
3150.0
 20
15635.0
 30
0.0
 11
3150.0
 21
15591.001269
 31
0.0
  0
LINE
  5
23
  8
0
  6
BYBLOCK
 62
     9
 10
4850.0
 20
15635.0
 30
0.0
 11
4850.0
 21
15591.001269
 31
0.0
  0
LINE
  5
24
  8
0
  6
BYBLOCK
 62
     9
 10
3170.0
 20
15592.001269
 30
0.0
 11
3940.5
 21
15592.001269
 31
0.0
  0
LINE
  5
25
  8
0
  6
BYBLOCK
 62
     9
 10
4830.0
 20
15592.001269
 30
0.0
 11
4059.5
 21
15592.001269
 31
0.0
  0
SOLID
  5
26
  8
0
  6
BYBLOCK
 62
     9
 10
3170.0
 20
15595.334602
 30
0.0
 11
3170.0
 21
15588.667936
 31
0.0
 12
3150.0
 22
15592.001269
 32
0.0
 13
3150.0
 23
15592.001269
 33
0.0
  0
SOLID
  5
27
  8
0
  6
BYBLOCK
 62
     9
 10
4830.0
 20
15595.334602
 30
0.0
 11
4830.0
 21
15588.667936
 31
0.0
 12
4850.0
 22
15592.001269
 32
0.0
 13
4850.0
 23
15592.001269
 33
0.0
  0
TEXT
  5
28
  8
0
  6
BYBLOCK
 62
    11
 10
3947.5
 20
15574.501269
 30
0.0
 40
35.0
  1
1700
  0
POINT
  5
29
  8
DEFPOINTS
  6
BYBLOCK
 62
     0
 10
3150.0
 20
15645.0
 30
0.0
  0
POINT
  5
2B
  8
DEFPOINTS
  6
BYBLOCK
 62
     0
 10
4850.0
 20
15645.0
 30
0.0
  0
POINT
  5
2C
  8
DEFPOINTS
  6
BYBLOCK
 62
     0
 10
4850.0
 20
15592.001269
 30
0.0
  0
ENDBLK
  5
2E
  8
0
  0
BLOCK
  8
0
  2
*D1
 70
     1
 10
0.0
 20
0.0
 30
0.0
  3
*D1
  1

  0
LINE
  5
58
  8
0
  6
BYBLOCK
 62
     9
 10
4840.0
 20
16375.0
 30
0.0
 11
4892.071374
 21
16375.0
 31
0.0
  0
LINE
  5
59
  8
0
  6
BYBLOCK
 62
     9
 10
4840.0
 20
15625.0
 30
0.0
 11
4892.071374
 21
15625.0
 31
0.0
  0
LINE
  5
5A
  8
0
  6
BYBLOCK
 62
     9
 10
4891.071374
 20
16355.0
 30
0.0
 11
4891.071374
 21
16050.75
 31
0.0
  0
LINE
  5
5B
  8
0
  6
BYBLOCK
 62
     9
 10
4891.071374
 20
15645.0
 30
0.0
 11
4891.071374
 21
15949.25
 31
0.0
  0
SOLID
  5
5C
  8
0
  6
BYBLOCK
 62
     9
 10
4887.738041
 20
16355.0
 30
0.0
 11
4894.404707
 21
16355.0
 31
0.0
 12
4891.071374
 22
16375.0
 32
0.0
 13
4891.071374
 23
16375.0
 33
0.0
  0
SOLID
  5
5D
  8
0
  6
BYBLOCK
 62
     9
 10
4887.738041
 20
15645.0
 30
0.0
 11
4894.404707
 21
15645.0
 31
0.0
 12
4891.071374
 22
15625.0
 32
0.0
 13
4891.071374
 23
15625.0
 33
0.0
  0
TEXT
  5
5E
  8
0
  6
BYBLOCK
 62
    11
 10
4908.571374
 20
15956.25
 30
0.0
 40
35.0
  1
750
 50
90.0
  0
POINT
  5
5F
  8
DEFPOINTS
  6
BYBLOCK
 62
     0
 10
4830.0
 20
16375.0
 30
0.0
  0
POINT
  5
60
  8
DEFPOINTS
  6
BYBLOCK
 62
     0
 10
4830.0
 20
15625.0
 30
0.0
  0
POINT
  5
61
  8
DEFPOINTS
  6
BYBLOCK
 62
     0
 10
4891.071374
 20
15625.0
 30
0.0
  0
ENDBLK
  5
63
  8
0
  0
BLOCK
  8
0
  2
*D2
 70
     1
 10
0.0
 20
0.0
 30
0.0
  3
*D2
  1

  0
LINE
  5
4A
  8
0
  6
BYBLOCK
 62
     9
 10
4565.0
 20
16010.0
 30
0.0
 11
4565.0
 21
16408.998731
 31
0.0
  0
LINE
  5
4B
  8
0
  6
BYBLOCK
 62
     9
 10
4850.0
 20
16365.0
 30
0.0
 11
4850.0
 21
16408.998731
 31
0.0
  0
LINE
  5
4C
  8
0
  6
BYBLOCK
 62
     9
 10
4585.0
 20
16407.998731
 30
0.0
 11
4653.833333
 21
16407.998731
 31
0.0
  0
LINE
  5
4D
  8
0
  6
BYBLOCK
 62
     9
 10
4830.0
 20
16407.998731
 30
0.0
 11
4761.166667
 21
16407.998731
 31
0.0
  0
SOLID
  5
4E
  8
0
  6
BYBLOCK
 62
     9
 10
4585.0
 20
16411.332064
 30
0.0
 11
4585.0
 21
16404.665398
 31
0.0
 12
4565.0
 22
16407.998731
 32
0.0
 13
4565.0
 23
16407.998731
 33
0.0
  0
SOLID
  5
4F
  8
0
  6
BYBLOCK
 62
     9
 10
4830.0
 20
16411.332064
 30
0.0
 11
4830.0
 21
16404.665398
 31
0.0
 12
4850.0
 22
16407.998731
 32
0.0
 13
4850.0
 23
16407.998731
 33
0.0
  0
TEXT
  5
50
  8
0
  6
BYBLOCK
 62
    11
 10
4660.833333
 20
16390.498731
 30
0.0
 40
35.0
  1
285
  0
POINT
  5
51
  8
DEFPOINTS
  6
BYBLOCK
 62
     0
 10
4565.0
 20
16000.0
 30
0.0
  0
POINT
  5
52
  8
DEFPOINTS
  6
BYBLOCK
 62
     0
 10
4850.0
 20
16355.0
 30
0.0
  0
POINT
  5
53
  8
DEFPOINTS
  6
BYBLOCK
 62
     0
 10
4850.0
 20
16407.998731
 30
0.0
  0
ENDBLK
  5
55
  8
0
  0
ENDSEC
  0
SECTION
  2
ENTITIES
  0
DIMENSION
  5
20
  8
TEAM-MAS
  2
*D0
 10
850.0
 20
-407.998731
 30
0.0
 11
0.0
 21
-407.998731
 31
0.0
 12
-4000.0
 22
-16000.0
 32
0.0
 13
-850.0
 23
-355.0
 33
0.0
 14
850.0
 24
-355.0
 34
0.0
  0
LINE
  5
2F
  8
TEAM-AXE
 10
-850.0
 20
0.0
 30
0.0
 11
850.0
 21
0.0
 31
0.0
  0
LINE
  5
32
  8
TEAM-DET1
 10
-6.633186
 20
225.779025
 30
0.0
 11
-357.481312
 21
251.378043
 31
0.0
  0
LINE
  5
34
  8
TEAM-BODY
 10
830.0
 20
375.0
 30
0.0
 11
-830.0
 21
375.0
 31
0.0
  0
LINE
  5
36
  8
TEAM-BODY
 10
-13.224332
 20
276.386794
 30
0.0
 11
-619.900414
 21
322.58587
 31
0.0
  0
LINE
  5
37
  8
TEAM-DET1
 10
-6.633186
 20
-225.779025
 30
0.0
 11
-357.481312
 21
-251.378043
 31
0.0
  0
LINE
  5
38
  8
TEAM-BODY
 10
-830.0
 20
-375.0
 30
0.0
 11
830.0
 21
-375.0
 31
0.0
  0
LINE
  5
39
  8
TEAM-BODY
 10
-13.224332
 20
-276.386794
 30
0.0
 11
-619.900414
 21
-322.58587
 31
0.0
  0
ARC
  5
3A
  8
TEAM-BODY
 10
-39.915584
 20
23.749135
 30
0.0
 40
760.455351
 50
166.208117
 51
181.789647
  0
ARC
  5
3B
  8
TEAM-DET1
 10
20.643759
 20
11.253984
 30
0.0
 40
510.767756
 50
160.573987
 51
181.262527
  0
ARC
  5
3C
  8
TEAM-BODY
 10
-830.0
 20
355.0
 30
0.0
 40
20.0
 50
90.0
 51
180.0
  0
TEXT
  5
3D
  8
TEAM-TXT
 10
-843.526225
 20
336.006772
 30
0.0
 40
30.0
  1
team 111315
 41
0.7
 51
15.0
  7
TEAM
  0
ARC
  5
40
  8
TEAM-BODY
 10
-631.89262
 20
173.066015
 30
0.0
 40
150.0
 50
85.414421
 51
167.692971
  0
ARC
  5
41
  8
TEAM-DET1
 10
-365.476115
 20
151.69814
 30
0.0
 40
100.0
 50
85.414421
 51
162.883382
  0
ARC
  5
42
  8
TEAM-BODY
 10
-830.0
 20
-355.0
 30
0.0
 40
20.0
 50
180.0
 51
270.0
  0
ARC
  5
43
  8
TEAM-BODY
 10
-631.89262
 20
-173.066015
 30
0.0
 40
150.0
 50
192.307029
 51
274.585579
  0
ARC
  5
44
  8
TEAM-DET1
 10
-365.476115
 20
-151.69814
 30
0.0
 40
100.0
 50
197.116618
 51
274.585579
  0
LINE
  5
45
  8
TEAM-BODY
 10
-850.0
 20
355.0
 30
0.0
 11
-850.0
 21
-355.0
 31
0.0
  0
ARC
  5
46
  8
TEAM-DET1
 10
20.643759
 20
-11.253984
 30
0.0
 40
510.767756
 50
178.737473
 51
199.426013
  0
ARC
  5
47
  8
TEAM-BODY
 10
-39.915584
 20
-23.749135
 30
0.0
 40
760.455351
 50
178.210353
 51
193.791883
  0
DIMENSION
  5
48
  8
TEAM-MAS
  2
*D2
 10
850.0
 20
407.998731
 30
0.0
 11
707.5
 21
407.998731
 31
0.0
 12
-4000.0
 22
-16000.0
 32
0.0
 13
565.0
 23
0.0
 33
0.0
 14
850.0
 24
355.0
 34
0.0
  0
DIMENSION
  5
56
  8
TEAM-MAS
  2
*D1
 10
891.071374
 20
-375.0
 30
0.0
 11
891.071374
 21
0.0
 31
0.0
 12
-4000.0
 22
-16000.0
 32
0.0
 13
830.0
 23
375.0
 33
0.0
 14
830.0
 24
-375.0
 34
0.0
 50
90.0
  0
ARC
  5
64
  8
TEAM-DET1
 10
25.508121
 20
33.47461
 30
0.0
 40
695.244459
 50
357.409627
 51
17.141248
  0
ARC
  5
65
  8
TEAM-BODY
 10
25.931942
 20
33.474645
 30
0.0
 40
744.820668
 50
357.424075
 51
17.042363
  0
CIRCLE
  5
66
  8
TEAM-INSP
 10
0.0
 20
0.0
 30
0.0
 40
10.0
  0
LINE
  5
68
  8
TEAM-HIDE
 10
565.0
 20
-25.0
 30
0.0
 11
850.0
 21
-25.0
 31
0.0
  0
LINE
  5
6B
  8
TEAM-HIDE
 10
565.0
 20
25.0
 30
0.0
 11
850.0
 21
25.0
 31
0.0
  0
CIRCLE
  5
6C
  8
TEAM-DET1
 10
565.0
 20
0.0
 30
0.0
 40
25.0
  0
LINE
  5
6D
  8
TEAM-AXE
 10
565.0
 20
40.0
 30
0.0
 11
565.0
 21
-40.0
 31
0.0
  0
LINE
  5
6E
  8
TEAM-AXE
 10
740.0
 20
35.0
 30
0.0
 11
740.0
 21
-35.0
 31
0.0
  0
POLYLINE
  5
6F
  8
TEAM-DET1
 66
     1
 10
0.0
 20
0.0
 30
0.0
 70
     1
  0
VERTEX
  5
E4
  8
TEAM-DET1
 10
749.99127
 20
0.0
 30
0.0
 42
0.041036
  0
VERTEX
  5
E5
  8
TEAM-DET1
 10
749.153206
 20
10.194073
 30
0.0
 42
0.054091
  0
VERTEX
  5
E6
  8
TEAM-DET1
 10
747.064895
 20
17.67767
 30
0.0
 42
0.097129
  0
VERTEX
  5
E7
  8
TEAM-DET1
 10
743.214005
 20
23.634905
 30
0.0
 42
0.203566
  0
VERTEX
  5
E8
  8
TEAM-DET1
 10
740.0
 20
25.0
 30
0.0
 42
0.203566
  0
VERTEX
  5
E9
  8
TEAM-DET1
 10
736.785995
 20
23.634905
 30
0.0
 42
0.097129
  0
VERTEX
  5
EA
  8
TEAM-DET1
 10
732.935105
 20
17.67767
 30
0.0
 42
0.054091
  0
VERTEX
  5
EB
  8
TEAM-DET1
 10
730.846794
 20
10.194073
 30
0.0
 42
0.041036
  0
VERTEX
  5
EC
  8
TEAM-DET1
 10
730.00873
 20
0.0
 30
0.0
 42
0.041036
  0
VERTEX
  5
ED
  8
TEAM-DET1
 10
730.846794
 20
-10.194073
 30
0.0
 42
0.054091
  0
VERTEX
  5
EE
  8
TEAM-DET1
 10
732.935105
 20
-17.67767
 30
0.0
 42
0.097129
  0
VERTEX
  5
EF
  8
TEAM-DET1
 10
736.785995
 20
-23.634905
 30
0.0
 42
0.203566
  0
VERTEX
  5
F0
  8
TEAM-DET1
 10
740.0
 20
-25.0
 30
0.0
 42
0.203566
  0
VERTEX
  5
F1
  8
TEAM-DET1
 10
743.214005
 20
-23.634905
 30
0.0
 42
0.097129
  0
VERTEX
  5
F2
  8
TEAM-DET1
 10
747.064895
 20
-17.67767
 30
0.0
 42
0.054091
  0
VERTEX
  5
F3
  8
TEAM-DET1
 10
749.153206
 20
-10.194073
 30
0.0
 42
0.041036
  0
SEQEND
  5
F4
  8
TEAM-DET1
  0
LINE
  5
70
  8
TEAM-DET1
 10
641.694862
 20
275.0
 30
0.0
 11
144.904226
 21
275.0
 31
0.0
  0
LINE
  5
71
  8
TEAM-BODY
 10
641.694862
 20
325.0
 30
0.0
 11
136.818199
 21
325.0
 31
0.0
  0
LINE
  5
72
  8
TEAM-BODY
 10
90.330453
 20
313.537503
 30
0.0
 11
40.856543
 21
287.560595
 31
0.0
  0
LINE
  5
73
  8
TEAM-DET1
 10
98.910167
 20
263.794969
 30
0.0
 11
46.637854
 21
236.718932
 31
0.0
  0
ARC
  5
74
  8
TEAM-DET1
 10
0.643794
 20
325.513901
 30
0.0
 40
100.0
 50
265.826909
 51
297.383274
  0
ARC
  5
75
  8
TEAM-BODY
 10
-5.631203
 20
376.098099
 30
0.0
 40
100.0
 50
265.645266
 51
297.702292
  0
ARC
  5
76
  8
TEAM-BODY
 10
136.818199
 20
225.0
 30
0.0
 40
100.0
 50
90.0
 51
117.702292
  0
ARC
  5
77
  8
TEAM-DET1
 10
144.904226
 20
175.0
 30
0.0
 40
100.0
 50
90.0
 51
117.383274
  0
ARC
  5
78
  8
TEAM-BODY
 10
830.0
 20
355.0
 30
0.0
 40
20.0
 50
0.0
 51
90.0
  0
ARC
  5
79
  8
TEAM-DET1
 10
641.694862
 20
225.0
 30
0.0
 40
50.0
 50
15.5249
 51
90.0
  0
ARC
  5
7A
  8
TEAM-BODY
 10
641.694862
 20
225.0
 30
0.0
 40
100.0
 50
15.5249
 51
90.0
  0
LINE
  5
7B
  8
TEAM-DET1
 10
641.694862
 20
-275.0
 30
0.0
 11
144.904226
 21
-275.0
 31
0.0
  0
LINE
  5
7C
  8
TEAM-BODY
 10
641.694862
 20
-325.0
 30
0.0
 11
136.818199
 21
-325.0
 31
0.0
  0
LINE
  5
7D
  8
TEAM-DET1
 10
98.910167
 20
-263.794969
 30
0.0
 11
46.637854
 21
-236.718932
 31
0.0
  0
LINE
  5
7E
  8
TEAM-BODY
 10
90.330453
 20
-313.537503
 30
0.0
 11
40.856543
 21
-287.560595
 31
0.0
  0
ARC
  5
7F
  8
TEAM-DET1
 10
0.643794
 20
-325.513901
 30
0.0
 40
100.0
 50
62.616726
 51
94.173091
  0
ARC
  5
80
  8
TEAM-BODY
 10
-5.631203
 20
-376.098099
 30
0.0
 40
100.0
 50
62.297708
 51
94.354734
  0
ARC
  5
81
  8
TEAM-DET1
 10
144.904226
 20
-175.0
 30
0.0
 40
100.0
 50
242.616726
 51
270.0
  0
ARC
  5
82
  8
TEAM-BODY
 10
136.818199
 20
-225.0
 30
0.0
 40
100.0
 50
242.297708
 51
270.0
  0
ARC
  5
83
  8
TEAM-BODY
 10
830.0
 20
-355.0
 30
0.0
 40
20.0
 50
270.0
 51
0.0
  0
ARC
  5
84
  8
TEAM-DET1
 10
641.694862
 20
-225.0
 30
0.0
 40
50.0
 50
270.0
 51
344.4751
  0
ARC
  5
85
  8
TEAM-BODY
 10
641.694862
 20
-225.0
 30
0.0
 40
100.0
 50
270.0
 51
344.4751
  0
LINE
  5
86
  8
TEAM-BODY
 10
850.0
 20
-355.0
 30
0.0
 11
850.0
 21
355.0
 31
0.0
  0
ARC
  5
87
  8
TEAM-DET1
 10
25.508121
 20
-33.47461
 30
0.0
 40
695.244459
 50
342.858752
 51
2.590373
  0
ARC
  5
88
  8
TEAM-BODY
 10
25.931942
 20
-33.474645
 30
0.0
 40
744.820668
 50
342.957637
 51
2.575925
  0
ENDSEC
  0
EOF
