  0
SECTION
  2
HEADER
  9
$ACADVER
  1
AC1009
  9
$INSBASE
 10
0.0
 20
0.0
 30
0.0
  9
$EXTMIN
 10
-376.850491
 20
-10.045152
 30
-0.000001
  9
$EXTMAX
 10
478.872729
 20
640.256237
 30
0.000005
  9
$LIMMIN
 10
-376.850491
 20
-10.045152
  9
$LIMMAX
 10
478.872729
 20
640.256237
  9
$ORTHOMODE
 70
     1
  9
$REGENMODE
 70
     1
  9
$FILLMODE
 70
     1
  9
$QTEXTMODE
 70
     0
  9
$MIRRTEXT
 70
     0
  9
$DRAGMODE
 70
     2
  9
$LTSCALE
 40
50.0
  9
$OSMODE
 70
     0
  9
$ATTMODE
 70
     1
  9
$TEXTSIZE
 40
200.0
  9
$TRACEWID
 40
1.0
  9
$TEXTSTYLE
  7
STANDARD
  9
$CLAYER
  8
TEAM-MAS
  9
$CELTYPE
  6
BYLAYER
  9
$CECOLOR
 62
   256
  9
$DIMSCALE
 40
0.0
  9
$DIMASZ
 40
20.0
  9
$DIMEXO
 40
10.0
  9
$DIMDLI
 40
1.0
  9
$DIMRND
 40
0.0
  9
$DIMDLE
 40
0.0
  9
$DIMEXE
 40
1.0
  9
$DIMTP
 40
0.0
  9
$DIMTM
 40
0.0
  9
$DIMTXT
 40
35.0
  9
$DIMCEN
 40
1.0
  9
$DIMTSZ
 40
0.0
  9
$DIMTOL
 70
     0
  9
$DIMLIM
 70
     0
  9
$DIMTIH
 70
     0
  9
$DIMTOH
 70
     0
  9
$DIMSE1
 70
     0
  9
$DIMSE2
 70
     0
  9
$DIMTAD
 70
     0
  9
$DIMZIN
 70
     0
  9
$DIMBLK
  1

  9
$DIMASO
 70
     1
  9
$DIMSHO
 70
     0
  9
$DIMPOST
  1

  9
$DIMAPOST
  1

  9
$DIMALT
 70
     0
  9
$DIMALTD
 70
     2
  9
$DIMALTF
 40
25.4
  9
$DIMLFAC
 40
1.0
  9
$DIMTOFL
 70
     0
  9
$DIMTVP
 40
0.0
  9
$DIMTIX
 70
     0
  9
$DIMSOXD
 70
     0
  9
$DIMSAH
 70
     0
  9
$DIMBLK1
  1

  9
$DIMBLK2
  1

  9
$DIMSTYLE
  2
TEAM
  9
$DIMCLRD
 70
     9
  9
$DIMCLRE
 70
     9
  9
$DIMCLRT
 70
    11
  9
$DIMTFAC
 40
1.0
  9
$DIMGAP
 40
7.0
  9
$LUNITS
 70
     2
  9
$LUPREC
 70
     1
  9
$SKETCHINC
 40
1.0
  9
$FILLETRAD
 40
5.0
  9
$AUNITS
 70
     0
  9
$AUPREC
 70
     0
  9
$MENU
  1
ROPLANS
  9
$ELEVATION
 40
0.0
  9
$PELEVATION
 40
0.0
  9
$THICKNESS
 40
0.0
  9
$LIMCHECK
 70
     0
  9
$BLIPMODE
 70
     1
  9
$CHAMFERA
 40
0.0
  9
$CHAMFERB
 40
0.0
  9
$SKPOLY
 70
     0
  9
$TDCREATE
 40
2450392.957851
  9
$TDUPDATE
 40
2456052.474209
  9
$TDINDWG
 40
2.075828
  9
$TDUSRTIMER
 40
2.075828
  9
$USRTIMER
 70
     1
  9
$ANGBASE
 50
0.0
  9
$ANGDIR
 70
     0
  9
$PDMODE
 70
     0
  9
$PDSIZE
 40
0.0
  9
$PLINEWID
 40
0.0
  9
$COORDS
 70
     2
  9
$SPLFRAME
 70
     0
  9
$SPLINETYPE
 70
     6
  9
$SPLINESEGS
 70
     8
  9
$ATTDIA
 70
     0
  9
$ATTREQ
 70
     0
  9
$HANDLING
 70
     1
  9
$HANDSEED
  5
E4
  9
$SURFTAB1
 70
    36
  9
$SURFTAB2
 70
    36
  9
$SURFTYPE
 70
     6
  9
$SURFU
 70
     6
  9
$SURFV
 70
     6
  9
$UCSNAME
  2

  9
$UCSORG
 10
0.0
 20
0.0
 30
0.0
  9
$UCSXDIR
 10
1.0
 20
0.0
 30
0.0
  9
$UCSYDIR
 10
0.0
 20
1.0
 30
0.0
  9
$PUCSNAME
  2

  9
$PUCSORG
 10
0.0
 20
0.0
 30
0.0
  9
$PUCSXDIR
 10
1.0
 20
0.0
 30
0.0
  9
$PUCSYDIR
 10
0.0
 20
1.0
 30
0.0
  9
$USERI1
 70
     0
  9
$USERI2
 70
     0
  9
$USERI3
 70
     0
  9
$USERI4
 70
     0
  9
$USERI5
 70
     0
  9
$USERR1
 40
0.0
  9
$USERR2
 40
0.0
  9
$USERR3
 40
0.0
  9
$USERR4
 40
0.0
  9
$USERR5
 40
0.0
  9
$WORLDVIEW
 70
     1
  9
$SHADEDGE
 70
     0
  9
$SHADEDIF
 70
    70
  9
$TILEMODE
 70
     1
  9
$MAXACTVP
 70
    16
  9
$PLIMCHECK
 70
     0
  9
$PEXTMIN
 10
-0.805942
 20
0.005011
 30
0.0
  9
$PEXTMAX
 10
20.250094
 20
11.356329
 30
0.0
  9
$PLIMMIN
 10
0.0
 20
0.0
  9
$PLIMMAX
 10
12.0
 20
9.0
  9
$UNITMODE
 70
     0
  9
$VISRETAIN
 70
     0
  9
$PLINEGEN
 70
     0
  9
$PSLTSCALE
 70
     0
  0
ENDSEC
  0
SECTION
  2
TABLES
  0
TABLE
  2
VPORT
 70
     2
  0
VPORT
  2
*ACTIVE
 70
     0
 10
0.0
 20
0.0
 11
1.0
 21
1.0
 12
51.011119
 22
315.105542
 13
0.0
 23
0.0
 14
1.0
 24
1.0
 15
50.0
 25
50.0
 16
0.0
 26
0.0
 36
1.0
 17
0.0
 27
0.0
 37
0.0
 40
654.395627
 41
1.911765
 42
50.0
 43
0.0
 44
0.0
 50
0.0
 51
0.0
 71
     0
 72
   100
 73
     1
 74
     1
 75
     0
 76
     0
 77
     0
 78
     0
  0
ENDTAB
  0
TABLE
  2
LTYPE
 70
     1
  0
LTYPE
  2
CONTINUOUS
 70
     0
  3
Solid Line
 72
    65
 73
     0
 40
0.0
  0
ENDTAB
  0
TABLE
  2
LAYER
 70
     8
  0
LAYER
  2
0
 70
     0
 62
     7
  6
CONTINUOUS
  0
LAYER
  2
DEFPOINTS
 70
     0
 62
     7
  6
CONTINUOUS
  0
LAYER
  2
TEAM-BODY
 70
     0
 62
     2
  6
CONTINUOUS
  0
LAYER
  2
TEAM-MAS
 70
     0
 62
     9
  6
CONTINUOUS
  0
LAYER
  2
TEAM-TXT
 70
     0
 62
    11
  6
CONTINUOUS
  0
LAYER
  2
TEAM-DET1
 70
     0
 62
     4
  6
CONTINUOUS
  0
LAYER
  2
TEAM-KAN
 70
     0
 62
     6
  6
CONTINUOUS
  0
LAYER
  2
TEAM-INSP
 70
     0
 62
     5
  6
CONTINUOUS
  0
ENDTAB
  0
TABLE
  2
STYLE
 70
     2
  0
STYLE
  2
STANDARD
 70
     0
 40
0.0
 41
1.0
 50
0.0
 71
     0
 42
200.0
  3
txt
  4

  0
STYLE
  2
TEAM
 70
     0
 40
0.0
 41
0.8
 50
15.0
 71
     0
 42
7.0
  3
ROMANS.shx
  4

  0
ENDTAB
  0
TABLE
  2
VIEW
 70
     0
  0
ENDTAB
  0
TABLE
  2
UCS
 70
     0
  0
ENDTAB
  0
TABLE
  2
APPID
 70
     1
  0
APPID
  2
ACAD
 70
     0
  0
ENDTAB
  0
TABLE
  2
DIMSTYLE
 70
     1
  0
DIMSTYLE
  2
TEAM
 70
     0
  3

  4

  5

  6

  7

 40
0.0
 41
20.0
 42
10.0
 43
1.0
 44
1.0
 45
0.0
 46
0.0
 47
0.0
 48
0.0
140
35.0
141
1.0
142
0.0
143
25.4
144
1.0
145
0.0
146
1.0
147
7.0
 71
     0
 72
     0
 73
     0
 74
     0
 75
     0
 76
     0
 77
     0
 78
     0
170
     0
171
     2
172
     0
173
     0
174
     0
175
     0
176
     9
177
     9
178
    11
  0
ENDTAB
  0
ENDSEC
  0
SECTION
  2
BLOCKS
  0
BLOCK
  8
0
  2
$MODEL_SPACE
 70
     0
 10
0.0
 20
0.0
 30
0.0
  3
$MODEL_SPACE
  1

  0
ENDBLK
  5
C1
  8
0
  0
BLOCK
 67
     1
  8
0
  2
$PAPER_SPACE
 70
     0
 10
0.0
 20
0.0
 30
0.0
  3
$PAPER_SPACE
  1

  0
ENDBLK
  5
BF
 67
     1
  8
0
  0
BLOCK
  8
0
  2
*D0
 70
     1
 10
0.0
 20
0.0
 30
0.0
  3
*D0
  1

  0
LINE
  5
31
  8
0
  6
BYBLOCK
 62
     9
 10
8035.0
 20
16150.0
 30
0.0
 11
8412.546897
 21
16150.0
 31
0.0
  0
LINE
  5
32
  8
0
  6
BYBLOCK
 62
     9
 10
8345.012765
 20
16580.0
 30
0.0
 11
8412.546897
 21
16580.0
 31
0.0
  0
LINE
  5
33
  8
0
  6
BYBLOCK
 62
     9
 10
8411.546897
 20
16170.0
 30
0.0
 11
8411.546897
 21
16314.25
 31
0.0
  0
LINE
  5
34
  8
0
  6
BYBLOCK
 62
     9
 10
8411.546897
 20
16560.0
 30
0.0
 11
8411.546897
 21
16415.75
 31
0.0
  0
SOLID
  5
35
  8
0
  6
BYBLOCK
 62
     9
 10
8408.213564
 20
16170.0
 30
0.0
 11
8414.880231
 21
16170.0
 31
0.0
 12
8411.546897
 22
16150.0
 32
0.0
 13
8411.546897
 23
16150.0
 33
0.0
  0
SOLID
  5
36
  8
0
  6
BYBLOCK
 62
     9
 10
8408.213564
 20
16560.0
 30
0.0
 11
8414.880231
 21
16560.0
 31
0.0
 12
8411.546897
 22
16580.0
 32
0.0
 13
8411.546897
 23
16580.0
 33
0.0
  0
TEXT
  5
37
  8
0
  6
BYBLOCK
 62
    11
 10
8429.046897
 20
16321.25
 30
0.0
 40
35.0
  1
430
 50
90.0
  0
POINT
  5
38
  8
DEFPOINTS
  6
BYBLOCK
 62
     0
 10
8025.0
 20
16150.0
 30
0.0
  0
POINT
  5
39
  8
DEFPOINTS
  6
BYBLOCK
 62
     0
 10
8335.012765
 20
16580.0
 30
0.0
  0
POINT
  5
3A
  8
DEFPOINTS
  6
BYBLOCK
 62
     0
 10
8411.546897
 20
16580.0
 30
0.0
  0
ENDBLK
  5
3C
  8
0
  0
BLOCK
  8
0
  2
*D1
 70
     1
 10
0.0
 20
0.0
 30
0.0
  3
*D1
  1

  0
LINE
  5
22
  8
0
  6
BYBLOCK
 62
     9
 10
8010.0
 20
16000.0
 30
0.0
 11
8462.329248
 21
16000.0
 31
0.0
  0
LINE
  5
23
  8
0
  6
BYBLOCK
 62
     9
 10
8345.012765
 20
16580.0
 30
0.0
 11
8462.329248
 21
16580.0
 31
0.0
  0
LINE
  5
24
  8
0
  6
BYBLOCK
 62
     9
 10
8461.329248
 20
16020.0
 30
0.0
 11
8461.329248
 21
16172.166667
 31
0.0
  0
LINE
  5
25
  8
0
  6
BYBLOCK
 62
     9
 10
8461.329248
 20
16560.0
 30
0.0
 11
8461.329248
 21
16407.833333
 31
0.0
  0
SOLID
  5
26
  8
0
  6
BYBLOCK
 62
     9
 10
8457.995914
 20
16020.0
 30
0.0
 11
8464.662581
 21
16020.0
 31
0.0
 12
8461.329248
 22
16000.0
 32
0.0
 13
8461.329248
 23
16000.0
 33
0.0
  0
SOLID
  5
27
  8
0
  6
BYBLOCK
 62
     9
 10
8457.995914
 20
16560.0
 30
0.0
 11
8464.662581
 21
16560.0
 31
0.0
 12
8461.329248
 22
16580.0
 32
0.0
 13
8461.329248
 23
16580.0
 33
0.0
  0
TEXT
  5
28
  8
0
  6
BYBLOCK
 62
    11
 10
8478.829248
 20
16179.166667
 30
0.0
 40
35.0
  1
561-586
 50
90.0
  0
POINT
  5
29
  8
DEFPOINTS
  6
BYBLOCK
 62
     0
 10
8000.0
 20
16000.0
 30
0.0
  0
POINT
  5
2B
  8
DEFPOINTS
  6
BYBLOCK
 62
     0
 10
8335.012765
 20
16580.0
 30
0.0
  0
POINT
  5
2C
  8
DEFPOINTS
  6
BYBLOCK
 62
     0
 10
8461.329248
 20
16580.0
 30
0.0
  0
ENDBLK
  5
2E
  8
0
  0
BLOCK
  8
0
  2
*D2
 70
     1
 10
0.0
 20
0.0
 30
0.0
  3
*D2
  1

  0
LINE
  5
3F
  8
0
  6
BYBLOCK
 62
     9
 10
7625.0
 20
16582.096929
 30
0.0
 11
7625.0
 21
16623.729439
 31
0.0
  0
LINE
  5
40
  8
0
  6
BYBLOCK
 62
     9
 10
8375.0
 20
16582.096929
 30
0.0
 11
8375.0
 21
16623.729439
 31
0.0
  0
LINE
  5
41
  8
0
  6
BYBLOCK
 62
     9
 10
7645.0
 20
16622.729439
 30
0.0
 11
7949.25
 21
16622.729439
 31
0.0
  0
LINE
  5
42
  8
0
  6
BYBLOCK
 62
     9
 10
8355.0
 20
16622.729439
 30
0.0
 11
8050.75
 21
16622.729439
 31
0.0
  0
SOLID
  5
43
  8
0
  6
BYBLOCK
 62
     9
 10
7645.0
 20
16626.062773
 30
0.0
 11
7645.0
 21
16619.396106
 31
0.0
 12
7625.0
 22
16622.729439
 32
0.0
 13
7625.0
 23
16622.729439
 33
0.0
  0
SOLID
  5
44
  8
0
  6
BYBLOCK
 62
     9
 10
8355.0
 20
16626.062773
 30
0.0
 11
8355.0
 21
16619.396106
 31
0.0
 12
8375.0
 22
16622.729439
 32
0.0
 13
8375.0
 23
16622.729439
 33
0.0
  0
TEXT
  5
45
  8
0
  6
BYBLOCK
 62
    11
 10
7956.25
 20
16605.229439
 30
0.0
 40
35.0
  1
750
  0
POINT
  5
46
  8
DEFPOINTS
  6
BYBLOCK
 62
     0
 10
7625.0
 20
16572.096929
 30
0.0
  0
POINT
  5
47
  8
DEFPOINTS
  6
BYBLOCK
 62
     0
 10
8375.0
 20
16572.096929
 30
0.0
  0
POINT
  5
48
  8
DEFPOINTS
  6
BYBLOCK
 62
     0
 10
8375.0
 20
16622.729439
 30
0.0
  0
ENDBLK
  5
4A
  8
0
  0
ENDSEC
  0
SECTION
  2
ENTITIES
  0
DIMENSION
  5
20
  8
TEAM-MAS
  2
*D1
 10
461.329248
 20
580.0
 30
0.0
 11
461.329248
 21
290.0
 31
0.0
 12
-8000.0
 22
-16000.0
 32
0.0
  1
561-586
 13
0.0
 23
0.0
 33
0.0
 14
335.012765
 24
580.0
 34
0.0
 50
90.0
  0
DIMENSION
  5
2F
  8
TEAM-MAS
  2
*D0
 10
411.546897
 20
580.0
 30
0.0
 11
411.546897
 21
365.0
 31
0.0
 12
-8000.0
 22
-16000.0
 32
0.0
 13
25.0
 23
150.0
 33
0.0
 14
335.012765
 24
580.0
 34
0.0
 50
90.0
  0
DIMENSION
  5
3D
  8
TEAM-MAS
  2
*D2
 10
375.0
 20
622.729439
 30
0.0
 11
0.0
 21
622.729439
 31
0.0
 12
-8000.0
 22
-16000.0
 32
0.0
 13
-375.0
 23
572.096929
 33
0.0
 14
375.0
 24
572.096929
 34
0.0
  0
CIRCLE
  5
4B
  8
TEAM-INSP
 10
0.0
 20
0.0
 30
0.0
 40
10.0
  0
LINE
  5
4D
  8
TEAM-DET1
 10
359.0
 20
548.096929
 30
0.0
 11
309.421554
 21
548.096929
 31
0.0
  0
TEXT
  5
4F
  8
TEAM-TXT
 10
-273.647445
 20
525.088243
 30
0.0
 40
30.0
  1
team 111315
 41
0.7
 51
15.0
  7
TEAM
  0
LINE
  5
52
  8
TEAM-DET1
 10
-359.0
 20
548.096929
 30
0.0
 11
-309.421554
 21
548.096929
 31
0.0
  0
LINE
  5
53
  8
TEAM-KAN
 10
-25.0
 20
150.0
 30
0.0
 11
25.0
 21
150.0
 31
0.0
  0
POLYLINE
  5
55
  8
TEAM-BODY
 66
     1
 10
0.0
 20
0.0
 30
0.0
  0
VERTEX
  5
C7
  8
TEAM-BODY
 10
-359.0
 20
548.096929
 30
0.0
  0
VERTEX
  5
C8
  8
TEAM-BODY
 10
-367.0
 20
548.096929
 30
0.0
 42
-0.414214
  0
VERTEX
  5
C9
  8
TEAM-BODY
 10
-375.0
 20
556.096929
 30
0.0
  0
VERTEX
  5
CA
  8
TEAM-BODY
 10
-375.0
 20
572.096929
 30
0.0
 42
-0.460626
  0
VERTEX
  5
CB
  8
TEAM-BODY
 10
-365.758443
 20
580.0
 30
0.0
  0
VERTEX
  5
CC
  8
TEAM-BODY
 10
-335.012765
 20
580.0
 30
0.0
 42
-0.390184
  0
VERTEX
  5
CD
  8
TEAM-BODY
 10
-310.098274
 20
557.065947
 30
0.0
  0
VERTEX
  5
CE
  8
TEAM-BODY
 10
-289.499626
 20
239.058253
 30
0.0
 42
0.375544
  0
VERTEX
  5
CF
  8
TEAM-BODY
 10
-214.403606
 20
165.214054
 30
0.0
  0
VERTEX
  5
D0
  8
TEAM-BODY
 10
-40.0
 20
155.0
 30
0.0
 42
-0.232609
  0
VERTEX
  5
D1
  8
TEAM-BODY
 10
-35.0
 20
152.5
 30
0.0
 42
0.241952
  0
VERTEX
  5
D2
  8
TEAM-BODY
 10
-30.0
 20
150.0
 30
0.0
  0
VERTEX
  5
D3
  8
TEAM-BODY
 10
-25.0
 20
150.0
 30
0.0
  0
SEQEND
  5
D4
  8
TEAM-BODY
  0
LINE
  5
57
  8
TEAM-DET1
 10
-335.012765
 20
580.0
 30
0.0
 11
335.012765
 21
580.0
 31
0.0
  0
POLYLINE
  5
58
  8
TEAM-BODY
 66
     1
 10
0.0
 20
0.0
 30
0.0
  0
VERTEX
  5
D5
  8
TEAM-BODY
 10
359.0
 20
548.096929
 30
0.0
  0
VERTEX
  5
D6
  8
TEAM-BODY
 10
367.0
 20
548.096929
 30
0.0
 42
0.414214
  0
VERTEX
  5
D7
  8
TEAM-BODY
 10
375.0
 20
556.096929
 30
0.0
  0
VERTEX
  5
D8
  8
TEAM-BODY
 10
375.0
 20
572.096929
 30
0.0
 42
0.460626
  0
VERTEX
  5
D9
  8
TEAM-BODY
 10
365.758443
 20
580.0
 30
0.0
  0
VERTEX
  5
DA
  8
TEAM-BODY
 10
335.012765
 20
580.0
 30
0.0
 42
0.390184
  0
VERTEX
  5
DB
  8
TEAM-BODY
 10
310.098274
 20
557.065947
 30
0.0
  0
VERTEX
  5
DC
  8
TEAM-BODY
 10
289.499626
 20
239.058253
 30
0.0
 42
-0.375544
  0
VERTEX
  5
DD
  8
TEAM-BODY
 10
214.403606
 20
165.214054
 30
0.0
  0
VERTEX
  5
DE
  8
TEAM-BODY
 10
40.0
 20
155.0
 30
0.0
 42
0.232609
  0
VERTEX
  5
DF
  8
TEAM-BODY
 10
35.0
 20
152.5
 30
0.0
 42
-0.241952
  0
VERTEX
  5
E0
  8
TEAM-BODY
 10
30.0
 20
150.0
 30
0.0
  0
VERTEX
  5
E1
  8
TEAM-BODY
 10
25.0
 20
150.0
 30
0.0
  0
SEQEND
  5
E2
  8
TEAM-BODY
  0
ENDSEC
  0
EOF
