  0
SECTION
  2
HEADER
  9
$ACADVER
  1
AC1009
  9
$INSBASE
 10
0.0
 20
0.0
 30
0.0
  9
$EXTMIN
 10
-850.054609
 20
-10.018004
 30
-10.000305
  9
$EXTMAX
 10
939.619774
 20
580.018007
 30
0.000305
  9
$LIMMIN
 10
-850.054609
 20
-10.018004
  9
$LIMMAX
 10
939.619774
 20
580.018007
  9
$ORTHOMODE
 70
     1
  9
$REGENMODE
 70
     1
  9
$FILLMODE
 70
     1
  9
$QTEXTMODE
 70
     0
  9
$MIRRTEXT
 70
     0
  9
$DRAGMODE
 70
     2
  9
$LTSCALE
 40
50.0
  9
$OSMODE
 70
     7
  9
$ATTMODE
 70
     1
  9
$TEXTSIZE
 40
200.0
  9
$TRACEWID
 40
1.0
  9
$TEXTSTYLE
  7
STANDARD
  9
$CLAYER
  8
TEAM-MAS
  9
$CELTYPE
  6
BYLAYER
  9
$CECOLOR
 62
   256
  9
$DIMSCALE
 40
0.0
  9
$DIMASZ
 40
20.0
  9
$DIMEXO
 40
10.0
  9
$DIMDLI
 40
1.0
  9
$DIMRND
 40
0.0
  9
$DIMDLE
 40
0.0
  9
$DIMEXE
 40
1.0
  9
$DIMTP
 40
0.0
  9
$DIMTM
 40
0.0
  9
$DIMTXT
 40
35.0
  9
$DIMCEN
 40
1.0
  9
$DIMTSZ
 40
0.0
  9
$DIMTOL
 70
     0
  9
$DIMLIM
 70
     0
  9
$DIMTIH
 70
     0
  9
$DIMTOH
 70
     0
  9
$DIMSE1
 70
     0
  9
$DIMSE2
 70
     0
  9
$DIMTAD
 70
     0
  9
$DIMZIN
 70
     0
  9
$DIMBLK
  1

  9
$DIMASO
 70
     1
  9
$DIMSHO
 70
     0
  9
$DIMPOST
  1

  9
$DIMAPOST
  1

  9
$DIMALT
 70
     0
  9
$DIMALTD
 70
     2
  9
$DIMALTF
 40
25.4
  9
$DIMLFAC
 40
1.0
  9
$DIMTOFL
 70
     0
  9
$DIMTVP
 40
0.0
  9
$DIMTIX
 70
     0
  9
$DIMSOXD
 70
     0
  9
$DIMSAH
 70
     0
  9
$DIMBLK1
  1

  9
$DIMBLK2
  1

  9
$DIMSTYLE
  2
TEAM
  9
$DIMCLRD
 70
     9
  9
$DIMCLRE
 70
     9
  9
$DIMCLRT
 70
    11
  9
$DIMTFAC
 40
1.0
  9
$DIMGAP
 40
7.0
  9
$LUNITS
 70
     2
  9
$LUPREC
 70
     1
  9
$SKETCHINC
 40
1.0
  9
$FILLETRAD
 40
5.0
  9
$AUNITS
 70
     0
  9
$AUPREC
 70
     0
  9
$MENU
  1
ROPLANS
  9
$ELEVATION
 40
0.0
  9
$PELEVATION
 40
0.0
  9
$THICKNESS
 40
0.0
  9
$LIMCHECK
 70
     0
  9
$BLIPMODE
 70
     1
  9
$CHAMFERA
 40
0.0
  9
$CHAMFERB
 40
0.0
  9
$SKPOLY
 70
     0
  9
$TDCREATE
 40
2450392.957851
  9
$TDUPDATE
 40
2455944.698999
  9
$TDINDWG
 40
3.037655
  9
$TDUSRTIMER
 40
3.037655
  9
$USRTIMER
 70
     1
  9
$ANGBASE
 50
0.0
  9
$ANGDIR
 70
     0
  9
$PDMODE
 70
     0
  9
$PDSIZE
 40
0.0
  9
$PLINEWID
 40
0.0
  9
$COORDS
 70
     2
  9
$SPLFRAME
 70
     0
  9
$SPLINETYPE
 70
     6
  9
$SPLINESEGS
 70
     8
  9
$ATTDIA
 70
     0
  9
$ATTREQ
 70
     0
  9
$HANDLING
 70
     1
  9
$HANDSEED
  5
AA
  9
$SURFTAB1
 70
    24
  9
$SURFTAB2
 70
    24
  9
$SURFTYPE
 70
     6
  9
$SURFU
 70
     6
  9
$SURFV
 70
     6
  9
$UCSNAME
  2

  9
$UCSORG
 10
0.0
 20
0.0
 30
0.0
  9
$UCSXDIR
 10
1.0
 20
0.0
 30
0.0
  9
$UCSYDIR
 10
0.0
 20
1.0
 30
0.0
  9
$PUCSNAME
  2

  9
$PUCSORG
 10
0.0
 20
0.0
 30
0.0
  9
$PUCSXDIR
 10
1.0
 20
0.0
 30
0.0
  9
$PUCSYDIR
 10
0.0
 20
1.0
 30
0.0
  9
$USERI1
 70
     0
  9
$USERI2
 70
     0
  9
$USERI3
 70
     0
  9
$USERI4
 70
     0
  9
$USERI5
 70
     0
  9
$USERR1
 40
0.0
  9
$USERR2
 40
0.0
  9
$USERR3
 40
0.0
  9
$USERR4
 40
0.0
  9
$USERR5
 40
0.0
  9
$WORLDVIEW
 70
     1
  9
$SHADEDGE
 70
     0
  9
$SHADEDIF
 70
    70
  9
$TILEMODE
 70
     1
  9
$MAXACTVP
 70
    16
  9
$PLIMCHECK
 70
     0
  9
$PEXTMIN
 10
-0.805942
 20
0.005011
 30
0.0
  9
$PEXTMAX
 10
20.250094
 20
11.356329
 30
0.0
  9
$PLIMMIN
 10
0.0
 20
0.0
  9
$PLIMMAX
 10
12.0
 20
9.0
  9
$UNITMODE
 70
     0
  9
$VISRETAIN
 70
     0
  9
$PLINEGEN
 70
     0
  9
$PSLTSCALE
 70
     0
  0
ENDSEC
  0
SECTION
  2
TABLES
  0
TABLE
  2
VPORT
 70
     2
  0
VPORT
  2
*ACTIVE
 70
     0
 10
0.0
 20
0.0
 11
1.0
 21
1.0
 12
44.782582
 22
285.000001
 13
0.0
 23
0.0
 14
1.0
 24
1.0
 15
20.0
 25
20.0
 16
0.0
 26
0.0
 36
1.0
 17
0.0
 27
0.0
 37
0.0
 40
943.166616
 41
1.903766
 42
50.0
 43
0.0
 44
0.0
 50
0.0
 51
0.0
 71
     0
 72
   100
 73
     1
 74
     1
 75
     0
 76
     0
 77
     0
 78
     0
  0
ENDTAB
  0
TABLE
  2
LTYPE
 70
     3
  0
LTYPE
  2
CONTINUOUS
 70
     0
  3
Solid Line
 72
    65
 73
     0
 40
0.0
  0
LTYPE
  2
31
 70
     0
  3

 72
    65
 73
     4
 40
2.1
 49
1.5
 49
-0.3
 49
0.0
 49
-0.3
  0
LTYPE
  2
22
 70
     0
  3

 72
    65
 73
     2
 40
1.4
 49
1.2
 49
-0.2
  0
ENDTAB
  0
TABLE
  2
LAYER
 70
    10
  0
LAYER
  2
0
 70
     0
 62
     7
  6
CONTINUOUS
  0
LAYER
  2
DEFPOINTS
 70
     0
 62
     7
  6
CONTINUOUS
  0
LAYER
  2
TEAM-BODY
 70
     0
 62
     2
  6
CONTINUOUS
  0
LAYER
  2
TEAM-AXE
 70
     0
 62
    10
  6
31
  0
LAYER
  2
TEAM-MAS
 70
     0
 62
     9
  6
CONTINUOUS
  0
LAYER
  2
TEAM-TXT
 70
     0
 62
    11
  6
CONTINUOUS
  0
LAYER
  2
TEAM-DET1
 70
     0
 62
     4
  6
CONTINUOUS
  0
LAYER
  2
TEAM-HIDE
 70
     0
 62
     8
  6
22
  0
LAYER
  2
TEAM-DET3
 70
     0
 62
    14
  6
CONTINUOUS
  0
LAYER
  2
TEAM-INSP
 70
     0
 62
     5
  6
CONTINUOUS
  0
ENDTAB
  0
TABLE
  2
STYLE
 70
     2
  0
STYLE
  2
STANDARD
 70
     0
 40
0.0
 41
1.0
 50
0.0
 71
     0
 42
200.0
  3
txt
  4

  0
STYLE
  2
TEAM
 70
     0
 40
0.0
 41
0.8
 50
15.0
 71
     0
 42
7.0
  3
ROMANS.shx
  4

  0
ENDTAB
  0
TABLE
  2
VIEW
 70
     0
  0
ENDTAB
  0
TABLE
  2
UCS
 70
     0
  0
ENDTAB
  0
TABLE
  2
APPID
 70
     2
  0
APPID
  2
ACAD
 70
     0
  0
APPID
  2
ROASYM
 70
     0
  0
ENDTAB
  0
TABLE
  2
DIMSTYLE
 70
     1
  0
DIMSTYLE
  2
TEAM
 70
     0
  3

  4

  5

  6

  7

 40
0.0
 41
20.0
 42
10.0
 43
1.0
 44
1.0
 45
0.0
 46
0.0
 47
0.0
 48
0.0
140
35.0
141
1.0
142
0.0
143
25.4
144
1.0
145
0.0
146
1.0
147
7.0
 71
     0
 72
     0
 73
     0
 74
     0
 75
     0
 76
     0
 77
     0
 78
     0
170
     0
171
     2
172
     0
173
     0
174
     0
175
     0
176
     9
177
     9
178
    11
  0
ENDTAB
  0
ENDSEC
  0
SECTION
  2
BLOCKS
  0
BLOCK
  8
0
  2
$MODEL_SPACE
 70
     0
 10
0.0
 20
0.0
 30
0.0
  3
$MODEL_SPACE
  1

  0
ENDBLK
  5
A3
  8
0
  0
BLOCK
 67
     1
  8
0
  2
$PAPER_SPACE
 70
     0
 10
0.0
 20
0.0
 30
0.0
  3
$PAPER_SPACE
  1

  0
ENDBLK
  5
A1
 67
     1
  8
0
  0
BLOCK
  8
0
  2
*D0
 70
     1
 10
0.0
 20
0.0
 30
0.0
  3
*D0
  1

  0
LINE
  5
22
  8
0
  6
BYBLOCK
 62
     9
 10
539.0
 20
240140.0
 30
0.0
 11
539.0
 21
240072.975485
 31
0.0
  0
LINE
  5
23
  8
0
  6
BYBLOCK
 62
     9
 10
591.0
 20
240140.0
 30
0.0
 11
591.0
 21
240072.975485
 31
0.0
  0
LINE
  5
24
  8
0
  6
BYBLOCK
 62
     9
 10
519.0
 20
240073.975485
 30
0.0
 11
499.0
 21
240073.975485
 31
0.0
  0
LINE
  5
25
  8
0
  6
BYBLOCK
 62
     9
 10
611.0
 20
240073.975485
 30
0.0
 11
631.0
 21
240073.975485
 31
0.0
  0
TEXT
  5
26
  8
0
  6
BYBLOCK
 62
    11
 10
644.139689
 20
240056.475485
 30
0.0
 40
35.0
  1
52
  0
LINE
  5
27
  8
0
  6
BYBLOCK
 62
     9
 10
539.0
 20
240073.975485
 30
0.0
 11
591.0
 21
240073.975485
 31
0.0
  0
SOLID
  5
28
  8
0
  6
BYBLOCK
 62
     9
 10
519.0
 20
240077.308818
 30
0.0
 11
519.0
 21
240070.642151
 31
0.0
 12
539.0
 22
240073.975485
 32
0.0
 13
539.0
 23
240073.975485
 33
0.0
  0
SOLID
  5
29
  8
0
  6
BYBLOCK
 62
     9
 10
611.0
 20
240077.308818
 30
0.0
 11
611.0
 21
240070.642151
 31
0.0
 12
591.0
 22
240073.975485
 32
0.0
 13
591.0
 23
240073.975485
 33
0.0
  0
POINT
  5
2A
  8
DEFPOINTS
  6
BYBLOCK
 62
     0
 10
539.0
 20
240150.0
 30
10.0
  0
POINT
  5
2C
  8
DEFPOINTS
  6
BYBLOCK
 62
     0
 10
591.0
 20
240150.0
 30
10.0
  0
POINT
  5
2D
  8
DEFPOINTS
  6
BYBLOCK
 62
     0
 10
591.0
 20
240073.975485
 30
0.0
  0
ENDBLK
  5
2F
  8
0
  0
BLOCK
  8
0
  2
*D1
 70
     1
 10
0.0
 20
0.0
 30
0.0
  3
*D1
  1

  0
LINE
  5
58
  8
0
  6
BYBLOCK
 62
     9
 10
860.0
 20
240580.0
 30
0.0
 11
923.065156
 21
240580.0
 31
0.0
  0
LINE
  5
59
  8
0
  6
BYBLOCK
 62
     9
 10
601.0
 20
240150.0
 30
0.0
 11
923.065156
 21
240150.0
 31
0.0
  0
LINE
  5
5A
  8
0
  6
BYBLOCK
 62
     9
 10
922.065156
 20
240560.0
 30
0.0
 11
922.065156
 21
240415.75
 31
0.0
  0
LINE
  5
5B
  8
0
  6
BYBLOCK
 62
     9
 10
922.065156
 20
240170.0
 30
0.0
 11
922.065156
 21
240314.25
 31
0.0
  0
SOLID
  5
5C
  8
0
  6
BYBLOCK
 62
     9
 10
918.731823
 20
240560.0
 30
0.0
 11
925.39849
 21
240560.0
 31
0.0
 12
922.065156
 22
240580.0
 32
0.0
 13
922.065156
 23
240580.0
 33
0.0
  0
SOLID
  5
5D
  8
0
  6
BYBLOCK
 62
     9
 10
918.731823
 20
240170.0
 30
0.0
 11
925.39849
 21
240170.0
 31
0.0
 12
922.065156
 22
240150.0
 32
0.0
 13
922.065156
 23
240150.0
 33
0.0
  0
TEXT
  5
5E
  8
0
  6
BYBLOCK
 62
    11
 10
939.565156
 20
240321.25
 30
0.0
 40
35.0
  1
430
 50
90.0
  0
POINT
  5
5F
  8
DEFPOINTS
  6
BYBLOCK
 62
     0
 10
850.0
 20
240580.0
 30
0.0
  0
POINT
  5
60
  8
DEFPOINTS
  6
BYBLOCK
 62
     0
 10
591.0
 20
240150.0
 30
0.0
  0
POINT
  5
61
  8
DEFPOINTS
  6
BYBLOCK
 62
     0
 10
922.065156
 20
240150.0
 30
0.0
  0
ENDBLK
  5
63
  8
0
  0
ENDSEC
  0
SECTION
  2
ENTITIES
  0
DIMENSION
  5
20
  8
TEAM-MAS
  2
*D0
 10
591.0
 20
73.975485
 30
-10.0
 11
673.306356
 21
73.975485
 31
-10.0
 12
0.0
 22
-240000.0
 32
-10.0
 70
   128
 13
539.0
 23
150.0
 33
0.0
 14
591.0
 24
150.0
 34
0.0
  0
LINE
  5
30
  8
TEAM-DET1
 10
142.251709
 20
552.320738
 30
0.0
 11
681.182723
 21
576.237524
 31
0.0
  0
TEXT
  5
32
  8
TEAM-TXT
 10
464.907245
 20
533.297465
 30
0.0
 40
30.0
  1
team 111317
 41
0.7
 51
15.0
  7
TEAM
  0
LINE
  5
35
  8
TEAM-BODY
 10
-422.325018
 20
170.0
 30
0.0
 11
594.268484
 21
157.326328
 31
0.0
  0
LINE
  5
37
  8
TEAM-BODY
 10
850.0
 20
580.0
 30
0.0
 11
-850.0
 21
580.0
 31
0.0
  0
LINE
  5
38
  8
TEAM-DET3
 10
364.879194
 20
0.0
 30
0.0
 11
444.879194
 21
0.0
 31
0.0
  0
LINE
  5
3A
  8
TEAM-DET3
 10
-382.824286
 20
0.0
 30
0.0
 11
-302.824286
 21
0.0
 31
0.0
  0
LINE
  5
3B
  8
TEAM-DET1
 10
-676.002086
 20
574.64307
 30
0.0
 11
-5.674383
 21
486.948273
 31
0.0
  0
LINE
  5
3C
  8
TEAM-HIDE
 10
500.856633
 20
0.0
 30
0.0
 11
-456.334874
 21
0.0
 31
0.0
  0
LINE
  5
3F
  8
TEAM-BODY
 10
-516.029275
 20
215.036594
 30
0.0
 11
-800.0
 21
580.0
 31
0.0
  0
LINE
  5
40
  8
TEAM-BODY
 10
-850.0
 20
560.0
 30
0.0
 11
-784.4384
 21
560.0
 31
0.0
  0
LINE
  5
41
  8
TEAM-BODY
 10
-850.0
 20
580.0
 30
0.0
 11
-850.0
 21
560.0
 31
0.0
  0
ARC
  5
42
  8
TEAM-BODY
 10
-422.325018
 20
290.0
 30
0.0
 40
120.0
 50
218.659808
 51
270.0
  0
LINE
  5
43
  8
TEAM-DET3
 10
-377.707182
 20
169.443758
 30
0.0
 11
-357.824286
 21
75.0
 31
0.0
  0
LINE
  5
44
  8
TEAM-DET3
 10
-292.824286
 20
75.0
 30
0.0
 11
-392.824286
 21
75.0
 31
0.0
  0
LINE
  5
45
  8
TEAM-DET3
 10
-292.824286
 20
25.0
 30
0.0
 11
-392.824286
 21
25.0
 31
0.0
  0
LINE
  5
46
  8
TEAM-DET3
 10
-382.824286
 20
25.0
 30
0.0
 11
-382.824286
 21
0.0
 31
0.0
  0
LINE
  5
47
  8
TEAM-DET3
 10
-302.824286
 20
25.0
 30
0.0
 11
-302.824286
 21
0.0
 31
0.0
  0
LINE
  5
48
  8
TEAM-DET3
 10
-392.824286
 20
170.0
 30
0.0
 11
-392.824286
 21
25.0
 31
0.0
  0
LINE
  5
49
  8
TEAM-DET3
 10
-292.824286
 20
168.38554
 30
0.0
 11
-292.824286
 21
25.0
 31
0.0
  0
LINE
  5
4A
  8
TEAM-DET3
 10
-317.824286
 20
168.69721
 30
0.0
 11
-317.824286
 21
25.0
 31
0.0
  0
LINE
  5
4B
  8
TEAM-DET1
 10
-5.674383
 20
486.948273
 30
0.0
 11
142.251709
 21
552.320738
 31
0.0
  0
LINE
  5
4C
  8
TEAM-DET3
 10
354.879194
 20
75.0
 30
0.0
 11
454.879194
 21
75.0
 31
0.0
  0
LINE
  5
4D
  8
TEAM-DET3
 10
437.622185
 20
159.279207
 30
0.0
 11
419.879194
 21
75.0
 31
0.0
  0
CIRCLE
  5
4E
  8
TEAM-INSP
 10
0.0
 20
0.0
 30
0.0
 40
10.0
  0
LINE
  5
50
  8
TEAM-DET3
 10
354.879194
 20
25.0
 30
0.0
 11
454.879194
 21
25.0
 31
0.0
  0
LINE
  5
51
  8
TEAM-DET3
 10
364.879194
 20
25.0
 30
0.0
 11
364.879194
 21
0.0
 31
0.0
  0
LINE
  5
52
  8
TEAM-DET3
 10
444.879194
 20
25.0
 30
0.0
 11
444.879194
 21
0.0
 31
0.0
  0
LINE
  5
53
  8
TEAM-DET3
 10
354.879194
 20
160.310747
 30
0.0
 11
354.879194
 21
25.0
 31
0.0
  0
LINE
  5
54
  8
TEAM-DET3
 10
379.879194
 20
159.999077
 30
0.0
 11
379.879194
 21
25.0
 31
0.0
  0
LINE
  5
55
  8
TEAM-DET3
 10
454.879194
 20
159.064067
 30
0.0
 11
454.879194
 21
25.0
 31
0.0
  0
DIMENSION
  5
56
  8
TEAM-MAS
  2
*D1
 10
922.065156
 20
150.0
 30
0.0
 11
922.065156
 21
365.0
 31
0.0
 12
0.0
 22
-240000.0
 32
0.0
 13
850.0
 23
580.0
 33
0.0
 14
591.0
 24
150.0
 34
0.0
 50
90.0
1001
ROASYM
1002
{
1002
}
  0
LINE
  5
65
  8
TEAM-DET1
 10
539.0
 20
150.0
 30
0.0
 11
591.0
 21
150.0
 31
0.0
  0
LINE
  5
66
  8
TEAM-DET1
 10
539.0
 20
157.326328
 30
0.0
 11
539.0
 21
150.0
 31
0.0
  0
LINE
  5
67
  8
TEAM-BODY
 10
701.207892
 20
249.44522
 30
0.0
 11
769.904958
 21
580.0
 31
0.0
  0
ARC
  5
68
  8
TEAM-BODY
 10
580.488139
 20
281.455324
 30
0.0
 40
124.891575
 50
276.334827
 51
345.149183
  0
LINE
  5
69
  8
TEAM-DET1
 10
591.0
 20
157.326328
 30
0.0
 11
591.0
 21
150.0
 31
0.0
  0
LINE
  5
6A
  8
TEAM-AXE
 10
565.0
 20
187.326328
 30
0.0
 11
565.0
 21
90.0
 31
0.0
  0
LINE
  5
6D
  8
TEAM-BODY
 10
850.0
 20
560.0
 30
0.0
 11
765.748488
 21
560.0
 31
0.0
  0
LINE
  5
6E
  8
TEAM-BODY
 10
850.0
 20
580.0
 30
0.0
 11
850.0
 21
560.0
 31
0.0
  0
ENDSEC
  0
EOF
