  0
SECTION
  2
HEADER
  9
$ACADVER
  1
AC1009
  9
$INSBASE
 10
0.0
 20
0.0
 30
0.0
  9
$EXTMIN
 10
-801.079709
 20
-10.03593
 30
-0.000001
  9
$EXTMAX
 10
860.834664
 20
633.582395
 30
0.000005
  9
$LIMMIN
 10
-801.079709
 20
-10.03593
  9
$LIMMAX
 10
860.834664
 20
633.582395
  9
$ORTHOMODE
 70
     1
  9
$REGENMODE
 70
     1
  9
$FILLMODE
 70
     1
  9
$QTEXTMODE
 70
     0
  9
$MIRRTEXT
 70
     0
  9
$DRAGMODE
 70
     2
  9
$LTSCALE
 40
50.0
  9
$OSMODE
 70
     0
  9
$ATTMODE
 70
     1
  9
$TEXTSIZE
 40
200.0
  9
$TRACEWID
 40
1.0
  9
$TEXTSTYLE
  7
STANDARD
  9
$CLAYER
  8
TEAM-MAS
  9
$CELTYPE
  6
BYLAYER
  9
$CECOLOR
 62
   256
  9
$DIMSCALE
 40
0.0
  9
$DIMASZ
 40
20.0
  9
$DIMEXO
 40
10.0
  9
$DIMDLI
 40
1.0
  9
$DIMRND
 40
0.0
  9
$DIMDLE
 40
0.0
  9
$DIMEXE
 40
1.0
  9
$DIMTP
 40
0.0
  9
$DIMTM
 40
0.0
  9
$DIMTXT
 40
35.0
  9
$DIMCEN
 40
1.0
  9
$DIMTSZ
 40
0.0
  9
$DIMTOL
 70
     0
  9
$DIMLIM
 70
     0
  9
$DIMTIH
 70
     0
  9
$DIMTOH
 70
     0
  9
$DIMSE1
 70
     0
  9
$DIMSE2
 70
     0
  9
$DIMTAD
 70
     0
  9
$DIMZIN
 70
     0
  9
$DIMBLK
  1

  9
$DIMASO
 70
     1
  9
$DIMSHO
 70
     0
  9
$DIMPOST
  1

  9
$DIMAPOST
  1

  9
$DIMALT
 70
     0
  9
$DIMALTD
 70
     2
  9
$DIMALTF
 40
25.4
  9
$DIMLFAC
 40
1.0
  9
$DIMTOFL
 70
     0
  9
$DIMTVP
 40
0.0
  9
$DIMTIX
 70
     0
  9
$DIMSOXD
 70
     0
  9
$DIMSAH
 70
     0
  9
$DIMBLK1
  1

  9
$DIMBLK2
  1

  9
$DIMSTYLE
  2
TEAM
  9
$DIMCLRD
 70
     9
  9
$DIMCLRE
 70
     9
  9
$DIMCLRT
 70
    11
  9
$DIMTFAC
 40
1.0
  9
$DIMGAP
 40
7.0
  9
$LUNITS
 70
     2
  9
$LUPREC
 70
     1
  9
$SKETCHINC
 40
1.0
  9
$FILLETRAD
 40
5.0
  9
$AUNITS
 70
     0
  9
$AUPREC
 70
     0
  9
$MENU
  1
ROPLANS
  9
$ELEVATION
 40
0.0
  9
$PELEVATION
 40
0.0
  9
$THICKNESS
 40
0.0
  9
$LIMCHECK
 70
     0
  9
$BLIPMODE
 70
     1
  9
$CHAMFERA
 40
0.0
  9
$CHAMFERB
 40
0.0
  9
$SKPOLY
 70
     0
  9
$TDCREATE
 40
2450392.957851
  9
$TDUPDATE
 40
2456052.474209
  9
$TDINDWG
 40
2.075828
  9
$TDUSRTIMER
 40
2.075828
  9
$USRTIMER
 70
     1
  9
$ANGBASE
 50
0.0
  9
$ANGDIR
 70
     0
  9
$PDMODE
 70
     0
  9
$PDSIZE
 40
0.0
  9
$PLINEWID
 40
0.0
  9
$COORDS
 70
     2
  9
$SPLFRAME
 70
     0
  9
$SPLINETYPE
 70
     6
  9
$SPLINESEGS
 70
     8
  9
$ATTDIA
 70
     0
  9
$ATTREQ
 70
     0
  9
$HANDLING
 70
     1
  9
$HANDSEED
  5
DD
  9
$SURFTAB1
 70
    36
  9
$SURFTAB2
 70
    36
  9
$SURFTYPE
 70
     6
  9
$SURFU
 70
     6
  9
$SURFV
 70
     6
  9
$UCSNAME
  2

  9
$UCSORG
 10
0.0
 20
0.0
 30
0.0
  9
$UCSXDIR
 10
1.0
 20
0.0
 30
0.0
  9
$UCSYDIR
 10
0.0
 20
1.0
 30
0.0
  9
$PUCSNAME
  2

  9
$PUCSORG
 10
0.0
 20
0.0
 30
0.0
  9
$PUCSXDIR
 10
1.0
 20
0.0
 30
0.0
  9
$PUCSYDIR
 10
0.0
 20
1.0
 30
0.0
  9
$USERI1
 70
     0
  9
$USERI2
 70
     0
  9
$USERI3
 70
     0
  9
$USERI4
 70
     0
  9
$USERI5
 70
     0
  9
$USERR1
 40
0.0
  9
$USERR2
 40
0.0
  9
$USERR3
 40
0.0
  9
$USERR4
 40
0.0
  9
$USERR5
 40
0.0
  9
$WORLDVIEW
 70
     1
  9
$SHADEDGE
 70
     0
  9
$SHADEDIF
 70
    70
  9
$TILEMODE
 70
     1
  9
$MAXACTVP
 70
    16
  9
$PLIMCHECK
 70
     0
  9
$PEXTMIN
 10
-0.805942
 20
0.005011
 30
0.0
  9
$PEXTMAX
 10
20.250094
 20
11.356329
 30
0.0
  9
$PLIMMIN
 10
0.0
 20
0.0
  9
$PLIMMAX
 10
12.0
 20
9.0
  9
$UNITMODE
 70
     0
  9
$VISRETAIN
 70
     0
  9
$PLINEGEN
 70
     0
  9
$PSLTSCALE
 70
     0
  0
ENDSEC
  0
SECTION
  2
TABLES
  0
TABLE
  2
VPORT
 70
     2
  0
VPORT
  2
*ACTIVE
 70
     0
 10
0.0
 20
0.0
 11
1.0
 21
1.0
 12
29.877478
 22
311.773233
 13
0.0
 23
0.0
 14
1.0
 24
1.0
 15
50.0
 25
50.0
 16
0.0
 26
0.0
 36
1.0
 17
0.0
 27
0.0
 37
0.0
 40
872.171903
 41
1.911765
 42
50.0
 43
0.0
 44
0.0
 50
0.0
 51
0.0
 71
     0
 72
   100
 73
     1
 74
     1
 75
     0
 76
     0
 77
     0
 78
     0
  0
ENDTAB
  0
TABLE
  2
LTYPE
 70
     3
  0
LTYPE
  2
CONTINUOUS
 70
     0
  3
Solid Line
 72
    65
 73
     0
 40
0.0
  0
LTYPE
  2
31
 70
     0
  3

 72
    65
 73
     4
 40
2.1
 49
1.5
 49
-0.3
 49
0.0
 49
-0.3
  0
LTYPE
  2
22
 70
     0
  3

 72
    65
 73
     2
 40
1.4
 49
1.2
 49
-0.2
  0
ENDTAB
  0
TABLE
  2
LAYER
 70
    11
  0
LAYER
  2
0
 70
     0
 62
     7
  6
CONTINUOUS
  0
LAYER
  2
DEFPOINTS
 70
     0
 62
     7
  6
CONTINUOUS
  0
LAYER
  2
TEAM-BODY
 70
     0
 62
     2
  6
CONTINUOUS
  0
LAYER
  2
TEAM-AXE
 70
     0
 62
    10
  6
31
  0
LAYER
  2
TEAM-MAS
 70
     0
 62
     9
  6
CONTINUOUS
  0
LAYER
  2
TEAM-TXT
 70
     0
 62
    11
  6
CONTINUOUS
  0
LAYER
  2
TEAM-DET1
 70
     0
 62
     4
  6
CONTINUOUS
  0
LAYER
  2
TEAM-HIDE
 70
     0
 62
     8
  6
22
  0
LAYER
  2
TEAM-KAN
 70
     0
 62
     6
  6
CONTINUOUS
  0
LAYER
  2
TEAM-DET3
 70
     0
 62
    14
  6
CONTINUOUS
  0
LAYER
  2
TEAM-INSP
 70
     0
 62
     5
  6
CONTINUOUS
  0
ENDTAB
  0
TABLE
  2
STYLE
 70
     2
  0
STYLE
  2
STANDARD
 70
     0
 40
0.0
 41
1.0
 50
0.0
 71
     0
 42
200.0
  3
txt
  4

  0
STYLE
  2
TEAM
 70
     0
 40
0.0
 41
0.8
 50
15.0
 71
     0
 42
7.0
  3
ROMANS.shx
  4

  0
ENDTAB
  0
TABLE
  2
VIEW
 70
     0
  0
ENDTAB
  0
TABLE
  2
UCS
 70
     0
  0
ENDTAB
  0
TABLE
  2
APPID
 70
     2
  0
APPID
  2
ACAD
 70
     0
  0
APPID
  2
ROASYM
 70
     0
  0
ENDTAB
  0
TABLE
  2
DIMSTYLE
 70
     1
  0
DIMSTYLE
  2
TEAM
 70
     0
  3

  4

  5

  6

  7

 40
0.0
 41
20.0
 42
10.0
 43
1.0
 44
1.0
 45
0.0
 46
0.0
 47
0.0
 48
0.0
140
35.0
141
1.0
142
0.0
143
25.4
144
1.0
145
0.0
146
1.0
147
7.0
 71
     0
 72
     0
 73
     0
 74
     0
 75
     0
 76
     0
 77
     0
 78
     0
170
     0
171
     2
172
     0
173
     0
174
     0
175
     0
176
     9
177
     9
178
    11
  0
ENDTAB
  0
ENDSEC
  0
SECTION
  2
BLOCKS
  0
BLOCK
  8
0
  2
$MODEL_SPACE
 70
     0
 10
0.0
 20
0.0
 30
0.0
  3
$MODEL_SPACE
  1

  0
ENDBLK
  5
CC
  8
0
  0
BLOCK
 67
     1
  8
0
  2
$PAPER_SPACE
 70
     0
 10
0.0
 20
0.0
 30
0.0
  3
$PAPER_SPACE
  1

  0
ENDBLK
  5
CA
 67
     1
  8
0
  0
BLOCK
  8
0
  2
*D0
 70
     1
 10
0.0
 20
0.0
 30
0.0
  3
*D0
  1

  0
LINE
  5
4F
  8
0
  6
BYBLOCK
 62
     9
 10
12488.999253
 20
139.98
 30
0.0
 11
12488.999253
 21
85.227391
 31
0.0
  0
LINE
  5
50
  8
0
  6
BYBLOCK
 62
     9
 10
12541.000747
 20
140.023418
 30
0.0
 11
12541.000747
 21
85.227391
 31
0.0
  0
LINE
  5
51
  8
0
  6
BYBLOCK
 62
     9
 10
12468.999253
 20
86.227391
 30
0.0
 11
12448.999253
 21
86.227391
 31
0.0
  0
LINE
  5
52
  8
0
  6
BYBLOCK
 62
     9
 10
12561.000747
 20
86.227391
 30
0.0
 11
12581.000747
 21
86.227391
 31
0.0
  0
TEXT
  5
53
  8
0
  6
BYBLOCK
 62
    11
 10
12572.243521
 20
68.727391
 30
0.0
 40
35.0
  1
52
  0
LINE
  5
54
  8
0
  6
BYBLOCK
 62
     9
 10
12488.999253
 20
86.227391
 30
0.0
 11
12541.000747
 21
86.227391
 31
0.0
  0
SOLID
  5
55
  8
0
  6
BYBLOCK
 62
     9
 10
12468.999253
 20
89.560725
 30
0.0
 11
12468.999253
 21
82.894058
 31
0.0
 12
12488.999253
 22
86.227391
 32
0.0
 13
12488.999253
 23
86.227391
 33
0.0
  0
SOLID
  5
56
  8
0
  6
BYBLOCK
 62
     9
 10
12561.000747
 20
89.560725
 30
0.0
 11
12561.000747
 21
82.894058
 31
0.0
 12
12541.000747
 22
86.227391
 32
0.0
 13
12541.000747
 23
86.227391
 33
0.0
  0
POINT
  5
57
  8
DEFPOINTS
  6
BYBLOCK
 62
     0
 10
12488.999253
 20
149.98
 30
0.0
  0
POINT
  5
58
  8
DEFPOINTS
  6
BYBLOCK
 62
     0
 10
12541.000747
 20
150.023418
 30
0.0
  0
POINT
  5
59
  8
DEFPOINTS
  6
BYBLOCK
 62
     0
 10
12541.000747
 20
86.227391
 30
0.0
  0
ENDBLK
  5
5B
  8
0
  0
BLOCK
  8
0
  2
*D1
 70
     1
 10
0.0
 20
0.0
 30
0.0
  3
*D1
  1

  0
LINE
  5
22
  8
0
  6
BYBLOCK
 62
     9
 10
12810.0
 20
580.0
 30
0.0
 11
12844.299548
 21
580.0
 31
0.0
  0
LINE
  5
23
  8
0
  6
BYBLOCK
 62
     9
 10
12525.0
 20
150.001709
 30
0.0
 11
12844.299548
 21
150.001709
 31
0.0
  0
LINE
  5
24
  8
0
  6
BYBLOCK
 62
     9
 10
12843.299548
 20
560.0
 30
0.0
 11
12843.299548
 21
415.750854
 31
0.0
  0
LINE
  5
25
  8
0
  6
BYBLOCK
 62
     9
 10
12843.299548
 20
170.001709
 30
0.0
 11
12843.299548
 21
314.250854
 31
0.0
  0
SOLID
  5
26
  8
0
  6
BYBLOCK
 62
     9
 10
12839.966214
 20
560.0
 30
0.0
 11
12846.632881
 21
560.0
 31
0.0
 12
12843.299548
 22
580.0
 32
0.0
 13
12843.299548
 23
580.0
 33
0.0
  0
SOLID
  5
27
  8
0
  6
BYBLOCK
 62
     9
 10
12839.966214
 20
170.001709
 30
0.0
 11
12846.632881
 21
170.001709
 31
0.0
 12
12843.299548
 22
150.001709
 32
0.0
 13
12843.299548
 23
150.001709
 33
0.0
  0
TEXT
  5
28
  8
0
  6
BYBLOCK
 62
    11
 10
12860.799548
 20
321.250854
 30
0.0
 40
35.0
  1
430
 50
90.0
  0
POINT
  5
29
  8
DEFPOINTS
  6
BYBLOCK
 62
     0
 10
12800.0
 20
580.0
 30
0.0
  0
POINT
  5
2B
  8
DEFPOINTS
  6
BYBLOCK
 62
     0
 10
12515.0
 20
150.001709
 30
0.0
  0
POINT
  5
2C
  8
DEFPOINTS
  6
BYBLOCK
 62
     0
 10
12843.299548
 20
150.001709
 30
0.0
  0
ENDBLK
  5
2E
  8
0
  0
BLOCK
  8
0
  2
*D2
 70
     1
 10
0.0
 20
0.0
 30
0.0
  3
*D2
  1

  0
LINE
  5
66
  8
0
  6
BYBLOCK
 62
     9
 10
11200.0
 20
590.0
 30
0.0
 11
11200.0
 21
617.046538
 31
0.0
  0
LINE
  5
67
  8
0
  6
BYBLOCK
 62
     9
 10
12800.0
 20
590.0
 30
0.0
 11
12800.0
 21
617.046538
 31
0.0
  0
LINE
  5
68
  8
0
  6
BYBLOCK
 62
     9
 10
11220.0
 20
616.046538
 30
0.0
 11
11940.5
 21
616.046538
 31
0.0
  0
LINE
  5
69
  8
0
  6
BYBLOCK
 62
     9
 10
12780.0
 20
616.046538
 30
0.0
 11
12059.5
 21
616.046538
 31
0.0
  0
SOLID
  5
6A
  8
0
  6
BYBLOCK
 62
     9
 10
11220.0
 20
619.379872
 30
0.0
 11
11220.0
 21
612.713205
 31
0.0
 12
11200.0
 22
616.046538
 32
0.0
 13
11200.0
 23
616.046538
 33
0.0
  0
SOLID
  5
6B
  8
0
  6
BYBLOCK
 62
     9
 10
12780.0
 20
619.379872
 30
0.0
 11
12780.0
 21
612.713205
 31
0.0
 12
12800.0
 22
616.046538
 32
0.0
 13
12800.0
 23
616.046538
 33
0.0
  0
TEXT
  5
6C
  8
0
  6
BYBLOCK
 62
    11
 10
11947.5
 20
598.546538
 30
0.0
 40
35.0
  1
1600
  0
POINT
  5
6D
  8
DEFPOINTS
  6
BYBLOCK
 62
     0
 10
11200.0
 20
580.0
 30
0.0
  0
POINT
  5
6E
  8
DEFPOINTS
  6
BYBLOCK
 62
     0
 10
12800.0
 20
580.0
 30
0.0
  0
POINT
  5
6F
  8
DEFPOINTS
  6
BYBLOCK
 62
     0
 10
12800.0
 20
616.046538
 30
0.0
  0
ENDBLK
  5
71
  8
0
  0
ENDSEC
  0
SECTION
  2
ENTITIES
  0
DIMENSION
  5
20
  8
TEAM-MAS
  2
*D1
 10
843.299548
 20
150.001709
 30
0.0
 11
843.299548
 21
365.000854
 31
0.0
 12
-12000.0
 22
0.0
 32
0.0
 13
800.0
 23
580.0
 33
0.0
 14
515.0
 24
150.001709
 34
0.0
 50
90.0
1001
ROASYM
1002
{
1002
}
  0
LINE
  5
30
  8
TEAM-BODY
 10
651.207892
 20
249.44522
 30
0.0
 11
719.904958
 21
580.0
 31
0.0
  0
LINE
  5
32
  8
TEAM-BODY
 10
-466.029275
 20
215.036594
 30
0.0
 11
-750.0
 21
580.0
 31
0.0
  0
LINE
  5
33
  8
TEAM-HIDE
 10
445.856633
 20
0.0
 30
0.0
 11
-406.334874
 21
0.0
 31
0.0
  0
LINE
  5
36
  8
TEAM-BODY
 10
-372.325018
 20
170.0
 30
0.0
 11
475.0
 21
155.001709
 31
0.0
  0
LINE
  5
37
  8
TEAM-DET3
 10
387.014923
 20
156.394711
 30
0.0
 11
369.879194
 21
75.0
 31
0.0
  0
LINE
  5
39
  8
TEAM-DET3
 10
404.879194
 20
156.111879
 30
0.0
 11
404.879194
 21
25.0
 31
0.0
  0
LINE
  5
3A
  8
TEAM-DET3
 10
394.879194
 20
25.0
 30
0.0
 11
394.879194
 21
0.0
 31
0.0
  0
LINE
  5
3B
  8
TEAM-DET3
 10
-342.824286
 20
169.532937
 30
0.0
 11
-342.824286
 21
25.0
 31
0.0
  0
LINE
  5
3C
  8
TEAM-DET3
 10
-327.675464
 20
169.293097
 30
0.0
 11
-307.824286
 21
75.0
 31
0.0
  0
LINE
  5
3D
  8
TEAM-DET3
 10
-242.824286
 20
167.949711
 30
0.0
 11
-242.824286
 21
25.0
 31
0.0
  0
LINE
  5
3E
  8
TEAM-DET3
 10
-267.824286
 20
168.345518
 30
0.0
 11
-267.824286
 21
25.0
 31
0.0
  0
LINE
  5
3F
  8
TEAM-DET3
 10
329.879194
 20
157.299298
 30
0.0
 11
329.879194
 21
25.0
 31
0.0
  0
LINE
  5
40
  8
TEAM-DET3
 10
304.879194
 20
157.695105
 30
0.0
 11
304.879194
 21
25.0
 31
0.0
  0
LINE
  5
41
  8
TEAM-DET3
 10
-332.824286
 20
0.0
 30
0.0
 11
-252.824286
 21
0.0
 31
0.0
  0
LINE
  5
42
  8
TEAM-DET3
 10
-242.824286
 20
25.0
 30
0.0
 11
-342.824286
 21
25.0
 31
0.0
  0
LINE
  5
43
  8
TEAM-DET3
 10
-242.824286
 20
75.0
 30
0.0
 11
-342.824286
 21
75.0
 31
0.0
  0
LINE
  5
44
  8
TEAM-DET3
 10
-332.824286
 20
25.0
 30
0.0
 11
-332.824286
 21
0.0
 31
0.0
  0
LINE
  5
45
  8
TEAM-DET3
 10
-252.824286
 20
25.0
 30
0.0
 11
-252.824286
 21
0.0
 31
0.0
  0
CIRCLE
  5
46
  8
TEAM-INSP
 10
0.0
 20
0.0
 30
0.0
 40
10.0
  0
LINE
  5
48
  8
TEAM-DET3
 10
314.879194
 20
25.0
 30
0.0
 11
314.879194
 21
0.0
 31
0.0
  0
ARC
  5
49
  8
TEAM-BODY
 10
-372.325018
 20
290.0
 30
0.0
 40
120.0
 50
218.659808
 51
270.0
  0
LINE
  5
4A
  8
TEAM-DET3
 10
314.879194
 20
0.0
 30
0.0
 11
394.879194
 21
0.0
 31
0.0
  0
LINE
  5
4B
  8
TEAM-DET3
 10
304.879194
 20
75.0
 30
0.0
 11
404.879194
 21
75.0
 31
0.0
  0
LINE
  5
4C
  8
TEAM-DET3
 10
304.879194
 20
25.0
 30
0.0
 11
404.879194
 21
25.0
 31
0.0
  0
DIMENSION
  5
4D
  8
TEAM-MAS
  2
*D0
 10
541.000747
 20
86.227391
 30
0.0
 11
601.410187
 21
86.227391
 31
0.0
 12
-12000.0
 22
0.0
 32
0.0
 70
   128
 13
488.999253
 23
149.98
 33
0.0
 14
541.000747
 24
150.023418
 34
0.0
1001
ACAD
1000
DSTYLE
1002
{
1070
    40
1040
1.0
1002
}
  0
LINE
  5
5C
  8
TEAM-KAN
 10
490.0
 20
150.001709
 30
0.0
 11
540.0
 21
150.001709
 31
0.0
  0
POLYLINE
  5
5E
  8
TEAM-BODY
 66
     1
 10
0.0
 20
0.0
 30
0.0
  0
VERTEX
  5
D2
  8
TEAM-BODY
 10
555.0
 20
155.001709
 30
0.0
 42
0.232609
  0
VERTEX
  5
D3
  8
TEAM-BODY
 10
550.0
 20
152.501709
 30
0.0
 42
-0.241952
  0
VERTEX
  5
D4
  8
TEAM-BODY
 10
545.0
 20
150.001709
 30
0.0
  0
VERTEX
  5
D5
  8
TEAM-BODY
 10
540.0
 20
150.001709
 30
0.0
  0
SEQEND
  5
D6
  8
TEAM-BODY
  0
POLYLINE
  5
5F
  8
TEAM-BODY
 66
     1
 10
0.0
 20
0.0
 30
0.0
  0
VERTEX
  5
D7
  8
TEAM-BODY
 10
475.0
 20
155.001709
 30
0.0
 42
-0.232609
  0
VERTEX
  5
D8
  8
TEAM-BODY
 10
480.0
 20
152.501709
 30
0.0
 42
0.241952
  0
VERTEX
  5
D9
  8
TEAM-BODY
 10
485.0
 20
150.001709
 30
0.0
  0
VERTEX
  5
DA
  8
TEAM-BODY
 10
490.0
 20
150.001709
 30
0.0
  0
SEQEND
  5
DB
  8
TEAM-BODY
  0
LINE
  5
60
  8
TEAM-AXE
 10
515.0
 20
200.0
 30
0.0
 11
515.0
 21
90.0
 31
0.0
  0
ARC
  5
63
  8
TEAM-BODY
 10
525.93254
 20
280.836576
 30
0.0
 40
129.148484
 50
283.006999
 51
345.932545
  0
DIMENSION
  5
64
  8
TEAM-MAS
  2
*D2
 10
800.0
 20
616.046538
 30
0.0
 11
0.0
 21
616.046538
 31
0.0
 12
-12000.0
 22
0.0
 32
0.0
 13
-800.0
 23
580.0
 33
0.0
 14
800.0
 24
580.0
 34
0.0
1001
ACAD
1000
DSTYLE
1002
{
1070
    40
1040
1.0
1002
}
  0
LINE
  5
72
  8
TEAM-DET1
 10
142.251709
 20
552.320738
 30
0.0
 11
631.182723
 21
576.237524
 31
0.0
  0
LINE
  5
74
  8
TEAM-BODY
 10
795.0
 20
580.0
 30
0.0
 11
-795.0
 21
580.0
 31
0.0
  0
ARC
  5
75
  8
TEAM-BODY
 10
-795.0
 20
553.0
 30
0.0
 40
5.0
 50
180.0
 51
270.0
  0
ARC
  5
76
  8
TEAM-BODY
 10
-795.0
 20
575.0
 30
0.0
 40
5.0
 50
90.0
 51
180.0
  0
LINE
  5
77
  8
TEAM-DET1
 10
-626.002086
 20
574.64307
 30
0.0
 11
-17.447437
 21
486.948273
 31
0.0
  0
LINE
  5
78
  8
TEAM-BODY
 10
-795.0
 20
548.0
 30
0.0
 11
-725.10144
 21
548.0
 31
0.0
  0
LINE
  5
79
  8
TEAM-BODY
 10
-800.0
 20
575.0
 30
0.0
 11
-800.0
 21
553.0
 31
0.0
  0
LINE
  5
7A
  8
TEAM-DET1
 10
-17.447437
 20
486.948273
 30
0.0
 11
142.251709
 21
552.320738
 31
0.0
  0
ARC
  5
7B
  8
TEAM-BODY
 10
795.0
 20
553.0
 30
0.0
 40
5.0
 50
270.0
 51
0.0
  0
ARC
  5
7C
  8
TEAM-BODY
 10
795.0
 20
575.0
 30
0.0
 40
5.0
 50
0.0
 51
90.0
  0
LINE
  5
7D
  8
TEAM-BODY
 10
795.0
 20
548.0
 30
0.0
 11
713.254605
 21
548.0
 31
0.0
  0
LINE
  5
7E
  8
TEAM-BODY
 10
800.0
 20
575.0
 30
0.0
 11
800.0
 21
553.0
 31
0.0
  0
TEXT
  5
7F
  8
TEAM-TXT
 10
414.907245
 20
533.297465
 30
0.0
 40
30.0
  1
team 111344
 41
0.7
 51
15.0
  7
TEAM
  0
ENDSEC
  0
EOF
