  0
SECTION
  2
HEADER
  9
$ACADVER
  1
AC1009
  9
$INSBASE
 10
-9.160606
 20
0.0
 30
0.0
  9
$EXTMIN
 10
-403.188081
 20
-10.019444
 30
-0.001526
  9
$EXTMAX
 10
497.034806
 20
627.223494
 30
0.0
  9
$LIMMIN
 10
-403.188081
 20
-10.019444
  9
$LIMMAX
 10
497.034806
 20
627.223494
  9
$ORTHOMODE
 70
     1
  9
$REGENMODE
 70
     1
  9
$FILLMODE
 70
     1
  9
$QTEXTMODE
 70
     0
  9
$MIRRTEXT
 70
     0
  9
$DRAGMODE
 70
     2
  9
$LTSCALE
 40
50.0
  9
$OSMODE
 70
     7
  9
$ATTMODE
 70
     1
  9
$TEXTSIZE
 40
200.0
  9
$TRACEWID
 40
1.0
  9
$TEXTSTYLE
  7
STANDARD
  9
$CLAYER
  8
TEAM-MAS
  9
$CELTYPE
  6
BYLAYER
  9
$CECOLOR
 62
   256
  9
$DIMSCALE
 40
0.0
  9
$DIMASZ
 40
20.0
  9
$DIMEXO
 40
10.0
  9
$DIMDLI
 40
1.0
  9
$DIMRND
 40
0.0
  9
$DIMDLE
 40
0.0
  9
$DIMEXE
 40
1.0
  9
$DIMTP
 40
0.0
  9
$DIMTM
 40
0.0
  9
$DIMTXT
 40
35.0
  9
$DIMCEN
 40
1.0
  9
$DIMTSZ
 40
0.0
  9
$DIMTOL
 70
     0
  9
$DIMLIM
 70
     0
  9
$DIMTIH
 70
     0
  9
$DIMTOH
 70
     0
  9
$DIMSE1
 70
     0
  9
$DIMSE2
 70
     0
  9
$DIMTAD
 70
     0
  9
$DIMZIN
 70
     0
  9
$DIMBLK
  1

  9
$DIMASO
 70
     1
  9
$DIMSHO
 70
     0
  9
$DIMPOST
  1

  9
$DIMAPOST
  1

  9
$DIMALT
 70
     0
  9
$DIMALTD
 70
     2
  9
$DIMALTF
 40
25.4
  9
$DIMLFAC
 40
1.0
  9
$DIMTOFL
 70
     0
  9
$DIMTVP
 40
0.0
  9
$DIMTIX
 70
     0
  9
$DIMSOXD
 70
     0
  9
$DIMSAH
 70
     0
  9
$DIMBLK1
  1

  9
$DIMBLK2
  1

  9
$DIMSTYLE
  2
TEAM
  9
$DIMCLRD
 70
     9
  9
$DIMCLRE
 70
     9
  9
$DIMCLRT
 70
    11
  9
$DIMTFAC
 40
1.0
  9
$DIMGAP
 40
7.0
  9
$LUNITS
 70
     2
  9
$LUPREC
 70
     1
  9
$SKETCHINC
 40
1.0
  9
$FILLETRAD
 40
5.0
  9
$AUNITS
 70
     0
  9
$AUPREC
 70
     0
  9
$MENU
  1
ROPLANS
  9
$ELEVATION
 40
0.0
  9
$PELEVATION
 40
0.0
  9
$THICKNESS
 40
0.0
  9
$LIMCHECK
 70
     0
  9
$BLIPMODE
 70
     1
  9
$CHAMFERA
 40
0.0
  9
$CHAMFERB
 40
0.0
  9
$SKPOLY
 70
     0
  9
$TDCREATE
 40
2450392.957851
  9
$TDUPDATE
 40
2455944.698999
  9
$TDINDWG
 40
3.037655
  9
$TDUSRTIMER
 40
3.037655
  9
$USRTIMER
 70
     1
  9
$ANGBASE
 50
0.0
  9
$ANGDIR
 70
     0
  9
$PDMODE
 70
     0
  9
$PDSIZE
 40
0.0
  9
$PLINEWID
 40
0.0
  9
$COORDS
 70
     2
  9
$SPLFRAME
 70
     0
  9
$SPLINETYPE
 70
     6
  9
$SPLINESEGS
 70
     8
  9
$ATTDIA
 70
     0
  9
$ATTREQ
 70
     0
  9
$HANDLING
 70
     1
  9
$HANDSEED
  5
B3
  9
$SURFTAB1
 70
    24
  9
$SURFTAB2
 70
    24
  9
$SURFTYPE
 70
     6
  9
$SURFU
 70
     6
  9
$SURFV
 70
     6
  9
$UCSNAME
  2

  9
$UCSORG
 10
0.0
 20
0.0
 30
0.0
  9
$UCSXDIR
 10
1.0
 20
0.0
 30
0.0
  9
$UCSYDIR
 10
0.0
 20
1.0
 30
0.0
  9
$PUCSNAME
  2

  9
$PUCSORG
 10
0.0
 20
0.0
 30
0.0
  9
$PUCSXDIR
 10
1.0
 20
0.0
 30
0.0
  9
$PUCSYDIR
 10
0.0
 20
1.0
 30
0.0
  9
$USERI1
 70
     0
  9
$USERI2
 70
     0
  9
$USERI3
 70
     0
  9
$USERI4
 70
     0
  9
$USERI5
 70
     0
  9
$USERR1
 40
0.0
  9
$USERR2
 40
0.0
  9
$USERR3
 40
0.0
  9
$USERR4
 40
0.0
  9
$USERR5
 40
0.0
  9
$WORLDVIEW
 70
     1
  9
$SHADEDGE
 70
     0
  9
$SHADEDIF
 70
    70
  9
$TILEMODE
 70
     1
  9
$MAXACTVP
 70
    16
  9
$PLIMCHECK
 70
     0
  9
$PEXTMIN
 10
-0.805942
 20
0.005011
 30
0.0
  9
$PEXTMAX
 10
20.250094
 20
11.356329
 30
0.0
  9
$PLIMMIN
 10
0.0
 20
0.0
  9
$PLIMMAX
 10
12.0
 20
9.0
  9
$UNITMODE
 70
     0
  9
$VISRETAIN
 70
     0
  9
$PLINEGEN
 70
     0
  9
$PSLTSCALE
 70
     0
  0
ENDSEC
  0
SECTION
  2
TABLES
  0
TABLE
  2
VPORT
 70
     2
  0
VPORT
  2
*ACTIVE
 70
     0
 10
0.0
 20
0.0
 11
1.0
 21
1.0
 12
46.923363
 22
308.602025
 13
0.0
 23
0.0
 14
1.0
 24
1.0
 15
20.0
 25
20.0
 16
0.0
 26
0.0
 36
1.0
 17
0.0
 27
0.0
 37
0.0
 40
641.238192
 41
1.903766
 42
50.0
 43
0.0
 44
0.0
 50
0.0
 51
0.0
 71
     0
 72
   100
 73
     1
 74
     1
 75
     0
 76
     0
 77
     0
 78
     0
  0
ENDTAB
  0
TABLE
  2
LTYPE
 70
     2
  0
LTYPE
  2
CONTINUOUS
 70
     0
  3
Solid Line
 72
    65
 73
     0
 40
0.0
  0
LTYPE
  2
22
 70
     0
  3

 72
    65
 73
     2
 40
1.4
 49
1.2
 49
-0.2
  0
ENDTAB
  0
TABLE
  2
LAYER
 70
     9
  0
LAYER
  2
0
 70
     0
 62
     7
  6
CONTINUOUS
  0
LAYER
  2
DEFPOINTS
 70
     0
 62
     7
  6
CONTINUOUS
  0
LAYER
  2
TEAM-BODY
 70
     0
 62
     2
  6
CONTINUOUS
  0
LAYER
  2
TEAM-MAS
 70
     0
 62
     9
  6
CONTINUOUS
  0
LAYER
  2
TEAM-TXT
 70
     0
 62
    11
  6
CONTINUOUS
  0
LAYER
  2
TEAM-DET1
 70
     0
 62
     4
  6
CONTINUOUS
  0
LAYER
  2
TEAM-HIDE
 70
     0
 62
     8
  6
22
  0
LAYER
  2
TEAM-KAN
 70
     0
 62
     6
  6
CONTINUOUS
  0
LAYER
  2
TEAM-INSP
 70
     0
 62
     5
  6
CONTINUOUS
  0
ENDTAB
  0
TABLE
  2
STYLE
 70
     2
  0
STYLE
  2
STANDARD
 70
     0
 40
0.0
 41
1.0
 50
0.0
 71
     0
 42
200.0
  3
txt
  4

  0
STYLE
  2
TEAM
 70
     0
 40
0.0
 41
0.8
 50
15.0
 71
     0
 42
7.0
  3
ROMANS.shx
  4

  0
ENDTAB
  0
TABLE
  2
VIEW
 70
     0
  0
ENDTAB
  0
TABLE
  2
UCS
 70
     0
  0
ENDTAB
  0
TABLE
  2
APPID
 70
     1
  0
APPID
  2
ACAD
 70
     0
  0
ENDTAB
  0
TABLE
  2
DIMSTYLE
 70
     1
  0
DIMSTYLE
  2
TEAM
 70
     0
  3

  4

  5

  6

  7

 40
0.0
 41
20.0
 42
10.0
 43
1.0
 44
1.0
 45
0.0
 46
0.0
 47
0.0
 48
0.0
140
35.0
141
1.0
142
0.0
143
25.4
144
1.0
145
0.0
146
1.0
147
7.0
 71
     0
 72
     0
 73
     0
 74
     0
 75
     0
 76
     0
 77
     0
 78
     0
170
     0
171
     2
172
     0
173
     0
174
     0
175
     0
176
     9
177
     9
178
    11
  0
ENDTAB
  0
ENDSEC
  0
SECTION
  2
BLOCKS
  0
BLOCK
  8
0
  2
$MODEL_SPACE
 70
     0
 10
0.0
 20
0.0
 30
0.0
  3
$MODEL_SPACE
  1

  0
ENDBLK
  5
AC
  8
0
  0
BLOCK
 67
     1
  8
0
  2
$PAPER_SPACE
 70
     0
 10
0.0
 20
0.0
 30
0.0
  3
$PAPER_SPACE
  1

  0
ENDBLK
  5
AA
 67
     1
  8
0
  0
BLOCK
  8
0
  2
*D0
 70
     1
 10
0.0
 20
0.0
 30
0.0
  3
*D0
  1

  0
LINE
  5
3F
  8
0
  6
BYBLOCK
 62
     9
 10
404.000006
 20
280579.997654
 30
0.0
 11
435.943123
 21
280579.997654
 31
0.0
  0
LINE
  5
40
  8
0
  6
BYBLOCK
 62
     9
 10
36.33
 20
280149.997647
 30
0.0
 11
435.943123
 21
280149.997647
 31
0.0
  0
LINE
  5
41
  8
0
  6
BYBLOCK
 62
     9
 10
434.943123
 20
280559.997654
 30
0.0
 11
434.943123
 21
280415.74765
 31
0.0
  0
LINE
  5
42
  8
0
  6
BYBLOCK
 62
     9
 10
434.943123
 20
280169.997647
 30
0.0
 11
434.943123
 21
280314.24765
 31
0.0
  0
SOLID
  5
43
  8
0
  6
BYBLOCK
 62
     9
 10
431.609789
 20
280559.997654
 30
0.0
 11
438.276456
 21
280559.997654
 31
0.0
 12
434.943123
 22
280579.997654
 32
0.0
 13
434.943123
 23
280579.997654
 33
0.0
  0
SOLID
  5
44
  8
0
  6
BYBLOCK
 62
     9
 10
431.609789
 20
280169.997647
 30
0.0
 11
438.276456
 21
280169.997647
 31
0.0
 12
434.943123
 22
280149.997647
 32
0.0
 13
434.943123
 23
280149.997647
 33
0.0
  0
TEXT
  5
45
  8
0
  6
BYBLOCK
 62
    11
 10
452.443123
 20
280321.24765
 30
0.0
 40
35.0
  1
430
 50
90.0
  0
POINT
  5
46
  8
DEFPOINTS
  6
BYBLOCK
 62
     0
 10
394.000006
 20
280579.997654
 30
0.0
  0
POINT
  5
47
  8
DEFPOINTS
  6
BYBLOCK
 62
     0
 10
26.33
 20
280149.997647
 30
0.0
  0
POINT
  5
48
  8
DEFPOINTS
  6
BYBLOCK
 62
     0
 10
434.943123
 20
280149.997647
 30
0.0
  0
ENDBLK
  5
4A
  8
0
  0
BLOCK
  8
0
  2
*D1
 70
     1
 10
0.0
 20
0.0
 30
0.0
  3
*D1
  1

  0
LINE
  5
31
  8
0
  6
BYBLOCK
 62
     9
 10
400.000006
 20
280583.997653
 30
0.0
 11
400.000006
 21
280610.704047
 31
0.0
  0
LINE
  5
32
  8
0
  6
BYBLOCK
 62
     9
 10
-400.000006
 20
280583.997653
 30
0.0
 11
-400.000006
 21
280610.704047
 31
0.0
  0
LINE
  5
33
  8
0
  6
BYBLOCK
 62
     9
 10
380.000006
 20
280609.704047
 30
0.0
 11
47.833333
 21
280609.704047
 31
0.0
  0
LINE
  5
34
  8
0
  6
BYBLOCK
 62
     9
 10
-380.000006
 20
280609.704047
 30
0.0
 11
-47.833333
 21
280609.704047
 31
0.0
  0
SOLID
  5
35
  8
0
  6
BYBLOCK
 62
     9
 10
380.000006
 20
280613.03738
 30
0.0
 11
380.000006
 21
280606.370714
 31
0.0
 12
400.000006
 22
280609.704047
 32
0.0
 13
400.000006
 23
280609.704047
 33
0.0
  0
SOLID
  5
36
  8
0
  6
BYBLOCK
 62
     9
 10
-380.000006
 20
280613.03738
 30
0.0
 11
-380.000006
 21
280606.370714
 31
0.0
 12
-400.000006
 22
280609.704047
 32
0.0
 13
-400.000006
 23
280609.704047
 33
0.0
  0
TEXT
  5
37
  8
0
  6
BYBLOCK
 62
    11
 10
-40.833333
 20
280592.204047
 30
0.0
 40
35.0
  1
800
  0
POINT
  5
38
  8
DEFPOINTS
  6
BYBLOCK
 62
     0
 10
400.000006
 20
280573.997653
 30
0.0
  0
POINT
  5
39
  8
DEFPOINTS
  6
BYBLOCK
 62
     0
 10
-400.000006
 20
280573.997653
 30
0.0
  0
POINT
  5
3A
  8
DEFPOINTS
  6
BYBLOCK
 62
     0
 10
-400.000006
 20
280609.704047
 30
0.0
  0
ENDBLK
  5
3C
  8
0
  0
BLOCK
  8
0
  2
*D2
 70
     1
 10
0.0
 20
0.0
 30
0.0
  3
*D2
  1

  0
LINE
  5
22
  8
0
  6
BYBLOCK
 62
     9
 10
404.000006
 20
280579.997654
 30
0.0
 11
480.507333
 21
280579.997654
 31
0.0
  0
LINE
  5
23
  8
0
  6
BYBLOCK
 62
     9
 10
394.8394
 20
280000.0
 30
0.0
 11
480.507333
 21
280000.0
 31
0.0
  0
LINE
  5
24
  8
0
  6
BYBLOCK
 62
     9
 10
479.507333
 20
280559.997654
 30
0.0
 11
479.507333
 21
280340.748827
 31
0.0
  0
LINE
  5
25
  8
0
  6
BYBLOCK
 62
     9
 10
479.507333
 20
280020.0
 30
0.0
 11
479.507333
 21
280239.248827
 31
0.0
  0
SOLID
  5
26
  8
0
  6
BYBLOCK
 62
     9
 10
476.174
 20
280559.997654
 30
0.0
 11
482.840667
 21
280559.997654
 31
0.0
 12
479.507333
 22
280579.997654
 32
0.0
 13
479.507333
 23
280579.997654
 33
0.0
  0
SOLID
  5
27
  8
0
  6
BYBLOCK
 62
     9
 10
476.174
 20
280020.0
 30
0.0
 11
482.840667
 21
280020.0
 31
0.0
 12
479.507333
 22
280000.0
 32
0.0
 13
479.507333
 23
280000.0
 33
0.0
  0
TEXT
  5
28
  8
0
  6
BYBLOCK
 62
    11
 10
497.007333
 20
280246.248827
 30
0.0
 40
35.0
  1
580
 50
90.0
  0
POINT
  5
29
  8
DEFPOINTS
  6
BYBLOCK
 62
     0
 10
394.000006
 20
280579.997654
 30
0.0
  0
POINT
  5
2B
  8
DEFPOINTS
  6
BYBLOCK
 62
     0
 10
384.8394
 20
280000.0
 30
0.0
  0
POINT
  5
2C
  8
DEFPOINTS
  6
BYBLOCK
 62
     0
 10
479.507333
 20
280000.0
 30
0.0
  0
ENDBLK
  5
2E
  8
0
  0
ENDSEC
  0
SECTION
  2
ENTITIES
  0
DIMENSION
  5
20
  8
TEAM-MAS
  2
*D2
 10
479.507333
 20
0.0
 30
0.0
 11
479.507333
 21
289.998827
 31
0.0
 12
0.0
 22
-280000.0
 32
0.0
 13
394.000006
 23
579.997654
 33
0.0
 14
384.8394
 24
0.0
 34
0.0
 50
90.0
1001
ACAD
1000
DSTYLE
1002
{
1070
    40
1040
1.0
1002
}
  0
DIMENSION
  5
2F
  8
TEAM-MAS
  2
*D1
 10
-400.000006
 20
609.704047
 30
0.0
 11
0.0
 21
609.704047
 31
0.0
 12
0.0
 22
-280000.0
 32
0.0
 13
400.000006
 23
573.997653
 33
0.0
 14
-400.000006
 24
573.997653
 34
0.0
1001
ACAD
1000
DSTYLE
1002
{
1070
    40
1040
1.0
1002
}
  0
DIMENSION
  5
3D
  8
TEAM-MAS
  2
*D0
 10
434.943123
 20
149.997647
 30
0.0
 11
434.943123
 21
364.99765
 31
0.0
 12
0.0
 22
-280000.0
 32
0.0
 13
394.000006
 23
579.997654
 33
0.0
 14
26.33
 24
149.997647
 34
0.0
 50
90.0
1001
ACAD
1000
DSTYLE
1002
{
1070
    40
1040
1.0
1002
}
  0
ARC
  5
4B
  8
TEAM-BODY
 10
307.590005
 20
364.44765
 30
0.0
 40
35.000001
 50
121.9996
 51
162.1676
  0
ARC
  5
4D
  8
TEAM-BODY
 10
286.530004
 20
433.837651
 30
0.0
 40
35.000001
 50
301.9996
 51
351.8192
  0
ARC
  5
4E
  8
TEAM-BODY
 10
394.000006
 20
573.997653
 30
0.0
 40
6.0
 50
0.0
 51
90.0
  0
ARC
  5
4F
  8
TEAM-BODY
 10
394.000006
 20
553.997653
 30
0.0
 40
6.0
 50
270.0
 51
0.0
  0
ARC
  5
50
  8
TEAM-BODY
 10
-3638.110055
 20
998.10766
 30
0.0
 40
4000.00006
 50
351.8183
 51
353.5389
  0
ARC
  5
51
  8
TEAM-BODY
 10
-3659.935016
 20
996.660793
 30
0.0
 40
3981.827237
 50
348.934992
 51
350.799332
  0
ARC
  5
52
  8
TEAM-BODY
 10
369.460006
 20
344.54765
 30
0.0
 40
100.000002
 50
162.1649
 51
170.8269
  0
LINE
  5
53
  8
TEAM-BODY
 10
328.740005
 20
484.197652
 30
0.0
 11
335.090005
 21
535.817653
 31
0.0
  0
LINE
  5
54
  8
TEAM-BODY
 10
289.040004
 20
394.137651
 30
0.0
 11
305.080005
 21
404.157651
 31
0.0
  0
LINE
  5
55
  8
TEAM-BODY
 10
400.000006
 20
573.997653
 30
0.0
 11
400.000006
 21
553.997653
 31
0.0
  0
ARC
  5
56
  8
TEAM-BODY
 10
169.350003
 20
247.777649
 30
0.0
 40
80.000001
 50
275.0592
 51
348.9603
  0
TEXT
  5
57
  8
TEAM-TXT
 10
-311.367032
 20
500.817497
 30
0.0
 40
30.0
  1
team 111361
 41
0.8
 51
15.0
  7
TEAM
  0
ARC
  5
5A
  8
TEAM-BODY
 10
-307.580005
 20
364.44765
 30
0.0
 40
35.000001
 50
17.83433
 51
57.99868
  0
ARC
  5
5B
  8
TEAM-BODY
 10
-286.520004
 20
433.837651
 30
0.0
 40
35.000001
 50
188.1807
 51
238.0004
  0
ARC
  5
5C
  8
TEAM-BODY
 10
-394.000006
 20
573.997653
 30
0.0
 40
6.0
 50
90.0
 51
180.0
  0
ARC
  5
5D
  8
TEAM-BODY
 10
-394.000006
 20
553.997653
 30
0.0
 40
6.0
 50
180.0
 51
270.0
  0
ARC
  5
5E
  8
TEAM-BODY
 10
3638.120055
 20
998.10766
 30
0.0
 40
4000.00006
 50
186.4611
 51
188.1817
  0
ARC
  5
5F
  8
TEAM-BODY
 10
3659.945016
 20
996.660793
 30
0.0
 40
3981.827237
 50
189.200668
 51
191.065008
  0
ARC
  5
60
  8
TEAM-BODY
 10
-369.450006
 20
344.54765
 30
0.0
 40
100.000002
 50
9.173109
 51
17.8351
  0
LINE
  5
61
  8
TEAM-BODY
 10
-328.730005
 20
484.197652
 30
0.0
 11
-335.080005
 21
535.817653
 31
0.0
  0
LINE
  5
62
  8
TEAM-BODY
 10
-289.030004
 20
394.137651
 30
0.0
 11
-305.070005
 21
404.157651
 31
0.0
  0
LINE
  5
63
  8
TEAM-BODY
 10
-400.000006
 20
573.997653
 30
0.0
 11
-400.000006
 21
553.997653
 31
0.0
  0
CIRCLE
  5
64
  8
TEAM-INSP
 10
0.0
 20
0.0
 30
0.0
 40
10.0
  0
ARC
  5
66
  8
TEAM-KAN
 10
-29.69
 20
157.997647
 30
0.0
 40
8.0
 50
212.8058
 51
270.0
  0
ARC
  5
68
  8
TEAM-KAN
 10
-43.980001
 20
148.777647
 30
0.0
 40
9.0
 50
32.83831
 51
88.7068
  0
ARC
  5
69
  8
TEAM-KAN
 10
29.7
 20
157.997647
 30
0.0
 40
8.0
 50
270.0
 51
327.1673
  0
ARC
  5
6A
  8
TEAM-KAN
 10
43.990001
 20
148.777647
 30
0.0
 40
9.0
 50
91.24347
 51
147.1482
  0
LINE
  5
6B
  8
TEAM-KAN
 10
0.0
 20
149.997647
 30
0.0
 11
-29.69
 21
149.997647
 31
0.0
  0
LINE
  5
6C
  8
TEAM-KAN
 10
0.0
 20
149.997647
 30
0.0
 11
29.7
 21
149.997647
 31
0.0
  0
ARC
  5
6D
  8
TEAM-BODY
 10
46.94503
 20
2160.841314
 30
0.0
 40
2005.226253
 50
263.605106
 51
268.658507
  0
ARC
  5
6E
  8
TEAM-BODY
 10
-169.340003
 20
247.777649
 30
0.0
 40
80.000001
 50
191.0397
 51
264.9408
  0
LINE
  5
6F
  8
TEAM-DET1
 10
-292.110004
 20
429.997651
 30
0.0
 11
306.730005
 21
429.997651
 31
0.0
  0
LINE
  5
71
  8
TEAM-DET1
 10
-251.690004
 20
359.99765
 30
0.0
 11
266.310004
 21
359.99765
 31
0.0
  0
LINE
  5
72
  8
TEAM-DET1
 10
-269.380004
 20
394.137651
 30
0.0
 11
266.390004
 21
394.137651
 31
0.0
  0
LINE
  5
73
  8
TEAM-DET1
 10
-277.190004
 20
404.157651
 30
0.0
 11
278.920004
 21
404.157651
 31
0.0
  0
LINE
  5
74
  8
TEAM-BODY
 10
394.000006
 20
547.997653
 30
0.0
 11
-394.000006
 21
547.997653
 31
0.0
  0
LINE
  5
75
  8
TEAM-BODY
 10
394.000006
 20
579.997654
 30
0.0
 11
-394.000006
 21
579.997654
 31
0.0
  0
LINE
  5
76
  8
TEAM-HIDE
 10
384.8394
 20
0.0
 30
0.0
 11
-403.160612
 21
0.0
 31
0.0
  0
ARC
  5
79
  8
TEAM-BODY
 10
-46.943179
 20
2160.841271
 30
0.0
 40
2005.226166
 50
271.341441
 51
276.395041
  0
ENDSEC
  0
EOF
