  0
SECTION
  2
HEADER
  9
$ACADVER
  1
AC1009
  9
$INSBASE
 10
0.0
 20
0.0
 30
0.0
  9
$EXTMIN
 10
-801.316046
 20
-10.019677
 30
-0.001526
  9
$EXTMAX
 10
858.646029
 20
634.843415
 30
0.0
  9
$LIMMIN
 10
-801.316046
 20
-10.019677
  9
$LIMMAX
 10
858.646029
 20
634.843415
  9
$ORTHOMODE
 70
     1
  9
$REGENMODE
 70
     1
  9
$FILLMODE
 70
     1
  9
$QTEXTMODE
 70
     0
  9
$MIRRTEXT
 70
     0
  9
$DRAGMODE
 70
     2
  9
$LTSCALE
 40
50.0
  9
$OSMODE
 70
     7
  9
$ATTMODE
 70
     1
  9
$TEXTSIZE
 40
200.0
  9
$TRACEWID
 40
1.0
  9
$TEXTSTYLE
  7
STANDARD
  9
$CLAYER
  8
TEAM-MAS
  9
$CELTYPE
  6
BYLAYER
  9
$CECOLOR
 62
   256
  9
$DIMSCALE
 40
0.0
  9
$DIMASZ
 40
20.0
  9
$DIMEXO
 40
10.0
  9
$DIMDLI
 40
1.0
  9
$DIMRND
 40
0.0
  9
$DIMDLE
 40
0.0
  9
$DIMEXE
 40
1.0
  9
$DIMTP
 40
0.0
  9
$DIMTM
 40
0.0
  9
$DIMTXT
 40
35.0
  9
$DIMCEN
 40
1.0
  9
$DIMTSZ
 40
0.0
  9
$DIMTOL
 70
     0
  9
$DIMLIM
 70
     0
  9
$DIMTIH
 70
     0
  9
$DIMTOH
 70
     0
  9
$DIMSE1
 70
     0
  9
$DIMSE2
 70
     0
  9
$DIMTAD
 70
     0
  9
$DIMZIN
 70
     0
  9
$DIMBLK
  1

  9
$DIMASO
 70
     1
  9
$DIMSHO
 70
     0
  9
$DIMPOST
  1

  9
$DIMAPOST
  1

  9
$DIMALT
 70
     0
  9
$DIMALTD
 70
     2
  9
$DIMALTF
 40
25.4
  9
$DIMLFAC
 40
1.0
  9
$DIMTOFL
 70
     0
  9
$DIMTVP
 40
0.0
  9
$DIMTIX
 70
     0
  9
$DIMSOXD
 70
     0
  9
$DIMSAH
 70
     0
  9
$DIMBLK1
  1

  9
$DIMBLK2
  1

  9
$DIMSTYLE
  2
TEAM
  9
$DIMCLRD
 70
     9
  9
$DIMCLRE
 70
     9
  9
$DIMCLRT
 70
    11
  9
$DIMTFAC
 40
1.0
  9
$DIMGAP
 40
7.0
  9
$LUNITS
 70
     2
  9
$LUPREC
 70
     1
  9
$SKETCHINC
 40
1.0
  9
$FILLETRAD
 40
5.0
  9
$AUNITS
 70
     0
  9
$AUPREC
 70
     0
  9
$MENU
  1
ROPLANS
  9
$ELEVATION
 40
0.0
  9
$PELEVATION
 40
0.0
  9
$THICKNESS
 40
0.0
  9
$LIMCHECK
 70
     0
  9
$BLIPMODE
 70
     1
  9
$CHAMFERA
 40
0.0
  9
$CHAMFERB
 40
0.0
  9
$SKPOLY
 70
     0
  9
$TDCREATE
 40
2450392.957851
  9
$TDUPDATE
 40
2455944.698999
  9
$TDINDWG
 40
3.037655
  9
$TDUSRTIMER
 40
3.037655
  9
$USRTIMER
 70
     1
  9
$ANGBASE
 50
0.0
  9
$ANGDIR
 70
     0
  9
$PDMODE
 70
     0
  9
$PDSIZE
 40
0.0
  9
$PLINEWID
 40
0.0
  9
$COORDS
 70
     2
  9
$SPLFRAME
 70
     0
  9
$SPLINETYPE
 70
     6
  9
$SPLINESEGS
 70
     8
  9
$ATTDIA
 70
     0
  9
$ATTREQ
 70
     0
  9
$HANDLING
 70
     1
  9
$HANDSEED
  5
B1
  9
$SURFTAB1
 70
    24
  9
$SURFTAB2
 70
    24
  9
$SURFTYPE
 70
     6
  9
$SURFU
 70
     6
  9
$SURFV
 70
     6
  9
$UCSNAME
  2

  9
$UCSORG
 10
0.0
 20
0.0
 30
0.0
  9
$UCSXDIR
 10
1.0
 20
0.0
 30
0.0
  9
$UCSYDIR
 10
0.0
 20
1.0
 30
0.0
  9
$PUCSNAME
  2

  9
$PUCSORG
 10
0.0
 20
0.0
 30
0.0
  9
$PUCSXDIR
 10
1.0
 20
0.0
 30
0.0
  9
$PUCSYDIR
 10
0.0
 20
1.0
 30
0.0
  9
$USERI1
 70
     0
  9
$USERI2
 70
     0
  9
$USERI3
 70
     0
  9
$USERI4
 70
     0
  9
$USERI5
 70
     0
  9
$USERR1
 40
0.0
  9
$USERR2
 40
0.0
  9
$USERR3
 40
0.0
  9
$USERR4
 40
0.0
  9
$USERR5
 40
0.0
  9
$WORLDVIEW
 70
     1
  9
$SHADEDGE
 70
     0
  9
$SHADEDIF
 70
    70
  9
$TILEMODE
 70
     1
  9
$MAXACTVP
 70
    16
  9
$PLIMCHECK
 70
     0
  9
$PEXTMIN
 10
-0.805942
 20
0.005011
 30
0.0
  9
$PEXTMAX
 10
20.250094
 20
11.356329
 30
0.0
  9
$PLIMMIN
 10
0.0
 20
0.0
  9
$PLIMMAX
 10
12.0
 20
9.0
  9
$UNITMODE
 70
     0
  9
$VISRETAIN
 70
     0
  9
$PLINEGEN
 70
     0
  9
$PSLTSCALE
 70
     0
  0
ENDSEC
  0
SECTION
  2
TABLES
  0
TABLE
  2
VPORT
 70
     2
  0
VPORT
  2
*ACTIVE
 70
     0
 10
0.0
 20
0.0
 11
1.0
 21
1.0
 12
28.664991
 22
312.411869
 13
0.0
 23
0.0
 14
1.0
 24
1.0
 15
20.0
 25
20.0
 16
0.0
 26
0.0
 36
1.0
 17
0.0
 27
0.0
 37
0.0
 40
874.807634
 41
1.903766
 42
50.0
 43
0.0
 44
0.0
 50
0.0
 51
0.0
 71
     0
 72
   100
 73
     1
 74
     1
 75
     0
 76
     0
 77
     0
 78
     0
  0
ENDTAB
  0
TABLE
  2
LTYPE
 70
     2
  0
LTYPE
  2
CONTINUOUS
 70
     0
  3
Solid Line
 72
    65
 73
     0
 40
0.0
  0
LTYPE
  2
22
 70
     0
  3

 72
    65
 73
     2
 40
1.4
 49
1.2
 49
-0.2
  0
ENDTAB
  0
TABLE
  2
LAYER
 70
     9
  0
LAYER
  2
0
 70
     0
 62
     7
  6
CONTINUOUS
  0
LAYER
  2
DEFPOINTS
 70
     0
 62
     7
  6
CONTINUOUS
  0
LAYER
  2
TEAM-BODY
 70
     0
 62
     2
  6
CONTINUOUS
  0
LAYER
  2
TEAM-MAS
 70
     0
 62
     9
  6
CONTINUOUS
  0
LAYER
  2
TEAM-TXT
 70
     0
 62
    11
  6
CONTINUOUS
  0
LAYER
  2
TEAM-DET1
 70
     0
 62
     4
  6
CONTINUOUS
  0
LAYER
  2
TEAM-HIDE
 70
     0
 62
     8
  6
22
  0
LAYER
  2
TEAM-KAN
 70
     0
 62
     6
  6
CONTINUOUS
  0
LAYER
  2
TEAM-INSP
 70
     0
 62
     5
  6
CONTINUOUS
  0
ENDTAB
  0
TABLE
  2
STYLE
 70
     2
  0
STYLE
  2
STANDARD
 70
     0
 40
0.0
 41
1.0
 50
0.0
 71
     0
 42
200.0
  3
txt
  4

  0
STYLE
  2
TEAM
 70
     0
 40
0.0
 41
0.8
 50
15.0
 71
     0
 42
7.0
  3
ROMANS.shx
  4

  0
ENDTAB
  0
TABLE
  2
VIEW
 70
     0
  0
ENDTAB
  0
TABLE
  2
UCS
 70
     0
  0
ENDTAB
  0
TABLE
  2
APPID
 70
     1
  0
APPID
  2
ACAD
 70
     0
  0
ENDTAB
  0
TABLE
  2
DIMSTYLE
 70
     1
  0
DIMSTYLE
  2
TEAM
 70
     0
  3

  4

  5

  6

  7

 40
0.0
 41
20.0
 42
10.0
 43
1.0
 44
1.0
 45
0.0
 46
0.0
 47
0.0
 48
0.0
140
35.0
141
1.0
142
0.0
143
25.4
144
1.0
145
0.0
146
1.0
147
7.0
 71
     0
 72
     0
 73
     0
 74
     0
 75
     0
 76
     0
 77
     0
 78
     0
170
     0
171
     2
172
     0
173
     0
174
     0
175
     0
176
     9
177
     9
178
    11
  0
ENDTAB
  0
ENDSEC
  0
SECTION
  2
BLOCKS
  0
BLOCK
  8
0
  2
$MODEL_SPACE
 70
     0
 10
0.0
 20
0.0
 30
0.0
  3
$MODEL_SPACE
  1

  0
ENDBLK
  5
AA
  8
0
  0
BLOCK
 67
     1
  8
0
  2
$PAPER_SPACE
 70
     0
 10
0.0
 20
0.0
 30
0.0
  3
$PAPER_SPACE
  1

  0
ENDBLK
  5
A8
 67
     1
  8
0
  0
BLOCK
  8
0
  2
*D0
 70
     1
 10
0.0
 20
0.0
 30
0.0
  3
*D0
  1

  0
LINE
  5
4A
  8
0
  6
BYBLOCK
 62
     9
 10
8209.999991
 20
300149.999994
 30
0.0
 11
8842.095408
 21
300149.999994
 31
0.0
  0
LINE
  5
4B
  8
0
  6
BYBLOCK
 62
     9
 10
8804.0
 20
300580.0
 30
0.0
 11
8842.095408
 21
300580.0
 31
0.0
  0
LINE
  5
4C
  8
0
  6
BYBLOCK
 62
     9
 10
8841.095408
 20
300169.999994
 30
0.0
 11
8841.095408
 21
300314.249997
 31
0.0
  0
LINE
  5
4D
  8
0
  6
BYBLOCK
 62
     9
 10
8841.095408
 20
300560.0
 30
0.0
 11
8841.095408
 21
300415.749997
 31
0.0
  0
SOLID
  5
4E
  8
0
  6
BYBLOCK
 62
     9
 10
8837.762075
 20
300169.999994
 30
0.0
 11
8844.428742
 21
300169.999994
 31
0.0
 12
8841.095408
 22
300149.999994
 32
0.0
 13
8841.095408
 23
300149.999994
 33
0.0
  0
SOLID
  5
4F
  8
0
  6
BYBLOCK
 62
     9
 10
8837.762075
 20
300560.0
 30
0.0
 11
8844.428742
 21
300560.0
 31
0.0
 12
8841.095408
 22
300580.0
 32
0.0
 13
8841.095408
 23
300580.0
 33
0.0
  0
TEXT
  5
50
  8
0
  6
BYBLOCK
 62
    11
 10
8858.595408
 20
300321.249997
 30
0.0
 40
35.0
  1
430
 50
90.0
  0
POINT
  5
51
  8
DEFPOINTS
  6
BYBLOCK
 62
     0
 10
8199.999991
 20
300149.999994
 30
0.0
  0
POINT
  5
52
  8
DEFPOINTS
  6
BYBLOCK
 62
     0
 10
8794.0
 20
300580.0
 30
0.0
  0
POINT
  5
53
  8
DEFPOINTS
  6
BYBLOCK
 62
     0
 10
8841.095408
 20
300580.0
 30
0.0
  0
ENDBLK
  5
55
  8
0
  0
BLOCK
  8
0
  2
*D1
 70
     1
 10
0.0
 20
0.0
 30
0.0
  3
*D1
  1

  0
LINE
  5
22
  8
0
  6
BYBLOCK
 62
     9
 10
8800.0
 20
300584.0
 30
0.0
 11
8800.0
 21
300618.323735
 31
0.0
  0
LINE
  5
23
  8
0
  6
BYBLOCK
 62
     9
 10
7199.999974
 20
300584.0
 30
0.0
 11
7199.999974
 21
300618.323735
 31
0.0
  0
LINE
  5
24
  8
0
  6
BYBLOCK
 62
     9
 10
8780.0
 20
300617.323735
 30
0.0
 11
8059.499987
 21
300617.323735
 31
0.0
  0
LINE
  5
25
  8
0
  6
BYBLOCK
 62
     9
 10
7219.999974
 20
300617.323735
 30
0.0
 11
7940.499987
 21
300617.323735
 31
0.0
  0
SOLID
  5
26
  8
0
  6
BYBLOCK
 62
     9
 10
8780.0
 20
300620.657069
 30
0.0
 11
8780.0
 21
300613.990402
 31
0.0
 12
8800.0
 22
300617.323735
 32
0.0
 13
8800.0
 23
300617.323735
 33
0.0
  0
SOLID
  5
27
  8
0
  6
BYBLOCK
 62
     9
 10
7219.999974
 20
300620.657069
 30
0.0
 11
7219.999974
 21
300613.990402
 31
0.0
 12
7199.999974
 22
300617.323735
 32
0.0
 13
7199.999974
 23
300617.323735
 33
0.0
  0
TEXT
  5
28
  8
0
  6
BYBLOCK
 62
    11
 10
7947.499987
 20
300599.823735
 30
0.0
 40
35.0
  1
1600
  0
POINT
  5
29
  8
DEFPOINTS
  6
BYBLOCK
 62
     0
 10
8800.0
 20
300574.0
 30
0.0
  0
POINT
  5
2B
  8
DEFPOINTS
  6
BYBLOCK
 62
     0
 10
7199.999974
 20
300574.0
 30
0.0
  0
POINT
  5
2C
  8
DEFPOINTS
  6
BYBLOCK
 62
     0
 10
7199.999974
 20
300617.323735
 30
0.0
  0
ENDBLK
  5
2E
  8
0
  0
BLOCK
  8
0
  2
*D2
 70
     1
 10
0.0
 20
0.0
 30
0.0
  3
*D2
  1

  0
LINE
  5
3B
  8
0
  6
BYBLOCK
 62
     9
 10
8199.99999
 20
300139.999994
 30
0.0
 11
8199.99999
 21
300091.727059
 31
0.0
  0
LINE
  5
3C
  8
0
  6
BYBLOCK
 62
     9
 10
8251.999991
 20
300139.999994
 30
0.0
 11
8251.999991
 21
300091.727059
 31
0.0
  0
LINE
  5
3D
  8
0
  6
BYBLOCK
 62
     9
 10
8179.99999
 20
300092.727059
 30
0.0
 11
8159.99999
 21
300092.727059
 31
0.0
  0
LINE
  5
3E
  8
0
  6
BYBLOCK
 62
     9
 10
8271.999991
 20
300092.727059
 30
0.0
 11
8291.999991
 21
300092.727059
 31
0.0
  0
TEXT
  5
3F
  8
0
  6
BYBLOCK
 62
    11
 10
8303.289377
 20
300075.227059
 30
0.0
 40
35.0
  1
52
  0
LINE
  5
40
  8
0
  6
BYBLOCK
 62
     9
 10
8199.99999
 20
300092.727059
 30
0.0
 11
8251.999991
 21
300092.727059
 31
0.0
  0
SOLID
  5
41
  8
0
  6
BYBLOCK
 62
     9
 10
8179.99999
 20
300096.060393
 30
0.0
 11
8179.99999
 21
300089.393726
 31
0.0
 12
8199.99999
 22
300092.727059
 32
0.0
 13
8199.99999
 23
300092.727059
 33
0.0
  0
SOLID
  5
42
  8
0
  6
BYBLOCK
 62
     9
 10
8271.999991
 20
300096.060393
 30
0.0
 11
8271.999991
 21
300089.393726
 31
0.0
 12
8251.999991
 22
300092.727059
 32
0.0
 13
8251.999991
 23
300092.727059
 33
0.0
  0
POINT
  5
43
  8
DEFPOINTS
  6
BYBLOCK
 62
     0
 10
8199.99999
 20
300149.999994
 30
0.0
  0
POINT
  5
44
  8
DEFPOINTS
  6
BYBLOCK
 62
     0
 10
8251.999991
 20
300149.999994
 30
0.0
  0
POINT
  5
45
  8
DEFPOINTS
  6
BYBLOCK
 62
     0
 10
8251.999991
 20
300092.727059
 30
0.0
  0
ENDBLK
  5
47
  8
0
  0
ENDSEC
  0
SECTION
  2
ENTITIES
  0
DIMENSION
  5
20
  8
TEAM-MAS
  2
*D1
 10
-800.000026
 20
617.323735
 30
0.0
 11
-0.000013
 21
617.323735
 31
0.0
 12
-8000.0
 22
-300000.0
 32
0.0
 13
800.0
 23
574.0
 33
0.0
 14
-800.000026
 24
574.0
 34
0.0
1001
ACAD
1000
DSTYLE
1002
{
1070
    40
1040
1.0
1002
}
  0
ARC
  5
2F
  8
TEAM-BODY
 10
1230.697971
 20
1550.954735
 30
0.0
 40
2196.918453
 50
207.163204
 51
216.633543
  0
LINE
  5
31
  8
TEAM-HIDE
 10
-794.000025
 20
0.0
 30
0.0
 11
800.0
 21
0.0
 31
0.0
  0
LINE
  5
34
  8
TEAM-BODY
 10
-794.000025
 20
580.0
 30
0.0
 11
794.0
 21
580.0
 31
0.0
  0
LINE
  5
35
  8
TEAM-BODY
 10
-794.000025
 20
548.0
 30
0.0
 11
794.0
 21
548.0
 31
0.0
  0
LINE
  5
36
  8
TEAM-BODY
 10
-800.000026
 20
554.0
 30
0.0
 11
-800.000026
 21
574.0
 31
0.0
  0
ARC
  5
37
  8
TEAM-BODY
 10
-794.000025
 20
554.0
 30
0.0
 40
6.0
 50
180.0
 51
270.0
  0
ARC
  5
38
  8
TEAM-BODY
 10
-794.000025
 20
574.0
 30
0.0
 40
6.0
 50
90.0
 51
180.0
  0
DIMENSION
  5
39
  8
TEAM-MAS
  2
*D2
 10
251.999991
 20
92.727059
 30
0.0
 11
332.456043
 21
92.727059
 31
0.0
 12
-8000.0
 22
-300000.0
 32
0.0
 70
   128
 13
199.99999
 23
149.999994
 33
0.0
 14
251.999991
 24
149.999994
 34
0.0
1001
ACAD
1000
DSTYLE
1002
{
1070
    40
1040
1.0
1002
}
  0
DIMENSION
  5
48
  8
TEAM-MAS
  2
*D0
 10
841.095408
 20
580.0
 30
0.0
 11
841.095408
 21
364.999997
 31
0.0
 12
-8000.0
 22
-300000.0
 32
0.0
 13
199.999991
 23
149.999994
 33
0.0
 14
794.0
 24
580.0
 34
0.0
 50
90.0
1001
ACAD
1000
DSTYLE
1002
{
1070
    40
1040
1.0
1002
}
  0
ARC
  5
56
  8
TEAM-BODY
 10
794.0
 20
574.0
 30
0.0
 40
6.0
 50
0.0
 51
93.17258
  0
ARC
  5
57
  8
TEAM-BODY
 10
794.0
 20
554.0
 30
0.0
 40
6.0
 50
270.0
 51
0.0
  0
LINE
  5
58
  8
TEAM-BODY
 10
800.0
 20
574.0
 30
0.0
 11
800.0
 21
554.0
 31
0.0
  0
ARC
  5
59
  8
TEAM-BODY
 10
590.039997
 20
251.189995
 30
0.0
 40
80.000001
 50
271.4997
 51
349.0121
  0
ARC
  5
5A
  8
TEAM-BODY
 10
-3250.584329
 20
997.690655
 30
0.0
 40
3992.499803
 50
349.000816
 51
353.532767
  0
TEXT
  5
5B
  8
TEAM-TXT
 10
-662.989675
 20
506.296968
 30
0.0
 40
30.0
  1
team 111370
 41
0.8
 51
15.0
  7
TEAM
  0
ARC
  5
5E
  8
TEAM-DET1
 10
-49.900013
 20
-2435.000045
 30
0.0
 40
2865.000043
 50
80.86399
 51
90.00199
  0
ARC
  5
60
  8
TEAM-DET1
 10
-49.900013
 20
-2505.000046
 30
0.0
 40
2865.000043
 50
80.86399
 51
90.00199
  0
ARC
  5
61
  8
TEAM-DET1
 10
-49.900013
 20
-2460.840046
 30
0.0
 40
2865.000043
 50
80.86399
 51
90.00199
  0
ARC
  5
62
  8
TEAM-DET1
 10
-49.900013
 20
-2470.860046
 30
0.0
 40
2865.000043
 50
80.864
 51
90.00199
  0
ARC
  5
63
  8
TEAM-KAN
 10
269.889991
 20
149.439994
 30
0.0
 40
9.0
 50
91.50481
 51
149.8017
  0
ARC
  5
65
  8
TEAM-KAN
 10
255.189991
 20
157.999994
 30
0.0
 40
8.0
 50
270.0
 51
329.804
  0
ARC
  5
66
  8
TEAM-BODY
 10
158.82999
 20
158.996517
 30
0.0
 40
5.0
 50
47.08946
 51
88.50021
  0
ARC
  5
67
  8
TEAM-BODY
 10
172.43999
 20
173.646517
 30
0.0
 40
15.0
 50
227.0894
 51
268.4928
  0
LINE
  5
68
  8
TEAM-BODY
 10
186.73999
 20
158.266517
 30
0.0
 11
172.04999
 21
158.646517
 31
0.0
  0
ARC
  5
69
  8
TEAM-KAN
 10
182.11999
 20
149.439994
 30
0.0
 40
9.0
 50
30.20452
 51
88.49518
  0
ARC
  5
6A
  8
TEAM-KAN
 10
196.80999
 20
157.999994
 30
0.0
 40
8.0
 50
210.196
 51
270.0
  0
CIRCLE
  5
6B
  8
TEAM-INSP
 10
0.0
 20
0.0
 30
0.0
 40
10.0
  0
ARC
  5
6D
  8
TEAM-BODY
 10
226.118011
 20
1666.747036
 30
0.0
 40
1509.000529
 50
268.504466
 51
271.650209
  0
LINE
  5
6E
  8
TEAM-KAN
 10
196.80999
 20
149.999994
 30
0.0
 11
255.189991
 21
149.999994
 31
0.0
  0
ARC
  5
6F
  8
TEAM-BODY
 10
-419.87002
 20
323.539996
 30
0.0
 40
140.000002
 50
216.6055
 51
268.4995
  0
LINE
  5
70
  8
TEAM-BODY
 10
158.960856
 20
163.994804
 30
0.0
 11
-423.54002
 21
183.589994
 31
0.0
  0
LINE
  5
71
  8
TEAM-DET1
 10
174.999991
 20
222.999995
 30
0.0
 11
-443.59002
 21
241.809995
 31
0.0
  0
ARC
  5
72
  8
TEAM-DET1
 10
-49.267384
 20
-739.867356
 30
0.0
 40
1099.867591
 50
90.03776
 51
112.7821
  0
ARC
  5
73
  8
TEAM-DET1
 10
-49.225904
 20
-720.644395
 30
0.0
 40
1114.784656
 50
90.039387
 51
113.307588
  0
ARC
  5
74
  8
TEAM-DET1
 10
-49.208734
 20
-716.465158
 30
0.0
 40
1120.625429
 50
90.040059
 51
113.52142
  0
ARC
  5
75
  8
TEAM-DET1
 10
-49.173399
 20
-702.087449
 30
0.0
 40
1132.087743
 50
90.041442
 51
113.955011
  0
LINE
  5
76
  8
TEAM-DET1
 10
174.999991
 20
222.999995
 30
0.0
 11
545.259996
 21
232.689995
 31
0.0
  0
LINE
  5
77
  8
TEAM-BODY
 10
269.573594
 20
158.372345
 30
0.0
 11
592.129997
 21
171.219994
 31
0.0
  0
ENDSEC
  0
EOF
