  0
SECTION
  2
HEADER
  9
$ACADVER
  1
AC1009
  9
$INSBASE
 10
0.0
 20
0.0
 30
0.0
  9
$EXTMIN
 10
-804.21866
 20
-354.173222
 30
-0.001526
  9
$EXTMAX
 10
855.575533
 20
438.197125
 30
0.0
  9
$LIMMIN
 10
-804.21866
 20
-354.173222
  9
$LIMMAX
 10
855.575533
 20
438.197125
  9
$ORTHOMODE
 70
     1
  9
$REGENMODE
 70
     1
  9
$FILLMODE
 70
     1
  9
$QTEXTMODE
 70
     0
  9
$MIRRTEXT
 70
     0
  9
$DRAGMODE
 70
     2
  9
$LTSCALE
 40
50.0
  9
$OSMODE
 70
     7
  9
$ATTMODE
 70
     1
  9
$TEXTSIZE
 40
200.0
  9
$TRACEWID
 40
1.0
  9
$TEXTSTYLE
  7
STANDARD
  9
$CLAYER
  8
TEAM-MAS
  9
$CELTYPE
  6
BYLAYER
  9
$CECOLOR
 62
   256
  9
$DIMSCALE
 40
0.0
  9
$DIMASZ
 40
20.0
  9
$DIMEXO
 40
10.0
  9
$DIMDLI
 40
1.0
  9
$DIMRND
 40
0.0
  9
$DIMDLE
 40
0.0
  9
$DIMEXE
 40
1.0
  9
$DIMTP
 40
0.0
  9
$DIMTM
 40
0.0
  9
$DIMTXT
 40
35.0
  9
$DIMCEN
 40
1.0
  9
$DIMTSZ
 40
0.0
  9
$DIMTOL
 70
     0
  9
$DIMLIM
 70
     0
  9
$DIMTIH
 70
     0
  9
$DIMTOH
 70
     0
  9
$DIMSE1
 70
     0
  9
$DIMSE2
 70
     0
  9
$DIMTAD
 70
     0
  9
$DIMZIN
 70
     0
  9
$DIMBLK
  1

  9
$DIMASO
 70
     1
  9
$DIMSHO
 70
     0
  9
$DIMPOST
  1

  9
$DIMAPOST
  1

  9
$DIMALT
 70
     0
  9
$DIMALTD
 70
     2
  9
$DIMALTF
 40
25.4
  9
$DIMLFAC
 40
1.0
  9
$DIMTOFL
 70
     0
  9
$DIMTVP
 40
0.0
  9
$DIMTIX
 70
     0
  9
$DIMSOXD
 70
     0
  9
$DIMSAH
 70
     0
  9
$DIMBLK1
  1

  9
$DIMBLK2
  1

  9
$DIMSTYLE
  2
TEAM
  9
$DIMCLRD
 70
     9
  9
$DIMCLRE
 70
     9
  9
$DIMCLRT
 70
    11
  9
$DIMTFAC
 40
1.0
  9
$DIMGAP
 40
7.0
  9
$LUNITS
 70
     2
  9
$LUPREC
 70
     1
  9
$SKETCHINC
 40
1.0
  9
$FILLETRAD
 40
5.0
  9
$AUNITS
 70
     0
  9
$AUPREC
 70
     0
  9
$MENU
  1
ROPLANS
  9
$ELEVATION
 40
0.0
  9
$PELEVATION
 40
0.0
  9
$THICKNESS
 40
0.0
  9
$LIMCHECK
 70
     0
  9
$BLIPMODE
 70
     1
  9
$CHAMFERA
 40
0.0
  9
$CHAMFERB
 40
0.0
  9
$SKPOLY
 70
     0
  9
$TDCREATE
 40
2450392.957851
  9
$TDUPDATE
 40
2455944.698999
  9
$TDINDWG
 40
3.037655
  9
$TDUSRTIMER
 40
3.037655
  9
$USRTIMER
 70
     1
  9
$ANGBASE
 50
0.0
  9
$ANGDIR
 70
     0
  9
$PDMODE
 70
     0
  9
$PDSIZE
 40
0.0
  9
$PLINEWID
 40
0.0
  9
$COORDS
 70
     2
  9
$SPLFRAME
 70
     0
  9
$SPLINETYPE
 70
     6
  9
$SPLINESEGS
 70
     8
  9
$ATTDIA
 70
     0
  9
$ATTREQ
 70
     0
  9
$HANDLING
 70
     1
  9
$HANDSEED
  5
287
  9
$SURFTAB1
 70
    24
  9
$SURFTAB2
 70
    24
  9
$SURFTYPE
 70
     6
  9
$SURFU
 70
     6
  9
$SURFV
 70
     6
  9
$UCSNAME
  2

  9
$UCSORG
 10
0.0
 20
0.0
 30
0.0
  9
$UCSXDIR
 10
1.0
 20
0.0
 30
0.0
  9
$UCSYDIR
 10
0.0
 20
1.0
 30
0.0
  9
$PUCSNAME
  2

  9
$PUCSORG
 10
0.0
 20
0.0
 30
0.0
  9
$PUCSXDIR
 10
1.0
 20
0.0
 30
0.0
  9
$PUCSYDIR
 10
0.0
 20
1.0
 30
0.0
  9
$USERI1
 70
     0
  9
$USERI2
 70
     0
  9
$USERI3
 70
     0
  9
$USERI4
 70
     0
  9
$USERI5
 70
     0
  9
$USERR1
 40
0.0
  9
$USERR2
 40
0.0
  9
$USERR3
 40
0.0
  9
$USERR4
 40
0.0
  9
$USERR5
 40
0.0
  9
$WORLDVIEW
 70
     1
  9
$SHADEDGE
 70
     0
  9
$SHADEDIF
 70
    70
  9
$TILEMODE
 70
     1
  9
$MAXACTVP
 70
    16
  9
$PLIMCHECK
 70
     0
  9
$PEXTMIN
 10
-0.805942
 20
0.005011
 30
0.0
  9
$PEXTMAX
 10
20.250094
 20
11.356329
 30
0.0
  9
$PLIMMIN
 10
0.0
 20
0.0
  9
$PLIMMAX
 10
12.0
 20
9.0
  9
$UNITMODE
 70
     0
  9
$VISRETAIN
 70
     0
  9
$PLINEGEN
 70
     0
  9
$PSLTSCALE
 70
     0
  0
ENDSEC
  0
SECTION
  2
TABLES
  0
TABLE
  2
VPORT
 70
     2
  0
VPORT
  2
*ACTIVE
 70
     0
 10
0.0
 20
0.0
 11
1.0
 21
1.0
 12
25.678436
 22
42.011951
 13
0.0
 23
0.0
 14
1.0
 24
1.0
 15
20.0
 25
20.0
 16
0.0
 26
0.0
 36
1.0
 17
0.0
 27
0.0
 37
0.0
 40
874.719159
 41
1.903766
 42
50.0
 43
0.0
 44
0.0
 50
0.0
 51
0.0
 71
     0
 72
   100
 73
     1
 74
     1
 75
     0
 76
     0
 77
     0
 78
     0
  0
ENDTAB
  0
TABLE
  2
LTYPE
 70
     2
  0
LTYPE
  2
CONTINUOUS
 70
     0
  3
Solid Line
 72
    65
 73
     0
 40
0.0
  0
LTYPE
  2
31
 70
     0
  3

 72
    65
 73
     4
 40
2.1
 49
1.5
 49
-0.3
 49
0.0
 49
-0.3
  0
ENDTAB
  0
TABLE
  2
LAYER
 70
    10
  0
LAYER
  2
0
 70
     0
 62
     7
  6
CONTINUOUS
  0
LAYER
  2
DEFPOINTS
 70
     0
 62
     7
  6
CONTINUOUS
  0
LAYER
  2
TEAM-BODY
 70
     0
 62
     2
  6
CONTINUOUS
  0
LAYER
  2
TEAM-AXE
 70
     0
 62
    10
  6
31
  0
LAYER
  2
TEAM-MAS
 70
     0
 62
     9
  6
CONTINUOUS
  0
LAYER
  2
TEAM-TXT
 70
     0
 62
    11
  6
CONTINUOUS
  0
LAYER
  2
TEAM-DET1
 70
     0
 62
     4
  6
CONTINUOUS
  0
LAYER
  2
TEAM-KAN
 70
     0
 62
     6
  6
CONTINUOUS
  0
LAYER
  2
TEAM-DET3
 70
     0
 62
    14
  6
CONTINUOUS
  0
LAYER
  2
TEAM-INSP
 70
     0
 62
     5
  6
CONTINUOUS
  0
ENDTAB
  0
TABLE
  2
STYLE
 70
     2
  0
STYLE
  2
STANDARD
 70
     0
 40
0.0
 41
1.0
 50
0.0
 71
     0
 42
200.0
  3
txt
  4

  0
STYLE
  2
TEAM
 70
     0
 40
0.0
 41
0.8
 50
15.0
 71
     0
 42
7.0
  3
ROMANS.shx
  4

  0
ENDTAB
  0
TABLE
  2
VIEW
 70
     0
  0
ENDTAB
  0
TABLE
  2
UCS
 70
     0
  0
ENDTAB
  0
TABLE
  2
APPID
 70
     1
  0
APPID
  2
ACAD
 70
     0
  0
ENDTAB
  0
TABLE
  2
DIMSTYLE
 70
     1
  0
DIMSTYLE
  2
TEAM
 70
     0
  3

  4

  5

  6

  7

 40
0.0
 41
20.0
 42
10.0
 43
1.0
 44
1.0
 45
0.0
 46
0.0
 47
0.0
 48
0.0
140
35.0
141
1.0
142
0.0
143
25.4
144
1.0
145
0.0
146
1.0
147
7.0
 71
     0
 72
     0
 73
     0
 74
     0
 75
     0
 76
     0
 77
     0
 78
     0
170
     0
171
     2
172
     0
173
     0
174
     0
175
     0
176
     9
177
     9
178
    11
  0
ENDTAB
  0
ENDSEC
  0
SECTION
  2
BLOCKS
  0
BLOCK
  8
0
  2
$MODEL_SPACE
 70
     0
 10
0.0
 20
0.0
 30
0.0
  3
$MODEL_SPACE
  1

  0
ENDBLK
  5
1E0
  8
0
  0
BLOCK
 67
     1
  8
0
  2
$PAPER_SPACE
 70
     0
 10
0.0
 20
0.0
 30
0.0
  3
$PAPER_SPACE
  1

  0
ENDBLK
  5
1DE
 67
     1
  8
0
  0
BLOCK
  8
0
  2
*D0
 70
     1
 10
0.0
 20
0.0
 30
0.0
  3
*D0
  1

  0
LINE
  5
31
  8
0
  6
BYBLOCK
 62
     9
 10
800.0
 20
304340.000006
 30
0.0
 11
800.0
 21
304421.67307
 31
0.0
  0
LINE
  5
32
  8
0
  6
BYBLOCK
 62
     9
 10
-800.000026
 20
304340.000006
 30
0.0
 11
-800.000026
 21
304421.67307
 31
0.0
  0
LINE
  5
33
  8
0
  6
BYBLOCK
 62
     9
 10
780.0
 20
304420.67307
 30
0.0
 11
59.499987
 21
304420.67307
 31
0.0
  0
LINE
  5
34
  8
0
  6
BYBLOCK
 62
     9
 10
-780.000026
 20
304420.67307
 30
0.0
 11
-59.500013
 21
304420.67307
 31
0.0
  0
SOLID
  5
35
  8
0
  6
BYBLOCK
 62
     9
 10
780.0
 20
304424.006404
 30
0.0
 11
780.0
 21
304417.339737
 31
0.0
 12
800.0
 22
304420.67307
 32
0.0
 13
800.0
 23
304420.67307
 33
0.0
  0
SOLID
  5
36
  8
0
  6
BYBLOCK
 62
     9
 10
-780.000026
 20
304424.006404
 30
0.0
 11
-780.000026
 21
304417.339737
 31
0.0
 12
-800.000026
 22
304420.67307
 32
0.0
 13
-800.000026
 23
304420.67307
 33
0.0
  0
TEXT
  5
37
  8
0
  6
BYBLOCK
 62
    11
 10
-52.500013
 20
304403.17307
 30
0.0
 40
35.0
  1
1600
  0
POINT
  5
38
  8
DEFPOINTS
  6
BYBLOCK
 62
     0
 10
800.0
 20
304330.000006
 30
0.0
  0
POINT
  5
39
  8
DEFPOINTS
  6
BYBLOCK
 62
     0
 10
-800.000026
 20
304330.000006
 30
0.0
  0
POINT
  5
3A
  8
DEFPOINTS
  6
BYBLOCK
 62
     0
 10
-800.000026
 20
304420.67307
 30
0.0
  0
ENDBLK
  5
3C
  8
0
  0
BLOCK
  8
0
  2
*D1
 70
     1
 10
0.0
 20
0.0
 30
0.0
  3
*D1
  1

  0
LINE
  5
22
  8
0
  6
BYBLOCK
 62
     9
 10
800.0
 20
304340.000006
 30
0.0
 11
800.0
 21
304383.239182
 31
0.0
  0
LINE
  5
23
  8
0
  6
BYBLOCK
 62
     9
 10
224.999991
 20
304073.000001
 30
0.0
 11
224.999991
 21
304383.239182
 31
0.0
  0
LINE
  5
24
  8
0
  6
BYBLOCK
 62
     9
 10
780.0
 20
304382.239182
 30
0.0
 11
566.166662
 21
304382.239182
 31
0.0
  0
LINE
  5
25
  8
0
  6
BYBLOCK
 62
     9
 10
244.999991
 20
304382.239182
 30
0.0
 11
458.833329
 21
304382.239182
 31
0.0
  0
SOLID
  5
26
  8
0
  6
BYBLOCK
 62
     9
 10
780.0
 20
304385.572515
 30
0.0
 11
780.0
 21
304378.905849
 31
0.0
 12
800.0
 22
304382.239182
 32
0.0
 13
800.0
 23
304382.239182
 33
0.0
  0
SOLID
  5
27
  8
0
  6
BYBLOCK
 62
     9
 10
244.999991
 20
304385.572515
 30
0.0
 11
244.999991
 21
304378.905849
 31
0.0
 12
224.999991
 22
304382.239182
 32
0.0
 13
224.999991
 23
304382.239182
 33
0.0
  0
TEXT
  5
28
  8
0
  6
BYBLOCK
 62
    11
 10
465.833329
 20
304364.739182
 30
0.0
 40
35.0
  1
575
  0
POINT
  5
29
  8
DEFPOINTS
  6
BYBLOCK
 62
     0
 10
800.0
 20
304330.000006
 30
0.0
  0
POINT
  5
2B
  8
DEFPOINTS
  6
BYBLOCK
 62
     0
 10
224.999991
 20
304063.000001
 30
0.0
  0
POINT
  5
2C
  8
DEFPOINTS
  6
BYBLOCK
 62
     0
 10
224.999991
 20
304382.239182
 30
0.0
  0
ENDBLK
  5
2E
  8
0
  0
BLOCK
  8
0
  2
*D2
 70
     1
 10
0.0
 20
0.0
 30
0.0
  3
*D2
  1

  0
LINE
  5
61
  8
0
  6
BYBLOCK
 62
     9
 10
790.0
 20
304350.000006
 30
0.0
 11
839.025006
 21
304350.000006
 31
0.0
  0
LINE
  5
62
  8
0
  6
BYBLOCK
 62
     9
 10
790.0
 20
303649.999994
 30
0.0
 11
839.025006
 21
303649.999994
 31
0.0
  0
LINE
  5
63
  8
0
  6
BYBLOCK
 62
     9
 10
838.025006
 20
304330.000006
 30
0.0
 11
838.025006
 21
304047.833333
 31
0.0
  0
LINE
  5
64
  8
0
  6
BYBLOCK
 62
     9
 10
838.025006
 20
303669.999994
 30
0.0
 11
838.025006
 21
303952.166667
 31
0.0
  0
SOLID
  5
65
  8
0
  6
BYBLOCK
 62
     9
 10
834.691673
 20
304330.000006
 30
0.0
 11
841.35834
 21
304330.000006
 31
0.0
 12
838.025006
 22
304350.000006
 32
0.0
 13
838.025006
 23
304350.000006
 33
0.0
  0
SOLID
  5
66
  8
0
  6
BYBLOCK
 62
     9
 10
834.691673
 20
303669.999994
 30
0.0
 11
841.35834
 21
303669.999994
 31
0.0
 12
838.025006
 22
303649.999994
 32
0.0
 13
838.025006
 23
303649.999994
 33
0.0
  0
TEXT
  5
67
  8
0
  6
BYBLOCK
 62
    11
 10
855.525006
 20
303959.166667
 30
0.0
 40
35.0
  1
700
 50
90.0
  0
POINT
  5
68
  8
DEFPOINTS
  6
BYBLOCK
 62
     0
 10
780.0
 20
304350.000006
 30
0.0
  0
POINT
  5
69
  8
DEFPOINTS
  6
BYBLOCK
 62
     0
 10
780.0
 20
303649.999994
 30
0.0
  0
POINT
  5
6A
  8
DEFPOINTS
  6
BYBLOCK
 62
     0
 10
838.025006
 20
303649.999994
 30
0.0
  0
ENDBLK
  5
6C
  8
0
  0
ENDSEC
  0
SECTION
  2
ENTITIES
  0
DIMENSION
  5
20
  8
TEAM-MAS
  2
*D1
 10
224.999991
 20
382.239182
 30
0.0
 11
512.499995
 21
382.239182
 31
0.0
 12
0.0
 22
-304000.0
 32
0.0
 13
800.0
 23
330.000006
 33
0.0
 14
224.999991
 24
63.000001
 34
0.0
1001
ACAD
1000
DSTYLE
1002
{
1070
    40
1040
1.0
1002
}
  0
DIMENSION
  5
2F
  8
TEAM-MAS
  2
*D0
 10
-800.000026
 20
420.67307
 30
0.0
 11
-0.000013
 21
420.67307
 31
0.0
 12
0.0
 22
-304000.0
 32
0.0
 13
800.0
 23
330.000006
 33
0.0
 14
-800.000026
 24
330.000006
 34
0.0
1001
ACAD
1000
DSTYLE
1002
{
1070
    40
1040
1.0
1002
}
  0
POLYLINE
  5
3D
  8
TEAM-BODY
 66
     1
 10
0.0
 20
0.0
 30
0.0
  0
VERTEX
  5
1E6
  8
TEAM-BODY
 10
800.0
 20
0.0
 30
0.0
  0
VERTEX
  5
1E7
  8
TEAM-BODY
 10
800.0
 20
-330.000006
 30
0.0
 42
-0.414214
  0
VERTEX
  5
1E8
  8
TEAM-BODY
 10
780.0
 20
-350.000006
 30
0.0
  0
VERTEX
  5
1E9
  8
TEAM-BODY
 10
-780.000025
 20
-350.000006
 30
0.0
 42
-0.414214
  0
VERTEX
  5
1EA
  8
TEAM-BODY
 10
-800.000025
 20
-330.000006
 30
0.0
  0
VERTEX
  5
1EB
  8
TEAM-BODY
 10
-800.000025
 20
0.0
 30
0.0
  0
SEQEND
  5
1EC
  8
TEAM-BODY
  0
POLYLINE
  5
3F
  8
TEAM-DET1
 66
     1
 10
0.0
 20
0.0
 30
0.0
  0
VERTEX
  5
1ED
  8
TEAM-DET1
 10
-724.279078
 20
0.0
 30
0.0
 42
0.425635
  0
VERTEX
  5
1EE
  8
TEAM-DET1
 10
-425.00002
 20
-290.000005
 30
0.0
  0
VERTEX
  5
1EF
  8
TEAM-DET1
 10
404.999994
 20
-290.000005
 30
0.0
 42
0.414952
  0
VERTEX
  5
1F0
  8
TEAM-DET1
 10
708.699961
 20
0.0
 30
0.0
  0
SEQEND
  5
1F1
  8
TEAM-DET1
  0
POLYLINE
  5
41
  8
TEAM-BODY
 66
     1
 10
0.0
 20
0.0
 30
0.0
  0
VERTEX
  5
1F2
  8
TEAM-BODY
 10
800.0
 20
0.0
 30
0.0
  0
VERTEX
  5
1F3
  8
TEAM-BODY
 10
800.0
 20
330.000006
 30
0.0
 42
0.414214
  0
VERTEX
  5
1F4
  8
TEAM-BODY
 10
780.0
 20
350.000006
 30
0.0
  0
VERTEX
  5
1F5
  8
TEAM-BODY
 10
-780.000025
 20
350.000006
 30
0.0
 42
0.414214
  0
VERTEX
  5
1F6
  8
TEAM-BODY
 10
-800.000025
 20
330.000006
 30
0.0
  0
VERTEX
  5
1F7
  8
TEAM-BODY
 10
-800.000025
 20
0.0
 30
0.0
  0
SEQEND
  5
1F8
  8
TEAM-BODY
  0
POLYLINE
  5
42
  8
TEAM-DET1
 66
     1
 10
0.0
 20
0.0
 30
0.0
  0
VERTEX
  5
1F9
  8
TEAM-DET1
 10
-724.279078
 20
0.0
 30
0.0
 42
-0.425635
  0
VERTEX
  5
1FA
  8
TEAM-DET1
 10
-425.00002
 20
290.000005
 30
0.0
  0
VERTEX
  5
1FB
  8
TEAM-DET1
 10
404.999994
 20
290.000005
 30
0.0
 42
-0.414952
  0
VERTEX
  5
1FC
  8
TEAM-DET1
 10
708.699961
 20
0.0
 30
0.0
  0
SEQEND
  5
1FD
  8
TEAM-DET1
  0
POLYLINE
  5
43
  8
TEAM-BODY
 66
     1
 10
0.0
 20
0.0
 30
0.0
  0
VERTEX
  5
1FE
  8
TEAM-BODY
 10
582.365167
 20
0.0
 30
0.0
 42
0.407205
  0
VERTEX
  5
1FF
  8
TEAM-BODY
 10
399.799994
 20
167.306703
 30
0.0
 42
0.058122
  0
VERTEX
  5
200
  8
TEAM-BODY
 10
246.638221
 20
149.442097
 30
0.0
 42
-0.044984
  0
VERTEX
  5
201
  8
TEAM-BODY
 10
104.582527
 20
129.06672
 30
0.0
 42
-0.013152
  0
VERTEX
  5
202
  8
TEAM-BODY
 10
-50.000013
 20
125.000002
 30
0.0
  0
VERTEX
  5
203
  8
TEAM-BODY
 10
-273.500018
 20
125.000002
 30
0.0
 42
0.418804
  0
VERTEX
  5
204
  8
TEAM-BODY
 10
-410.825923
 20
0.0
 30
0.0
  0
SEQEND
  5
205
  8
TEAM-BODY
  0
POLYLINE
  5
44
  8
TEAM-BODY
 66
     1
 10
0.0
 20
0.0
 30
0.0
  0
VERTEX
  5
206
  8
TEAM-BODY
 10
582.365167
 20
0.0
 30
0.0
 42
-0.407205
  0
VERTEX
  5
207
  8
TEAM-BODY
 10
399.799994
 20
-167.306703
 30
0.0
 42
-0.058122
  0
VERTEX
  5
208
  8
TEAM-BODY
 10
246.638221
 20
-149.442097
 30
0.0
 42
0.044984
  0
VERTEX
  5
209
  8
TEAM-BODY
 10
104.582527
 20
-129.06672
 30
0.0
 42
0.013152
  0
VERTEX
  5
20A
  8
TEAM-BODY
 10
-50.000013
 20
-125.000002
 30
0.0
  0
VERTEX
  5
20B
  8
TEAM-BODY
 10
-273.500018
 20
-125.000002
 30
0.0
 42
-0.418804
  0
VERTEX
  5
20C
  8
TEAM-BODY
 10
-410.825923
 20
0.0
 30
0.0
  0
SEQEND
  5
20D
  8
TEAM-BODY
  0
ARC
  5
45
  8
TEAM-DET3
 10
-52.50389
 20
-430.667
 30
0.0
 40
195.745875
 50
45.940702
 51
134.059298
  0
ARC
  5
47
  8
TEAM-DET3
 10
-52.50389
 20
-430.667
 30
0.0
 40
175.745875
 50
53.168315
 51
126.831685
  0
LINE
  5
48
  8
TEAM-AXE
 10
224.999991
 20
-285.100005
 30
0.0
 11
224.999991
 21
-278.720005
 31
0.0
  0
LINE
  5
4B
  8
TEAM-AXE
 10
250.999991
 20
-281.910005
 30
0.0
 11
198.99999
 21
-281.910005
 31
0.0
  0
POLYLINE
  5
4C
  8
TEAM-KAN
 66
     1
 10
0.0
 20
0.0
 30
0.0
  0
VERTEX
  5
20E
  8
TEAM-KAN
 10
249.179991
 20
-283.090005
 30
0.0
  0
VERTEX
  5
20F
  8
TEAM-KAN
 10
249.729991
 20
-282.900005
 30
0.0
  0
VERTEX
  5
210
  8
TEAM-KAN
 10
250.189991
 20
-282.710005
 30
0.0
  0
VERTEX
  5
211
  8
TEAM-KAN
 10
250.539991
 20
-282.510005
 30
0.0
  0
VERTEX
  5
212
  8
TEAM-KAN
 10
250.799991
 20
-282.310005
 30
0.0
  0
VERTEX
  5
213
  8
TEAM-KAN
 10
250.949991
 20
-282.120005
 30
0.0
  0
VERTEX
  5
214
  8
TEAM-KAN
 10
250.999991
 20
-281.910005
 30
0.0
  0
SEQEND
  5
215
  8
TEAM-KAN
  0
POLYLINE
  5
4E
  8
TEAM-DET1
 66
     1
 10
0.0
 20
0.0
 30
0.0
  0
VERTEX
  5
216
  8
TEAM-DET1
 10
199.45999
 20
-281.320005
 30
0.0
  0
VERTEX
  5
217
  8
TEAM-DET1
 10
199.20999
 20
-281.510005
 30
0.0
  0
VERTEX
  5
218
  8
TEAM-DET1
 10
199.05999
 20
-281.710005
 30
0.0
  0
VERTEX
  5
219
  8
TEAM-DET1
 10
198.99999
 20
-281.910005
 30
0.0
  0
VERTEX
  5
21A
  8
TEAM-DET1
 10
199.05999
 20
-282.120005
 30
0.0
  0
VERTEX
  5
21B
  8
TEAM-DET1
 10
199.20999
 20
-282.310005
 30
0.0
  0
VERTEX
  5
21C
  8
TEAM-DET1
 10
199.45999
 20
-282.510005
 30
0.0
  0
VERTEX
  5
21D
  8
TEAM-DET1
 10
199.81999
 20
-282.710005
 30
0.0
  0
VERTEX
  5
21E
  8
TEAM-DET1
 10
200.27999
 20
-282.900005
 30
0.0
  0
VERTEX
  5
21F
  8
TEAM-DET1
 10
200.82999
 20
-283.090005
 30
0.0
  0
VERTEX
  5
220
  8
TEAM-DET1
 10
201.47999
 20
-283.270005
 30
0.0
  0
VERTEX
  5
221
  8
TEAM-DET1
 10
202.21999
 20
-283.450005
 30
0.0
  0
VERTEX
  5
222
  8
TEAM-DET1
 10
203.04999
 20
-283.620005
 30
0.0
  0
VERTEX
  5
223
  8
TEAM-DET1
 10
203.96999
 20
-283.790005
 30
0.0
  0
VERTEX
  5
224
  8
TEAM-DET1
 10
204.96999
 20
-283.950005
 30
0.0
  0
VERTEX
  5
225
  8
TEAM-DET1
 10
206.04999
 20
-284.100005
 30
0.0
  0
VERTEX
  5
226
  8
TEAM-DET1
 10
207.19999
 20
-284.240005
 30
0.0
  0
VERTEX
  5
227
  8
TEAM-DET1
 10
208.42999
 20
-284.370005
 30
0.0
  0
VERTEX
  5
228
  8
TEAM-DET1
 10
209.71999
 20
-284.490005
 30
0.0
  0
VERTEX
  5
229
  8
TEAM-DET1
 10
211.06999
 20
-284.610005
 30
0.0
  0
VERTEX
  5
22A
  8
TEAM-DET1
 10
212.47999
 20
-284.710005
 30
0.0
  0
VERTEX
  5
22B
  8
TEAM-DET1
 10
213.92999
 20
-284.800005
 30
0.0
  0
VERTEX
  5
22C
  8
TEAM-DET1
 10
215.42999
 20
-284.880005
 30
0.0
  0
VERTEX
  5
22D
  8
TEAM-DET1
 10
216.969991
 20
-284.950005
 30
0.0
  0
VERTEX
  5
22E
  8
TEAM-DET1
 10
218.539991
 20
-285.000005
 30
0.0
  0
VERTEX
  5
22F
  8
TEAM-DET1
 10
220.129991
 20
-285.050005
 30
0.0
  0
VERTEX
  5
230
  8
TEAM-DET1
 10
221.749991
 20
-285.080005
 30
0.0
  0
VERTEX
  5
231
  8
TEAM-DET1
 10
223.369991
 20
-285.100005
 30
0.0
  0
VERTEX
  5
232
  8
TEAM-DET1
 10
224.999991
 20
-285.100005
 30
0.0
  0
VERTEX
  5
233
  8
TEAM-DET1
 10
226.639991
 20
-285.100005
 30
0.0
  0
VERTEX
  5
234
  8
TEAM-DET1
 10
228.259991
 20
-285.080005
 30
0.0
  0
VERTEX
  5
235
  8
TEAM-DET1
 10
229.879991
 20
-285.050005
 30
0.0
  0
VERTEX
  5
236
  8
TEAM-DET1
 10
231.469991
 20
-285.000005
 30
0.0
  0
VERTEX
  5
237
  8
TEAM-DET1
 10
233.039991
 20
-284.950005
 30
0.0
  0
VERTEX
  5
238
  8
TEAM-DET1
 10
234.579991
 20
-284.880005
 30
0.0
  0
VERTEX
  5
239
  8
TEAM-DET1
 10
236.069991
 20
-284.800005
 30
0.0
  0
VERTEX
  5
23A
  8
TEAM-DET1
 10
237.529991
 20
-284.710005
 30
0.0
  0
VERTEX
  5
23B
  8
TEAM-DET1
 10
238.929991
 20
-284.610005
 30
0.0
  0
VERTEX
  5
23C
  8
TEAM-DET1
 10
240.289991
 20
-284.490005
 30
0.0
  0
VERTEX
  5
23D
  8
TEAM-DET1
 10
241.579991
 20
-284.370005
 30
0.0
  0
VERTEX
  5
23E
  8
TEAM-DET1
 10
242.799991
 20
-284.240005
 30
0.0
  0
VERTEX
  5
23F
  8
TEAM-DET1
 10
243.959991
 20
-284.100005
 30
0.0
  0
VERTEX
  5
240
  8
TEAM-DET1
 10
245.039991
 20
-283.950005
 30
0.0
  0
VERTEX
  5
241
  8
TEAM-DET1
 10
246.039991
 20
-283.790005
 30
0.0
  0
VERTEX
  5
242
  8
TEAM-DET1
 10
246.959991
 20
-283.620005
 30
0.0
  0
VERTEX
  5
243
  8
TEAM-DET1
 10
247.789991
 20
-283.450005
 30
0.0
  0
VERTEX
  5
244
  8
TEAM-DET1
 10
248.529991
 20
-283.270005
 30
0.0
  0
VERTEX
  5
245
  8
TEAM-DET1
 10
249.179991
 20
-283.090005
 30
0.0
  0
SEQEND
  5
246
  8
TEAM-DET1
  0
POLYLINE
  5
4F
  8
TEAM-DET1
 66
     1
 10
0.0
 20
0.0
 30
0.0
  0
VERTEX
  5
247
  8
TEAM-DET1
 10
250.999991
 20
-281.910005
 30
0.0
  0
VERTEX
  5
248
  8
TEAM-DET1
 10
250.949991
 20
-281.710005
 30
0.0
  0
VERTEX
  5
249
  8
TEAM-DET1
 10
250.799991
 20
-281.510005
 30
0.0
  0
VERTEX
  5
24A
  8
TEAM-DET1
 10
250.539991
 20
-281.320005
 30
0.0
  0
VERTEX
  5
24B
  8
TEAM-DET1
 10
250.189991
 20
-281.120005
 30
0.0
  0
VERTEX
  5
24C
  8
TEAM-DET1
 10
249.729991
 20
-280.930005
 30
0.0
  0
VERTEX
  5
24D
  8
TEAM-DET1
 10
249.179991
 20
-280.740005
 30
0.0
  0
VERTEX
  5
24E
  8
TEAM-DET1
 10
248.529991
 20
-280.560005
 30
0.0
  0
VERTEX
  5
24F
  8
TEAM-DET1
 10
247.789991
 20
-280.380005
 30
0.0
  0
VERTEX
  5
250
  8
TEAM-DET1
 10
246.959991
 20
-280.210005
 30
0.0
  0
VERTEX
  5
251
  8
TEAM-DET1
 10
246.039991
 20
-280.040005
 30
0.0
  0
VERTEX
  5
252
  8
TEAM-DET1
 10
245.039991
 20
-279.880005
 30
0.0
  0
VERTEX
  5
253
  8
TEAM-DET1
 10
243.959991
 20
-279.730005
 30
0.0
  0
VERTEX
  5
254
  8
TEAM-DET1
 10
242.799991
 20
-279.590005
 30
0.0
  0
VERTEX
  5
255
  8
TEAM-DET1
 10
241.579991
 20
-279.460005
 30
0.0
  0
VERTEX
  5
256
  8
TEAM-DET1
 10
240.289991
 20
-279.330005
 30
0.0
  0
VERTEX
  5
257
  8
TEAM-DET1
 10
238.929991
 20
-279.220005
 30
0.0
  0
VERTEX
  5
258
  8
TEAM-DET1
 10
237.529991
 20
-279.120005
 30
0.0
  0
VERTEX
  5
259
  8
TEAM-DET1
 10
236.069991
 20
-279.030005
 30
0.0
  0
VERTEX
  5
25A
  8
TEAM-DET1
 10
234.579991
 20
-278.950005
 30
0.0
  0
VERTEX
  5
25B
  8
TEAM-DET1
 10
233.039991
 20
-278.880005
 30
0.0
  0
VERTEX
  5
25C
  8
TEAM-DET1
 10
231.469991
 20
-278.820005
 30
0.0
  0
VERTEX
  5
25D
  8
TEAM-DET1
 10
229.879991
 20
-278.780005
 30
0.0
  0
VERTEX
  5
25E
  8
TEAM-DET1
 10
228.259991
 20
-278.750005
 30
0.0
  0
VERTEX
  5
25F
  8
TEAM-DET1
 10
226.639991
 20
-278.730005
 30
0.0
  0
VERTEX
  5
260
  8
TEAM-DET1
 10
224.999991
 20
-278.720005
 30
0.0
  0
VERTEX
  5
261
  8
TEAM-DET1
 10
223.369991
 20
-278.730005
 30
0.0
  0
VERTEX
  5
262
  8
TEAM-DET1
 10
221.749991
 20
-278.750005
 30
0.0
  0
VERTEX
  5
263
  8
TEAM-DET1
 10
220.129991
 20
-278.780005
 30
0.0
  0
VERTEX
  5
264
  8
TEAM-DET1
 10
218.539991
 20
-278.820005
 30
0.0
  0
VERTEX
  5
265
  8
TEAM-DET1
 10
216.969991
 20
-278.880005
 30
0.0
  0
VERTEX
  5
266
  8
TEAM-DET1
 10
215.42999
 20
-278.950005
 30
0.0
  0
VERTEX
  5
267
  8
TEAM-DET1
 10
213.92999
 20
-279.030005
 30
0.0
  0
VERTEX
  5
268
  8
TEAM-DET1
 10
212.47999
 20
-279.120005
 30
0.0
  0
VERTEX
  5
269
  8
TEAM-DET1
 10
211.06999
 20
-279.220005
 30
0.0
  0
VERTEX
  5
26A
  8
TEAM-DET1
 10
209.71999
 20
-279.330005
 30
0.0
  0
VERTEX
  5
26B
  8
TEAM-DET1
 10
208.42999
 20
-279.460005
 30
0.0
  0
VERTEX
  5
26C
  8
TEAM-DET1
 10
207.19999
 20
-279.590005
 30
0.0
  0
VERTEX
  5
26D
  8
TEAM-DET1
 10
206.04999
 20
-279.730005
 30
0.0
  0
VERTEX
  5
26E
  8
TEAM-DET1
 10
204.96999
 20
-279.880005
 30
0.0
  0
VERTEX
  5
26F
  8
TEAM-DET1
 10
203.96999
 20
-280.040005
 30
0.0
  0
VERTEX
  5
270
  8
TEAM-DET1
 10
203.04999
 20
-280.210005
 30
0.0
  0
VERTEX
  5
271
  8
TEAM-DET1
 10
202.21999
 20
-280.380005
 30
0.0
  0
VERTEX
  5
272
  8
TEAM-DET1
 10
201.47999
 20
-280.560005
 30
0.0
  0
VERTEX
  5
273
  8
TEAM-DET1
 10
200.82999
 20
-280.740005
 30
0.0
  0
VERTEX
  5
274
  8
TEAM-DET1
 10
200.27999
 20
-280.930005
 30
0.0
  0
VERTEX
  5
275
  8
TEAM-DET1
 10
199.81999
 20
-281.120005
 30
0.0
  0
VERTEX
  5
276
  8
TEAM-DET1
 10
199.45999
 20
-281.320005
 30
0.0
  0
SEQEND
  5
277
  8
TEAM-DET1
  0
ARC
  5
50
  8
TEAM-DET3
 10
-52.50389
 20
430.667
 30
0.0
 40
195.745875
 50
225.940702
 51
314.059298
  0
CIRCLE
  5
51
  8
TEAM-INSP
 10
0.0
 20
0.0
 30
0.0
 40
10.0
  0
ARC
  5
53
  8
TEAM-DET3
 10
-52.50389
 20
430.667
 30
0.0
 40
175.745875
 50
233.168315
 51
306.831685
  0
CIRCLE
  5
54
  8
TEAM-KAN
 10
224.999991
 20
0.0
 30
0.0
 40
26.0
  0
LINE
  5
55
  8
TEAM-AXE
 10
224.999991
 20
63.000001
 30
0.0
 11
224.999991
 21
-63.000001
 31
0.0
  0
ARC
  5
56
  8
TEAM-DET1
 10
294.451787
 20
-1.35631
 30
0.0
 40
134.457139
 50
120.0737
 51
179.42203
  0
ARC
  5
57
  8
TEAM-DET1
 10
294.451787
 20
1.35631
 30
0.0
 40
134.457139
 50
180.57797
 51
239.9263
  0
CIRCLE
  5
58
  8
TEAM-DET1
 10
224.999991
 20
0.0
 30
0.0
 40
45.000001
  0
LINE
  5
59
  8
TEAM-AXE
 10
287.999992
 20
0.0
 30
0.0
 11
161.99999
 21
0.0
 31
0.0
  0
TEXT
  5
5A
  8
TEAM-TXT
 10
-781.461361
 20
298.757617
 30
0.0
 40
30.0
  1
team 111371
 41
0.8
 51
15.0
  7
TEAM
  0
POLYLINE
  5
5D
  8
TEAM-DET1
 66
     1
 10
0.0
 20
0.0
 30
0.0
  0
VERTEX
  5
278
  8
TEAM-DET1
 10
-514.95667
 20
-178.257943
 30
0.0
 42
0.146584
  0
VERTEX
  5
279
  8
TEAM-DET1
 10
-350.000019
 20
-227.680004
 30
0.0
  0
VERTEX
  5
27A
  8
TEAM-DET1
 10
-50.000013
 20
-227.680004
 30
0.0
 42
-0.01519
  0
VERTEX
  5
27B
  8
TEAM-DET1
 10
122.439294
 20
-232.919928
 30
0.0
 42
-0.037297
  0
VERTEX
  5
27C
  8
TEAM-DET1
 10
196.386699
 20
-242.998212
 30
0.0
 42
0.052588
  0
VERTEX
  5
27D
  8
TEAM-DET1
 10
404.999994
 20
-265.000004
 30
0.0
  0
SEQEND
  5
27E
  8
TEAM-DET1
  0
POLYLINE
  5
5E
  8
TEAM-DET1
 66
     1
 10
0.0
 20
0.0
 30
0.0
  0
VERTEX
  5
27F
  8
TEAM-DET1
 10
-514.95667
 20
178.257943
 30
0.0
 42
-0.146584
  0
VERTEX
  5
280
  8
TEAM-DET1
 10
-350.000019
 20
227.680004
 30
0.0
  0
VERTEX
  5
281
  8
TEAM-DET1
 10
-50.000013
 20
227.680004
 30
0.0
 42
0.01519
  0
VERTEX
  5
282
  8
TEAM-DET1
 10
122.439294
 20
232.919928
 30
0.0
 42
0.037297
  0
VERTEX
  5
283
  8
TEAM-DET1
 10
196.386699
 20
242.998212
 30
0.0
 42
-0.052588
  0
VERTEX
  5
284
  8
TEAM-DET1
 10
404.999994
 20
265.000004
 30
0.0
  0
SEQEND
  5
285
  8
TEAM-DET1
  0
DIMENSION
  5
5F
  8
TEAM-MAS
  2
*D2
 10
838.025006
 20
-350.000006
 30
0.0
 11
838.025006
 21
0.0
 31
0.0
 12
0.0
 22
-304000.0
 32
0.0
 13
780.0
 23
350.000006
 33
0.0
 14
780.0
 24
-350.000006
 34
0.0
 50
90.0
1001
ACAD
1000
DSTYLE
1002
{
1070
    40
1040
1.0
1002
}
  0
ENDSEC
  0
EOF
