  0
SECTION
  2
HEADER
  9
$ACADVER
  1
AC1009
  9
$INSBASE
 10
0.0
 20
0.0
 30
0.0
  9
$EXTMIN
 10
-451.338226
 20
-10.019511
 30
-0.001526
  9
$EXTMAX
 10
503.313302
 20
629.39631
 30
0.0
  9
$LIMMIN
 10
-451.338226
 20
-10.019511
  9
$LIMMAX
 10
503.313302
 20
629.39631
  9
$ORTHOMODE
 70
     1
  9
$REGENMODE
 70
     1
  9
$FILLMODE
 70
     1
  9
$QTEXTMODE
 70
     0
  9
$MIRRTEXT
 70
     0
  9
$DRAGMODE
 70
     2
  9
$LTSCALE
 40
50.0
  9
$OSMODE
 70
     7
  9
$ATTMODE
 70
     1
  9
$TEXTSIZE
 40
200.0
  9
$TRACEWID
 40
1.0
  9
$TEXTSTYLE
  7
STANDARD
  9
$CLAYER
  8
TEAM-MAS
  9
$CELTYPE
  6
BYLAYER
  9
$CECOLOR
 62
   256
  9
$DIMSCALE
 40
0.0
  9
$DIMASZ
 40
20.0
  9
$DIMEXO
 40
10.0
  9
$DIMDLI
 40
1.0
  9
$DIMRND
 40
0.0
  9
$DIMDLE
 40
0.0
  9
$DIMEXE
 40
1.0
  9
$DIMTP
 40
0.0
  9
$DIMTM
 40
0.0
  9
$DIMTXT
 40
35.0
  9
$DIMCEN
 40
1.0
  9
$DIMTSZ
 40
0.0
  9
$DIMTOL
 70
     0
  9
$DIMLIM
 70
     0
  9
$DIMTIH
 70
     0
  9
$DIMTOH
 70
     0
  9
$DIMSE1
 70
     0
  9
$DIMSE2
 70
     0
  9
$DIMTAD
 70
     0
  9
$DIMZIN
 70
     0
  9
$DIMBLK
  1

  9
$DIMASO
 70
     1
  9
$DIMSHO
 70
     0
  9
$DIMPOST
  1

  9
$DIMAPOST
  1

  9
$DIMALT
 70
     0
  9
$DIMALTD
 70
     2
  9
$DIMALTF
 40
25.4
  9
$DIMLFAC
 40
1.0
  9
$DIMTOFL
 70
     0
  9
$DIMTVP
 40
0.0
  9
$DIMTIX
 70
     0
  9
$DIMSOXD
 70
     0
  9
$DIMSAH
 70
     0
  9
$DIMBLK1
  1

  9
$DIMBLK2
  1

  9
$DIMSTYLE
  2
TEAM
  9
$DIMCLRD
 70
     9
  9
$DIMCLRE
 70
     9
  9
$DIMCLRT
 70
    11
  9
$DIMTFAC
 40
1.0
  9
$DIMGAP
 40
7.0
  9
$LUNITS
 70
     2
  9
$LUPREC
 70
     1
  9
$SKETCHINC
 40
1.0
  9
$FILLETRAD
 40
5.0
  9
$AUNITS
 70
     0
  9
$AUPREC
 70
     0
  9
$MENU
  1
ROPLANS
  9
$ELEVATION
 40
0.0
  9
$PELEVATION
 40
0.0
  9
$THICKNESS
 40
0.0
  9
$LIMCHECK
 70
     0
  9
$BLIPMODE
 70
     1
  9
$CHAMFERA
 40
0.0
  9
$CHAMFERB
 40
0.0
  9
$SKPOLY
 70
     0
  9
$TDCREATE
 40
2450392.957851
  9
$TDUPDATE
 40
2455944.698999
  9
$TDINDWG
 40
3.037655
  9
$TDUSRTIMER
 40
3.037655
  9
$USRTIMER
 70
     1
  9
$ANGBASE
 50
0.0
  9
$ANGDIR
 70
     0
  9
$PDMODE
 70
     0
  9
$PDSIZE
 40
0.0
  9
$PLINEWID
 40
0.0
  9
$COORDS
 70
     2
  9
$SPLFRAME
 70
     0
  9
$SPLINETYPE
 70
     6
  9
$SPLINESEGS
 70
     8
  9
$ATTDIA
 70
     0
  9
$ATTREQ
 70
     0
  9
$HANDLING
 70
     1
  9
$HANDSEED
  5
9D
  9
$SURFTAB1
 70
    24
  9
$SURFTAB2
 70
    24
  9
$SURFTYPE
 70
     6
  9
$SURFU
 70
     6
  9
$SURFV
 70
     6
  9
$UCSNAME
  2

  9
$UCSORG
 10
0.0
 20
0.0
 30
0.0
  9
$UCSXDIR
 10
1.0
 20
0.0
 30
0.0
  9
$UCSYDIR
 10
0.0
 20
1.0
 30
0.0
  9
$PUCSNAME
  2

  9
$PUCSORG
 10
0.0
 20
0.0
 30
0.0
  9
$PUCSXDIR
 10
1.0
 20
0.0
 30
0.0
  9
$PUCSYDIR
 10
0.0
 20
1.0
 30
0.0
  9
$USERI1
 70
     0
  9
$USERI2
 70
     0
  9
$USERI3
 70
     0
  9
$USERI4
 70
     0
  9
$USERI5
 70
     0
  9
$USERR1
 40
0.0
  9
$USERR2
 40
0.0
  9
$USERR3
 40
0.0
  9
$USERR4
 40
0.0
  9
$USERR5
 40
0.0
  9
$WORLDVIEW
 70
     1
  9
$SHADEDGE
 70
     0
  9
$SHADEDIF
 70
    70
  9
$TILEMODE
 70
     1
  9
$MAXACTVP
 70
    16
  9
$PLIMCHECK
 70
     0
  9
$PEXTMIN
 10
-0.805942
 20
0.005011
 30
0.0
  9
$PEXTMAX
 10
20.250094
 20
11.356329
 30
0.0
  9
$PLIMMIN
 10
0.0
 20
0.0
  9
$PLIMMAX
 10
12.0
 20
9.0
  9
$UNITMODE
 70
     0
  9
$VISRETAIN
 70
     0
  9
$PLINEGEN
 70
     0
  9
$PSLTSCALE
 70
     0
  0
ENDSEC
  0
SECTION
  2
TABLES
  0
TABLE
  2
VPORT
 70
     2
  0
VPORT
  2
*ACTIVE
 70
     0
 10
0.0
 20
0.0
 11
1.0
 21
1.0
 12
25.987538
 22
309.6884
 13
0.0
 23
0.0
 14
1.0
 24
1.0
 15
20.0
 25
20.0
 16
0.0
 26
0.0
 36
1.0
 17
0.0
 27
0.0
 37
0.0
 40
643.424698
 41
1.903766
 42
50.0
 43
0.0
 44
0.0
 50
0.0
 51
0.0
 71
     0
 72
   100
 73
     1
 74
     1
 75
     0
 76
     0
 77
     0
 78
     0
  0
ENDTAB
  0
TABLE
  2
LTYPE
 70
     2
  0
LTYPE
  2
CONTINUOUS
 70
     0
  3
Solid Line
 72
    65
 73
     0
 40
0.0
  0
LTYPE
  2
31
 70
     0
  3

 72
    65
 73
     4
 40
2.1
 49
1.5
 49
-0.3
 49
0.0
 49
-0.3
  0
ENDTAB
  0
TABLE
  2
LAYER
 70
     9
  0
LAYER
  2
0
 70
     0
 62
     7
  6
CONTINUOUS
  0
LAYER
  2
DEFPOINTS
 70
     0
 62
     7
  6
CONTINUOUS
  0
LAYER
  2
TEAM-BODY
 70
     0
 62
     2
  6
CONTINUOUS
  0
LAYER
  2
TEAM-AXE
 70
     0
 62
    10
  6
31
  0
LAYER
  2
TEAM-MAS
 70
     0
 62
     9
  6
CONTINUOUS
  0
LAYER
  2
TEAM-TXT
 70
     0
 62
    11
  6
CONTINUOUS
  0
LAYER
  2
TEAM-DET1
 70
     0
 62
     4
  6
CONTINUOUS
  0
LAYER
  2
TEAM-KAN
 70
     0
 62
     6
  6
CONTINUOUS
  0
LAYER
  2
TEAM-INSP
 70
     0
 62
     5
  6
CONTINUOUS
  0
ENDTAB
  0
TABLE
  2
STYLE
 70
     2
  0
STYLE
  2
STANDARD
 70
     0
 40
0.0
 41
1.0
 50
0.0
 71
     0
 42
200.0
  3
txt
  4

  0
STYLE
  2
TEAM
 70
     0
 40
0.0
 41
0.8
 50
15.0
 71
     0
 42
7.0
  3
ROMANS.shx
  4

  0
ENDTAB
  0
TABLE
  2
VIEW
 70
     0
  0
ENDTAB
  0
TABLE
  2
UCS
 70
     0
  0
ENDTAB
  0
TABLE
  2
APPID
 70
     1
  0
APPID
  2
ACAD
 70
     0
  0
ENDTAB
  0
TABLE
  2
DIMSTYLE
 70
     1
  0
DIMSTYLE
  2
TEAM
 70
     0
  3

  4

  5

  6

  7

 40
0.0
 41
20.0
 42
10.0
 43
1.0
 44
1.0
 45
0.0
 46
0.0
 47
0.0
 48
0.0
140
35.0
141
1.0
142
0.0
143
25.4
144
1.0
145
0.0
146
1.0
147
7.0
 71
     0
 72
     0
 73
     0
 74
     0
 75
     0
 76
     0
 77
     0
 78
     0
170
     0
171
     2
172
     0
173
     0
174
     0
175
     0
176
     9
177
     9
178
    11
  0
ENDTAB
  0
ENDSEC
  0
SECTION
  2
BLOCKS
  0
BLOCK
  8
0
  2
$MODEL_SPACE
 70
     0
 10
0.0
 20
0.0
 30
0.0
  3
$MODEL_SPACE
  1

  0
ENDBLK
  5
96
  8
0
  0
BLOCK
 67
     1
  8
0
  2
$PAPER_SPACE
 70
     0
 10
0.0
 20
0.0
 30
0.0
  3
$PAPER_SPACE
  1

  0
ENDBLK
  5
94
 67
     1
  8
0
  0
BLOCK
  8
0
  2
*D0
 70
     1
 10
0.0
 20
0.0
 30
0.0
  3
*D0
  1

  0
LINE
  5
31
  8
0
  6
BYBLOCK
 62
     9
 10
12454.0
 20
300580.0
 30
0.0
 11
12486.784207
 21
300580.0
 31
0.0
  0
LINE
  5
32
  8
0
  6
BYBLOCK
 62
     9
 10
12010.0
 20
300000.0
 30
0.0
 11
12486.784207
 21
300000.0
 31
0.0
  0
LINE
  5
33
  8
0
  6
BYBLOCK
 62
     9
 10
12485.784207
 20
300560.0
 30
0.0
 11
12485.784207
 21
300340.75
 31
0.0
  0
LINE
  5
34
  8
0
  6
BYBLOCK
 62
     9
 10
12485.784207
 20
300020.0
 30
0.0
 11
12485.784207
 21
300239.25
 31
0.0
  0
SOLID
  5
35
  8
0
  6
BYBLOCK
 62
     9
 10
12482.450874
 20
300560.0
 30
0.0
 11
12489.117541
 21
300560.0
 31
0.0
 12
12485.784207
 22
300580.0
 32
0.0
 13
12485.784207
 23
300580.0
 33
0.0
  0
SOLID
  5
36
  8
0
  6
BYBLOCK
 62
     9
 10
12482.450874
 20
300020.0
 30
0.0
 11
12489.117541
 21
300020.0
 31
0.0
 12
12485.784207
 22
300000.0
 32
0.0
 13
12485.784207
 23
300000.0
 33
0.0
  0
TEXT
  5
37
  8
0
  6
BYBLOCK
 62
    11
 10
12503.284207
 20
300246.25
 30
0.0
 40
35.0
  1
580
 50
90.0
  0
POINT
  5
38
  8
DEFPOINTS
  6
BYBLOCK
 62
     0
 10
12444.0
 20
300580.0
 30
0.0
  0
POINT
  5
39
  8
DEFPOINTS
  6
BYBLOCK
 62
     0
 10
12000.0
 20
300000.0
 30
0.0
  0
POINT
  5
3A
  8
DEFPOINTS
  6
BYBLOCK
 62
     0
 10
12485.784207
 20
300000.0
 30
0.0
  0
ENDBLK
  5
3C
  8
0
  0
BLOCK
  8
0
  2
*D1
 70
     1
 10
0.0
 20
0.0
 30
0.0
  3
*D1
  1

  0
LINE
  5
22
  8
0
  6
BYBLOCK
 62
     9
 10
11550.0
 20
300574.0
 30
0.0
 11
11550.0
 21
300612.876797
 31
0.0
  0
LINE
  5
23
  8
0
  6
BYBLOCK
 62
     9
 10
12450.0
 20
300574.0
 30
0.0
 11
12450.0
 21
300612.876797
 31
0.0
  0
LINE
  5
24
  8
0
  6
BYBLOCK
 62
     9
 10
11570.0
 20
300611.876797
 30
0.0
 11
11952.166667
 21
300611.876797
 31
0.0
  0
LINE
  5
25
  8
0
  6
BYBLOCK
 62
     9
 10
12430.0
 20
300611.876797
 30
0.0
 11
12047.833333
 21
300611.876797
 31
0.0
  0
SOLID
  5
26
  8
0
  6
BYBLOCK
 62
     9
 10
11570.0
 20
300615.21013
 30
0.0
 11
11570.0
 21
300608.543463
 31
0.0
 12
11550.0
 22
300611.876797
 32
0.0
 13
11550.0
 23
300611.876797
 33
0.0
  0
SOLID
  5
27
  8
0
  6
BYBLOCK
 62
     9
 10
12430.0
 20
300615.21013
 30
0.0
 11
12430.0
 21
300608.543463
 31
0.0
 12
12450.0
 22
300611.876797
 32
0.0
 13
12450.0
 23
300611.876797
 33
0.0
  0
TEXT
  5
28
  8
0
  6
BYBLOCK
 62
    11
 10
11959.166667
 20
300594.376797
 30
0.0
 40
35.0
  1
900
  0
POINT
  5
29
  8
DEFPOINTS
  6
BYBLOCK
 62
     0
 10
11550.0
 20
300564.0
 30
0.0
  0
POINT
  5
2B
  8
DEFPOINTS
  6
BYBLOCK
 62
     0
 10
12450.0
 20
300564.0
 30
0.0
  0
POINT
  5
2C
  8
DEFPOINTS
  6
BYBLOCK
 62
     0
 10
12450.0
 20
300611.876797
 30
0.0
  0
ENDBLK
  5
2E
  8
0
  0
ENDSEC
  0
SECTION
  2
ENTITIES
  0
DIMENSION
  5
20
  8
TEAM-MAS
  2
*D1
 10
450.0
 20
611.876797
 30
0.0
 11
0.0
 21
611.876797
 31
0.0
 12
-12000.0
 22
-300000.0
 32
0.0
 13
-450.0
 23
564.0
 33
0.0
 14
450.0
 24
564.0
 34
0.0
1001
ACAD
1000
DSTYLE
1002
{
1070
    40
1040
1.0
1002
}
  0
DIMENSION
  5
2F
  8
TEAM-MAS
  2
*D0
 10
485.784207
 20
0.0
 30
0.0
 11
485.784207
 21
290.0
 31
0.0
 12
-12000.0
 22
-300000.0
 32
0.0
 13
444.0
 23
580.0
 33
0.0
 14
0.0
 24
0.0
 34
0.0
 50
90.0
1001
ACAD
1000
DSTYLE
1002
{
1070
    40
1040
1.0
1002
}
  0
LINE
  5
3D
  8
TEAM-BODY
 10
-444.0
 20
548.0
 30
0.0
 11
444.0
 21
548.0
 31
0.0
  0
LINE
  5
3F
  8
TEAM-BODY
 10
444.0
 20
580.0
 30
0.0
 11
-444.0
 21
580.0
 31
0.0
  0
ARC
  5
40
  8
TEAM-BODY
 10
-3588.1143
 20
998.113
 30
0.0
 40
4000.0
 50
351.8183
 51
353.5389
  0
LINE
  5
41
  8
TEAM-BODY
 10
339.034
 20
394.136
 30
0.0
 11
355.076
 21
404.16
 31
0.0
  0
ARC
  5
42
  8
TEAM-BODY
 10
-3628.1143
 20
998.113
 30
0.0
 40
4000.0
 50
349.0379
 51
350.8275
  0
ARC
  5
43
  8
TEAM-BODY
 10
357.582
 20
364.455
 30
0.0
 40
35.0
 50
122.0008
 51
162.1665
  0
ARC
  5
44
  8
TEAM-BODY
 10
419.458
 20
344.547
 30
0.0
 40
100.0
 50
162.1653
 51
170.827
  0
ARC
  5
45
  8
TEAM-BODY
 10
336.529
 20
433.842
 30
0.0
 40
35.0
 50
301.9997
 51
351.8187
  0
ARC
  5
46
  8
TEAM-BODY
 10
220.358
 20
252.687
 30
0.0
 40
80.0
 50
276.5902
 51
349.0378
  0
LINE
  5
47
  8
TEAM-AXE
 10
0.0
 20
149.17
 30
0.0
 11
0.0
 21
580.0
 31
0.0
  0
ARC
  5
4A
  8
TEAM-BODY
 10
3588.113
 20
998.113
 30
0.0
 40
4000.0
 50
186.4611
 51
188.1817
  0
ARC
  5
4B
  8
TEAM-BODY
 10
-220.358
 20
252.687
 30
0.0
 40
80.0
 50
190.9622
 51
263.4098
  0
LINE
  5
4C
  8
TEAM-BODY
 10
-339.034
 20
394.136
 30
0.0
 11
-355.076
 21
404.16
 31
0.0
  0
ARC
  5
4D
  8
TEAM-BODY
 10
3628.113
 20
998.113
 30
0.0
 40
4000.0
 50
189.1724
 51
190.9621
  0
ARC
  5
4E
  8
TEAM-BODY
 10
-357.582
 20
364.455
 30
0.0
 40
35.0
 50
17.83347
 51
57.99915
  0
ARC
  5
4F
  8
TEAM-BODY
 10
-419.458
 20
344.547
 30
0.0
 40
100.0
 50
9.173025
 51
17.83467
  0
ARC
  5
50
  8
TEAM-BODY
 10
-336.529
 20
433.842
 30
0.0
 40
35.0
 50
188.1809
 51
238.0003
  0
CIRCLE
  5
51
  8
TEAM-INSP
 10
0.0
 20
0.0
 30
0.0
 40
10.0
  0
LINE
  5
53
  8
TEAM-KAN
 10
-29.699
 20
149.697
 30
0.0
 11
29.699
 21
149.697
 31
0.0
  0
ARC
  5
55
  8
TEAM-KAN
 10
43.984
 20
148.48
 30
0.0
 40
9.0
 50
91.25594
 51
147.1583
  0
ARC
  5
56
  8
TEAM-KAN
 10
29.699
 20
157.697
 30
0.0
 40
8.0
 50
270.0
 51
327.1833
  0
ARC
  5
57
  8
TEAM-KAN
 10
-43.984
 20
148.48
 30
0.0
 40
9.0
 50
32.84169
 51
88.74406
  0
ARC
  5
58
  8
TEAM-KAN
 10
-29.699
 20
157.697
 30
0.0
 40
8.0
 50
212.8166
 51
270.0
  0
TEXT
  5
59
  8
TEAM-TXT
 10
-343.112988
 20
487.741751
 30
0.0
 40
30.0
  1
team 111372
 41
0.8
 51
15.0
  7
TEAM
  0
ARC
  5
5C
  8
TEAM-BODY
 10
-444.0
 20
574.0
 30
0.0
 40
6.0
 50
85.781
 51
180.0
  0
LINE
  5
5D
  8
TEAM-BODY
 10
-450.0
 20
574.0
 30
0.0
 11
-450.0
 21
554.0
 31
0.0
  0
ARC
  5
5E
  8
TEAM-BODY
 10
-444.0
 20
554.0
 30
0.0
 40
6.0
 50
180.0
 51
270.0
  0
LINE
  5
5F
  8
TEAM-DET1
 10
247.525
 20
237.474
 30
0.0
 11
-246.587
 21
237.474
 31
0.0
  0
ARC
  5
61
  8
TEAM-BODY
 10
-0.000324
 20
1788.846056
 30
0.0
 40
1631.854666
 50
261.913804
 51
278.086096
  0
ARC
  5
62
  8
TEAM-BODY
 10
444.0
 20
574.0
 30
0.0
 40
6.0
 50
0.0
 51
94.21899
  0
LINE
  5
63
  8
TEAM-BODY
 10
450.0
 20
574.0
 30
0.0
 11
450.0
 21
554.0
 31
0.0
  0
ARC
  5
64
  8
TEAM-BODY
 10
444.0
 20
554.0
 30
0.0
 40
6.0
 50
270.0
 51
0.0
  0
ENDSEC
  0
EOF
