  0
SECTION
  2
HEADER
  9
$ACADVER
  1
AC1009
  9
$INSBASE
 10
0.0
 20
0.0
 30
0.0
  9
$EXTMIN
 10
-950.060106
 20
-531.372441
 30
-0.001526
  9
$EXTMAX
 10
1023.025654
 20
451.677101
 30
0.0
  9
$LIMMIN
 10
-950.060106
 20
-531.372441
  9
$LIMMAX
 10
1023.025654
 20
451.677101
  9
$ORTHOMODE
 70
     1
  9
$REGENMODE
 70
     1
  9
$FILLMODE
 70
     1
  9
$QTEXTMODE
 70
     0
  9
$MIRRTEXT
 70
     0
  9
$DRAGMODE
 70
     2
  9
$LTSCALE
 40
50.0
  9
$OSMODE
 70
     7
  9
$ATTMODE
 70
     1
  9
$TEXTSIZE
 40
200.0
  9
$TRACEWID
 40
1.0
  9
$TEXTSTYLE
  7
STANDARD
  9
$CLAYER
  8
TEAM-MAS
  9
$CELTYPE
  6
BYLAYER
  9
$CECOLOR
 62
   256
  9
$DIMSCALE
 40
0.0
  9
$DIMASZ
 40
20.0
  9
$DIMEXO
 40
10.0
  9
$DIMDLI
 40
1.0
  9
$DIMRND
 40
0.0
  9
$DIMDLE
 40
0.0
  9
$DIMEXE
 40
1.0
  9
$DIMTP
 40
0.0
  9
$DIMTM
 40
0.0
  9
$DIMTXT
 40
35.0
  9
$DIMCEN
 40
1.0
  9
$DIMTSZ
 40
0.0
  9
$DIMTOL
 70
     0
  9
$DIMLIM
 70
     0
  9
$DIMTIH
 70
     0
  9
$DIMTOH
 70
     0
  9
$DIMSE1
 70
     0
  9
$DIMSE2
 70
     0
  9
$DIMTAD
 70
     0
  9
$DIMZIN
 70
     0
  9
$DIMBLK
  1

  9
$DIMASO
 70
     1
  9
$DIMSHO
 70
     0
  9
$DIMPOST
  1

  9
$DIMAPOST
  1

  9
$DIMALT
 70
     0
  9
$DIMALTD
 70
     2
  9
$DIMALTF
 40
25.4
  9
$DIMLFAC
 40
1.0
  9
$DIMTOFL
 70
     0
  9
$DIMTVP
 40
0.0
  9
$DIMTIX
 70
     0
  9
$DIMSOXD
 70
     0
  9
$DIMSAH
 70
     0
  9
$DIMBLK1
  1

  9
$DIMBLK2
  1

  9
$DIMSTYLE
  2
TEAM
  9
$DIMCLRD
 70
     9
  9
$DIMCLRE
 70
     9
  9
$DIMCLRT
 70
    11
  9
$DIMTFAC
 40
1.0
  9
$DIMGAP
 40
7.0
  9
$LUNITS
 70
     2
  9
$LUPREC
 70
     1
  9
$SKETCHINC
 40
1.0
  9
$FILLETRAD
 40
5.0
  9
$AUNITS
 70
     0
  9
$AUPREC
 70
     0
  9
$MENU
  1
ROPLANS
  9
$ELEVATION
 40
0.0
  9
$PELEVATION
 40
0.0
  9
$THICKNESS
 40
0.0
  9
$LIMCHECK
 70
     0
  9
$BLIPMODE
 70
     1
  9
$CHAMFERA
 40
0.0
  9
$CHAMFERB
 40
0.0
  9
$SKPOLY
 70
     0
  9
$TDCREATE
 40
2450392.957851
  9
$TDUPDATE
 40
2455944.698999
  9
$TDINDWG
 40
3.037655
  9
$TDUSRTIMER
 40
3.037655
  9
$USRTIMER
 70
     1
  9
$ANGBASE
 50
0.0
  9
$ANGDIR
 70
     0
  9
$PDMODE
 70
     0
  9
$PDSIZE
 40
0.0
  9
$PLINEWID
 40
0.0
  9
$COORDS
 70
     2
  9
$SPLFRAME
 70
     0
  9
$SPLINETYPE
 70
     6
  9
$SPLINESEGS
 70
     8
  9
$ATTDIA
 70
     0
  9
$ATTREQ
 70
     0
  9
$HANDLING
 70
     1
  9
$HANDSEED
  5
1F1
  9
$SURFTAB1
 70
    24
  9
$SURFTAB2
 70
    24
  9
$SURFTYPE
 70
     6
  9
$SURFU
 70
     6
  9
$SURFV
 70
     6
  9
$UCSNAME
  2

  9
$UCSORG
 10
0.0
 20
0.0
 30
0.0
  9
$UCSXDIR
 10
1.0
 20
0.0
 30
0.0
  9
$UCSYDIR
 10
0.0
 20
1.0
 30
0.0
  9
$PUCSNAME
  2

  9
$PUCSORG
 10
0.0
 20
0.0
 30
0.0
  9
$PUCSXDIR
 10
1.0
 20
0.0
 30
0.0
  9
$PUCSYDIR
 10
0.0
 20
1.0
 30
0.0
  9
$USERI1
 70
     0
  9
$USERI2
 70
     0
  9
$USERI3
 70
     0
  9
$USERI4
 70
     0
  9
$USERI5
 70
     0
  9
$USERR1
 40
0.0
  9
$USERR2
 40
0.0
  9
$USERR3
 40
0.0
  9
$USERR4
 40
0.0
  9
$USERR5
 40
0.0
  9
$WORLDVIEW
 70
     1
  9
$SHADEDGE
 70
     0
  9
$SHADEDIF
 70
    70
  9
$TILEMODE
 70
     1
  9
$MAXACTVP
 70
    16
  9
$PLIMCHECK
 70
     0
  9
$PEXTMIN
 10
-0.805942
 20
0.005011
 30
0.0
  9
$PEXTMAX
 10
20.250094
 20
11.356329
 30
0.0
  9
$PLIMMIN
 10
0.0
 20
0.0
  9
$PLIMMAX
 10
12.0
 20
9.0
  9
$UNITMODE
 70
     0
  9
$VISRETAIN
 70
     0
  9
$PLINEGEN
 70
     0
  9
$PSLTSCALE
 70
     0
  0
ENDSEC
  0
SECTION
  2
TABLES
  0
TABLE
  2
VPORT
 70
     2
  0
VPORT
  2
*ACTIVE
 70
     0
 10
0.0
 20
0.0
 11
1.0
 21
1.0
 12
36.482774
 22
-39.84767
 13
0.0
 23
0.0
 14
1.0
 24
1.0
 15
20.0
 25
20.0
 16
0.0
 26
0.0
 36
1.0
 17
0.0
 27
0.0
 37
0.0
 40
1039.825253
 41
1.903766
 42
50.0
 43
0.0
 44
0.0
 50
0.0
 51
0.0
 71
     0
 72
   100
 73
     1
 74
     1
 75
     0
 76
     0
 77
     0
 78
     0
  0
ENDTAB
  0
TABLE
  2
LTYPE
 70
     2
  0
LTYPE
  2
CONTINUOUS
 70
     0
  3
Solid Line
 72
    65
 73
     0
 40
0.0
  0
LTYPE
  2
31
 70
     0
  3

 72
    65
 73
     4
 40
2.1
 49
1.5
 49
-0.3
 49
0.0
 49
-0.3
  0
ENDTAB
  0
TABLE
  2
LAYER
 70
     9
  0
LAYER
  2
0
 70
     0
 62
     7
  6
CONTINUOUS
  0
LAYER
  2
DEFPOINTS
 70
     0
 62
     7
  6
CONTINUOUS
  0
LAYER
  2
TEAM-BODY
 70
     0
 62
     2
  6
CONTINUOUS
  0
LAYER
  2
TEAM-AXE
 70
     0
 62
    10
  6
31
  0
LAYER
  2
TEAM-MAS
 70
     0
 62
     9
  6
CONTINUOUS
  0
LAYER
  2
TEAM-TXT
 70
     0
 62
    11
  6
CONTINUOUS
  0
LAYER
  2
TEAM-DET1
 70
     0
 62
     4
  6
CONTINUOUS
  0
LAYER
  2
TEAM-DET3
 70
     0
 62
    14
  6
CONTINUOUS
  0
LAYER
  2
TEAM-INSP
 70
     0
 62
     5
  6
CONTINUOUS
  0
ENDTAB
  0
TABLE
  2
STYLE
 70
     2
  0
STYLE
  2
STANDARD
 70
     0
 40
0.0
 41
1.0
 50
0.0
 71
     0
 42
200.0
  3
txt
  4

  0
STYLE
  2
TEAM
 70
     0
 40
0.0
 41
0.8
 50
15.0
 71
     0
 42
7.0
  3
ROMANS.shx
  4

  0
ENDTAB
  0
TABLE
  2
VIEW
 70
     0
  0
ENDTAB
  0
TABLE
  2
UCS
 70
     0
  0
ENDTAB
  0
TABLE
  2
APPID
 70
     1
  0
APPID
  2
ACAD
 70
     0
  0
ENDTAB
  0
TABLE
  2
DIMSTYLE
 70
     1
  0
DIMSTYLE
  2
TEAM
 70
     0
  3

  4

  5

  6

  7

 40
0.0
 41
20.0
 42
10.0
 43
1.0
 44
1.0
 45
0.0
 46
0.0
 47
0.0
 48
0.0
140
35.0
141
1.0
142
0.0
143
25.4
144
1.0
145
0.0
146
1.0
147
7.0
 71
     0
 72
     0
 73
     0
 74
     0
 75
     0
 76
     0
 77
     0
 78
     0
170
     0
171
     2
172
     0
173
     0
174
     0
175
     0
176
     9
177
     9
178
    11
  0
ENDTAB
  0
ENDSEC
  0
SECTION
  2
BLOCKS
  0
BLOCK
  8
0
  2
$MODEL_SPACE
 70
     0
 10
0.0
 20
0.0
 30
0.0
  3
$MODEL_SPACE
  1

  0
ENDBLK
  5
180
  8
0
  0
BLOCK
 67
     1
  8
0
  2
$PAPER_SPACE
 70
     0
 10
0.0
 20
0.0
 30
0.0
  3
$PAPER_SPACE
  1

  0
ENDBLK
  5
17E
 67
     1
  8
0
  0
BLOCK
  8
0
  2
*D0
 70
     1
 10
0.0
 20
0.0
 30
0.0
  3
*D0
  1

  0
LINE
  5
31
  8
0
  6
BYBLOCK
 62
     9
 10
4950.0
 20
307990.0
 30
0.0
 11
4950.0
 21
307485.157505
 31
0.0
  0
LINE
  5
32
  8
0
  6
BYBLOCK
 62
     9
 10
3050.0001
 20
307990.0
 30
0.0
 11
3050.0001
 21
307485.157505
 31
0.0
  0
LINE
  5
33
  8
0
  6
BYBLOCK
 62
     9
 10
4930.0
 20
307486.157505
 30
0.0
 11
4059.50005
 21
307486.157505
 31
0.0
  0
LINE
  5
34
  8
0
  6
BYBLOCK
 62
     9
 10
3070.0001
 20
307486.157505
 30
0.0
 11
3940.50005
 21
307486.157505
 31
0.0
  0
SOLID
  5
35
  8
0
  6
BYBLOCK
 62
     9
 10
4930.0
 20
307489.490838
 30
0.0
 11
4930.0
 21
307482.824171
 31
0.0
 12
4950.0
 22
307486.157505
 32
0.0
 13
4950.0
 23
307486.157505
 33
0.0
  0
SOLID
  5
36
  8
0
  6
BYBLOCK
 62
     9
 10
3070.0001
 20
307489.490838
 30
0.0
 11
3070.0001
 21
307482.824171
 31
0.0
 12
3050.0001
 22
307486.157505
 32
0.0
 13
3050.0001
 23
307486.157505
 33
0.0
  0
TEXT
  5
37
  8
0
  6
BYBLOCK
 62
    11
 10
3947.50005
 20
307468.657505
 30
0.0
 40
35.0
  1
1900
  0
POINT
  5
38
  8
DEFPOINTS
  6
BYBLOCK
 62
     0
 10
4950.0
 20
308000.0
 30
0.0
  0
POINT
  5
39
  8
DEFPOINTS
  6
BYBLOCK
 62
     0
 10
3050.0001
 20
308000.0
 30
0.0
  0
POINT
  5
3A
  8
DEFPOINTS
  6
BYBLOCK
 62
     0
 10
3050.0001
 20
307486.157505
 30
0.0
  0
ENDBLK
  5
3C
  8
0
  0
BLOCK
  8
0
  2
*D1
 70
     1
 10
0.0
 20
0.0
 30
0.0
  3
*D1
  1

  0
LINE
  5
22
  8
0
  6
BYBLOCK
 62
     9
 10
3510.0101
 20
307549.9995
 30
0.0
 11
5006.465439
 21
307549.9995
 31
0.0
  0
LINE
  5
23
  8
0
  6
BYBLOCK
 62
     9
 10
3510.0101
 20
308450.0
 30
0.0
 11
5006.465439
 21
308450.0
 31
0.0
  0
LINE
  5
24
  8
0
  6
BYBLOCK
 62
     9
 10
5005.465439
 20
307569.9995
 30
0.0
 11
5005.465439
 21
307952.166417
 31
0.0
  0
LINE
  5
25
  8
0
  6
BYBLOCK
 62
     9
 10
5005.465439
 20
308430.0
 30
0.0
 11
5005.465439
 21
308047.833083
 31
0.0
  0
SOLID
  5
26
  8
0
  6
BYBLOCK
 62
     9
 10
5002.132106
 20
307569.9995
 30
0.0
 11
5008.798773
 21
307569.9995
 31
0.0
 12
5005.465439
 22
307549.9995
 32
0.0
 13
5005.465439
 23
307549.9995
 33
0.0
  0
SOLID
  5
27
  8
0
  6
BYBLOCK
 62
     9
 10
5002.132106
 20
308430.0
 30
0.0
 11
5008.798773
 21
308430.0
 31
0.0
 12
5005.465439
 22
308450.0
 32
0.0
 13
5005.465439
 23
308450.0
 33
0.0
  0
TEXT
  5
28
  8
0
  6
BYBLOCK
 62
    11
 10
5022.965439
 20
307959.166417
 30
0.0
 40
35.0
  1
900
 50
90.0
  0
POINT
  5
29
  8
DEFPOINTS
  6
BYBLOCK
 62
     0
 10
3500.0101
 20
307549.9995
 30
0.0
  0
POINT
  5
2B
  8
DEFPOINTS
  6
BYBLOCK
 62
     0
 10
3500.0101
 20
308450.0
 30
0.0
  0
POINT
  5
2C
  8
DEFPOINTS
  6
BYBLOCK
 62
     0
 10
5005.465439
 20
308450.0
 30
0.0
  0
ENDBLK
  5
2E
  8
0
  0
BLOCK
  8
0
  2
*D2
 70
     1
 10
0.0
 20
0.0
 30
0.0
  3
*D2
  1

  0
LINE
  5
5D
  8
0
  6
BYBLOCK
 62
     9
 10
4950.0
 20
307990.0
 30
0.0
 11
4950.0
 21
307518.574963
 31
0.0
  0
LINE
  5
5E
  8
0
  6
BYBLOCK
 62
     9
 10
4250.005
 20
307927.0
 30
0.0
 11
4250.005
 21
307518.574963
 31
0.0
  0
LINE
  5
5F
  8
0
  6
BYBLOCK
 62
     9
 10
4930.0
 20
307519.574963
 30
0.0
 11
4647.835833
 21
307519.574963
 31
0.0
  0
LINE
  5
60
  8
0
  6
BYBLOCK
 62
     9
 10
4270.005
 20
307519.574963
 30
0.0
 11
4552.169167
 21
307519.574963
 31
0.0
  0
SOLID
  5
61
  8
0
  6
BYBLOCK
 62
     9
 10
4930.0
 20
307522.908296
 30
0.0
 11
4930.0
 21
307516.241629
 31
0.0
 12
4950.0
 22
307519.574963
 32
0.0
 13
4950.0
 23
307519.574963
 33
0.0
  0
SOLID
  5
62
  8
0
  6
BYBLOCK
 62
     9
 10
4270.005
 20
307522.908296
 30
0.0
 11
4270.005
 21
307516.241629
 31
0.0
 12
4250.005
 22
307519.574963
 32
0.0
 13
4250.005
 23
307519.574963
 33
0.0
  0
TEXT
  5
63
  8
0
  6
BYBLOCK
 62
    11
 10
4559.169167
 20
307502.074963
 30
0.0
 40
35.0
  1
700
  0
POINT
  5
64
  8
DEFPOINTS
  6
BYBLOCK
 62
     0
 10
4950.0
 20
308000.0
 30
0.0
  0
POINT
  5
65
  8
DEFPOINTS
  6
BYBLOCK
 62
     0
 10
4250.005
 20
307937.0
 30
0.0
  0
POINT
  5
66
  8
DEFPOINTS
  6
BYBLOCK
 62
     0
 10
4250.005
 20
307519.574963
 30
0.0
  0
ENDBLK
  5
68
  8
0
  0
ENDSEC
  0
SECTION
  2
ENTITIES
  0
DIMENSION
  5
20
  8
TEAM-MAS
  2
*D1
 10
1005.465439
 20
450.0
 30
0.0
 11
1005.465439
 21
-0.00025
 31
0.0
 12
-4000.0
 22
-308000.0
 32
0.0
 13
-499.9899
 23
-450.0005
 33
0.0
 14
-499.9899
 24
450.0
 34
0.0
 50
90.0
1001
ACAD
1000
DSTYLE
1002
{
1070
    40
1040
1.0
1002
}
  0
DIMENSION
  5
2F
  8
TEAM-MAS
  2
*D0
 10
-949.9999
 20
-513.842495
 30
0.0
 11
0.00005
 21
-513.842495
 31
0.0
 12
-4000.0
 22
-308000.0
 32
0.0
 13
950.0
 23
0.0
 33
0.0
 14
-949.9999
 24
0.0
 34
0.0
1001
ACAD
1000
DSTYLE
1002
{
1070
    40
1040
1.0
1002
}
  0
ARC
  5
3D
  8
TEAM-DET3
 10
0.005
 20
488.775
 30
0.0
 40
165.2802
 50
216.7
 51
323.3002
  0
ARC
  5
3F
  8
TEAM-DET3
 10
0.005
 20
472.318
 30
0.0
 40
122.8219
 50
222.0844
 51
317.9166
  0
ARC
  5
40
  8
TEAM-DET3
 10
0.005
 20
-488.7758
 30
0.0
 40
165.2802
 50
36.69975
 51
143.3
  0
ARC
  5
41
  8
TEAM-DET3
 10
0.005
 20
-472.3169
 30
0.0
 40
122.8219
 50
42.08314
 51
137.9165
  0
LINE
  5
42
  8
TEAM-BODY
 10
357.227
 20
229.5
 30
0.0
 11
-164.231
 21
229.5
 31
0.0
  0
LINE
  5
44
  8
TEAM-DET1
 10
325.005
 20
390.0
 30
0.0
 11
-324.9948
 21
390.0
 31
0.0
  0
LINE
  5
46
  8
TEAM-DET1
 10
-324.9948
 20
324.619
 30
0.0
 11
325.005
 21
324.619
 31
0.0
  0
LINE
  5
47
  8
TEAM-BODY
 10
357.227
 20
-229.5005
 30
0.0
 11
-164.231
 21
-229.5005
 31
0.0
  0
LINE
  5
48
  8
TEAM-DET1
 10
325.005
 20
-390.0005
 30
0.0
 11
-324.9948
 21
-390.0005
 31
0.0
  0
LINE
  5
49
  8
TEAM-DET1
 10
-324.9948
 20
-324.6196
 30
0.0
 11
325.005
 21
-324.6196
 31
0.0
  0
LINE
  5
4A
  8
TEAM-BODY
 10
500.0
 20
450.0
 30
0.0
 11
-499.9899
 21
450.0
 31
0.0
  0
LINE
  5
4B
  8
TEAM-BODY
 10
500.0
 20
-450.0005
 30
0.0
 11
-499.9899
 21
-450.0005
 31
0.0
  0
LINE
  5
4C
  8
TEAM-AXE
 10
950.0
 20
0.0
 30
0.0
 11
-949.9999
 21
0.0
 31
0.0
  0
ARC
  5
4F
  8
TEAM-BODY
 10
-164.231
 20
0.0
 30
0.0
 40
229.5
 50
90.0
 51
270.0
  0
ARC
  5
50
  8
TEAM-BODY
 10
-499.9899
 20
427.0
 30
0.0
 40
23.0
 50
90.0
 51
135.0
  0
ARC
  5
51
  8
TEAM-BODY
 10
-499.9899
 20
-427.0005
 30
0.0
 40
23.0
 50
225.0
 51
270.0
  0
ARC
  5
52
  8
TEAM-BODY
 10
-926.9999
 20
0.0
 30
0.0
 40
23.0
 50
135.0
 51
225.0
  0
LINE
  5
53
  8
TEAM-BODY
 10
-516.2535
 20
-443.2641
 30
0.0
 11
-943.2635
 21
-16.264
 31
0.0
  0
LINE
  5
54
  8
TEAM-BODY
 10
-516.2535
 20
443.263
 30
0.0
 11
-943.2635
 21
16.263
 31
0.0
  0
ARC
  5
55
  8
TEAM-DET1
 10
-324.9948
 20
24.619
 30
0.0
 40
300.0
 50
90.0
 51
123.3571
  0
TEXT
  5
56
  8
TEAM-TXT
 10
-494.449003
 20
397.445871
 30
0.0
 40
30.0
  1
team 111373
 41
0.8
 51
15.0
  7
TEAM
  0
ARC
  5
59
  8
TEAM-DET1
 10
-324.9948
 20
-24.62
 30
0.0
 40
300.0
 50
236.6429
 51
270.0
  0
ARC
  5
5A
  8
TEAM-DET1
 10
-324.9948
 20
0.0
 30
0.0
 40
390.0
 50
90.0
 51
270.0
  0
DIMENSION
  5
5B
  8
TEAM-MAS
  2
*D2
 10
250.005
 20
-480.425037
 30
0.0
 11
600.0025
 21
-480.425037
 31
0.0
 12
-4000.0
 22
-308000.0
 32
0.0
 13
950.0
 23
0.0
 33
0.0
 14
250.005
 24
-63.0
 34
0.0
1001
ACAD
1000
DSTYLE
1002
{
1070
    40
1040
1.0
1002
}
  0
ARC
  5
69
  8
TEAM-BODY
 10
500.0
 20
427.0
 30
0.0
 40
23.0
 50
45.0
 51
90.0
  0
ARC
  5
6A
  8
TEAM-DET1
 10
325.005
 20
24.619
 30
0.0
 40
300.0
 50
56.64286
 51
90.0
  0
ARC
  5
6B
  8
TEAM-BODY
 10
927.0
 20
0.0
 30
0.0
 40
23.0
 50
315.0
 51
45.0
  0
ARC
  5
6C
  8
TEAM-BODY
 10
500.0
 20
-427.0005
 30
0.0
 40
23.0
 50
270.0
 51
315.0
  0
ARC
  5
6D
  8
TEAM-DET1
 10
325.005
 20
-24.62
 30
0.0
 40
300.0
 50
270.0
 51
303.3571
  0
POLYLINE
  5
6E
  8
TEAM-DET1
 66
     1
 10
0.0
 20
0.0
 30
0.0
  0
VERTEX
  5
186
  8
TEAM-DET1
 10
274.179
 20
-383.0844
 30
0.0
  0
VERTEX
  5
187
  8
TEAM-DET1
 10
274.733
 20
-382.8969
 30
0.0
  0
VERTEX
  5
188
  8
TEAM-DET1
 10
275.189
 20
-382.7036
 30
0.0
  0
VERTEX
  5
189
  8
TEAM-DET1
 10
275.544
 20
-382.5083
 30
0.0
  0
VERTEX
  5
18A
  8
TEAM-DET1
 10
275.8
 20
-382.311
 30
0.0
  0
VERTEX
  5
18B
  8
TEAM-DET1
 10
275.953
 20
-382.1098
 30
0.0
  0
VERTEX
  5
18C
  8
TEAM-DET1
 10
276.005
 20
-381.9106
 30
0.0
  0
SEQEND
  5
18D
  8
TEAM-DET1
  0
LINE
  5
6F
  8
TEAM-BODY
 10
516.264
 20
-443.2641
 30
0.0
 11
943.264
 21
-16.264
 31
0.0
  0
ARC
  5
70
  8
TEAM-BODY
 10
357.227
 20
0.0
 30
0.0
 40
229.5
 50
270.0
 51
90.0
  0
LINE
  5
71
  8
TEAM-BODY
 10
516.264
 20
443.263
 30
0.0
 11
943.264
 21
16.263
 31
0.0
  0
ARC
  5
72
  8
TEAM-DET1
 10
325.005
 20
0.0
 30
0.0
 40
390.0
 50
270.0
 51
90.0
  0
CIRCLE
  5
73
  8
TEAM-INSP
 10
0.0
 20
0.0
 30
0.0
 40
10.0
  0
LINE
  5
75
  8
TEAM-AXE
 10
0.005
 20
444.0
 30
0.0
 11
0.005
 21
-450.0005
 31
0.0
  0
LINE
  5
76
  8
TEAM-AXE
 10
250.005
 20
63.0
 30
0.0
 11
250.005
 21
-63.0
 31
0.0
  0
POLYLINE
  5
77
  8
TEAM-DET1
 66
     1
 10
0.0
 20
0.0
 30
0.0
  0
VERTEX
  5
18E
  8
TEAM-DET1
 10
276.005
 20
-381.9106
 30
0.0
  0
VERTEX
  5
18F
  8
TEAM-DET1
 10
275.953
 20
-381.7094
 30
0.0
  0
VERTEX
  5
190
  8
TEAM-DET1
 10
275.8
 20
-381.5102
 30
0.0
  0
VERTEX
  5
191
  8
TEAM-DET1
 10
275.544
 20
-381.313
 30
0.0
  0
VERTEX
  5
192
  8
TEAM-DET1
 10
275.189
 20
-381.1176
 30
0.0
  0
VERTEX
  5
193
  8
TEAM-DET1
 10
274.733
 20
-380.9243
 30
0.0
  0
VERTEX
  5
194
  8
TEAM-DET1
 10
274.179
 20
-380.7368
 30
0.0
  0
VERTEX
  5
195
  8
TEAM-DET1
 10
273.531
 20
-380.5512
 30
0.0
  0
VERTEX
  5
196
  8
TEAM-DET1
 10
272.789
 20
-380.3735
 30
0.0
  0
VERTEX
  5
197
  8
TEAM-DET1
 10
271.957
 20
-380.2016
 30
0.0
  0
VERTEX
  5
198
  8
TEAM-DET1
 10
271.039
 20
-380.0356
 30
0.0
  0
VERTEX
  5
199
  8
TEAM-DET1
 10
270.038
 20
-379.8774
 30
0.0
  0
VERTEX
  5
19A
  8
TEAM-DET1
 10
268.958
 20
-379.727
 30
0.0
  0
VERTEX
  5
19B
  8
TEAM-DET1
 10
267.803
 20
-379.5844
 30
0.0
  0
VERTEX
  5
19C
  8
TEAM-DET1
 10
266.578
 20
-379.4516
 30
0.0
  0
VERTEX
  5
19D
  8
TEAM-DET1
 10
265.287
 20
-379.3305
 30
0.0
  0
VERTEX
  5
19E
  8
TEAM-DET1
 10
263.937
 20
-379.2172
 30
0.0
  0
VERTEX
  5
19F
  8
TEAM-DET1
 10
262.531
 20
-379.1157
 30
0.0
  0
VERTEX
  5
1A0
  8
TEAM-DET1
 10
261.076
 20
-379.0239
 30
0.0
  0
VERTEX
  5
1A1
  8
TEAM-DET1
 10
259.577
 20
-378.9438
 30
0.0
  0
VERTEX
  5
1A2
  8
TEAM-DET1
 10
258.039
 20
-378.8774
 30
0.0
  0
VERTEX
  5
1A3
  8
TEAM-DET1
 10
256.471
 20
-378.8208
 30
0.0
  0
VERTEX
  5
1A4
  8
TEAM-DET1
 10
254.877
 20
-378.7778
 30
0.0
  0
VERTEX
  5
1A5
  8
TEAM-DET1
 10
253.264
 20
-378.7465
 30
0.0
  0
VERTEX
  5
1A6
  8
TEAM-DET1
 10
251.638
 20
-378.727
 30
0.0
  0
VERTEX
  5
1A7
  8
TEAM-DET1
 10
250.005
 20
-378.7212
 30
0.0
  0
VERTEX
  5
1A8
  8
TEAM-DET1
 10
248.372
 20
-378.727
 30
0.0
  0
VERTEX
  5
1A9
  8
TEAM-DET1
 10
246.746
 20
-378.7465
 30
0.0
  0
VERTEX
  5
1AA
  8
TEAM-DET1
 10
245.133
 20
-378.7778
 30
0.0
  0
VERTEX
  5
1AB
  8
TEAM-DET1
 10
243.539
 20
-378.8208
 30
0.0
  0
VERTEX
  5
1AC
  8
TEAM-DET1
 10
241.971
 20
-378.8774
 30
0.0
  0
VERTEX
  5
1AD
  8
TEAM-DET1
 10
240.434
 20
-378.9438
 30
0.0
  0
VERTEX
  5
1AE
  8
TEAM-DET1
 10
238.935
 20
-379.0239
 30
0.0
  0
VERTEX
  5
1AF
  8
TEAM-DET1
 10
237.48
 20
-379.1157
 30
0.0
  0
VERTEX
  5
1B0
  8
TEAM-DET1
 10
236.074
 20
-379.2172
 30
0.0
  0
VERTEX
  5
1B1
  8
TEAM-DET1
 10
234.723
 20
-379.3305
 30
0.0
  0
VERTEX
  5
1B2
  8
TEAM-DET1
 10
233.432
 20
-379.4516
 30
0.0
  0
VERTEX
  5
1B3
  8
TEAM-DET1
 10
232.207
 20
-379.5844
 30
0.0
  0
VERTEX
  5
1B4
  8
TEAM-DET1
 10
231.052
 20
-379.727
 30
0.0
  0
VERTEX
  5
1B5
  8
TEAM-DET1
 10
229.972
 20
-379.8774
 30
0.0
  0
VERTEX
  5
1B6
  8
TEAM-DET1
 10
228.971
 20
-380.0356
 30
0.0
  0
VERTEX
  5
1B7
  8
TEAM-DET1
 10
228.053
 20
-380.2016
 30
0.0
  0
VERTEX
  5
1B8
  8
TEAM-DET1
 10
227.221
 20
-380.3735
 30
0.0
  0
VERTEX
  5
1B9
  8
TEAM-DET1
 10
226.48
 20
-380.5512
 30
0.0
  0
VERTEX
  5
1BA
  8
TEAM-DET1
 10
225.831
 20
-380.7368
 30
0.0
  0
VERTEX
  5
1BB
  8
TEAM-DET1
 10
225.278
 20
-380.9243
 30
0.0
  0
VERTEX
  5
1BC
  8
TEAM-DET1
 10
224.822
 20
-381.1176
 30
0.0
  0
VERTEX
  5
1BD
  8
TEAM-DET1
 10
224.466
 20
-381.313
 30
0.0
  0
SEQEND
  5
1BE
  8
TEAM-DET1
  0
POLYLINE
  5
78
  8
TEAM-DET1
 66
     1
 10
0.0
 20
0.0
 30
0.0
  0
VERTEX
  5
1BF
  8
TEAM-DET1
 10
224.466
 20
-381.313
 30
0.0
  0
VERTEX
  5
1C0
  8
TEAM-DET1
 10
224.21
 20
-381.5102
 30
0.0
  0
VERTEX
  5
1C1
  8
TEAM-DET1
 10
224.057
 20
-381.7094
 30
0.0
  0
VERTEX
  5
1C2
  8
TEAM-DET1
 10
224.005
 20
-381.9106
 30
0.0
  0
VERTEX
  5
1C3
  8
TEAM-DET1
 10
224.057
 20
-382.1098
 30
0.0
  0
VERTEX
  5
1C4
  8
TEAM-DET1
 10
224.21
 20
-382.311
 30
0.0
  0
VERTEX
  5
1C5
  8
TEAM-DET1
 10
224.466
 20
-382.5083
 30
0.0
  0
VERTEX
  5
1C6
  8
TEAM-DET1
 10
224.822
 20
-382.7036
 30
0.0
  0
VERTEX
  5
1C7
  8
TEAM-DET1
 10
225.278
 20
-382.8969
 30
0.0
  0
VERTEX
  5
1C8
  8
TEAM-DET1
 10
225.831
 20
-383.0844
 30
0.0
  0
VERTEX
  5
1C9
  8
TEAM-DET1
 10
226.48
 20
-383.268
 30
0.0
  0
VERTEX
  5
1CA
  8
TEAM-DET1
 10
227.221
 20
-383.4477
 30
0.0
  0
VERTEX
  5
1CB
  8
TEAM-DET1
 10
228.053
 20
-383.6196
 30
0.0
  0
VERTEX
  5
1CC
  8
TEAM-DET1
 10
228.971
 20
-383.7856
 30
0.0
  0
VERTEX
  5
1CD
  8
TEAM-DET1
 10
229.972
 20
-383.9438
 30
0.0
  0
VERTEX
  5
1CE
  8
TEAM-DET1
 10
231.052
 20
-384.0942
 30
0.0
  0
VERTEX
  5
1CF
  8
TEAM-DET1
 10
232.207
 20
-384.2368
 30
0.0
  0
VERTEX
  5
1D0
  8
TEAM-DET1
 10
233.432
 20
-384.3676
 30
0.0
  0
VERTEX
  5
1D1
  8
TEAM-DET1
 10
234.723
 20
-384.4907
 30
0.0
  0
VERTEX
  5
1D2
  8
TEAM-DET1
 10
236.074
 20
-384.604
 30
0.0
  0
VERTEX
  5
1D3
  8
TEAM-DET1
 10
237.48
 20
-384.7055
 30
0.0
  0
VERTEX
  5
1D4
  8
TEAM-DET1
 10
238.935
 20
-384.7973
 30
0.0
  0
VERTEX
  5
1D5
  8
TEAM-DET1
 10
240.434
 20
-384.8755
 30
0.0
  0
VERTEX
  5
1D6
  8
TEAM-DET1
 10
241.971
 20
-384.9438
 30
0.0
  0
VERTEX
  5
1D7
  8
TEAM-DET1
 10
243.539
 20
-385.0005
 30
0.0
  0
VERTEX
  5
1D8
  8
TEAM-DET1
 10
245.133
 20
-385.0434
 30
0.0
  0
VERTEX
  5
1D9
  8
TEAM-DET1
 10
246.746
 20
-385.0747
 30
0.0
  0
VERTEX
  5
1DA
  8
TEAM-DET1
 10
248.372
 20
-385.0942
 30
0.0
  0
VERTEX
  5
1DB
  8
TEAM-DET1
 10
250.005
 20
-385.1001
 30
0.0
  0
VERTEX
  5
1DC
  8
TEAM-DET1
 10
251.638
 20
-385.0942
 30
0.0
  0
VERTEX
  5
1DD
  8
TEAM-DET1
 10
253.264
 20
-385.0747
 30
0.0
  0
VERTEX
  5
1DE
  8
TEAM-DET1
 10
254.877
 20
-385.0434
 30
0.0
  0
VERTEX
  5
1DF
  8
TEAM-DET1
 10
256.471
 20
-385.0005
 30
0.0
  0
VERTEX
  5
1E0
  8
TEAM-DET1
 10
258.039
 20
-384.9438
 30
0.0
  0
VERTEX
  5
1E1
  8
TEAM-DET1
 10
259.577
 20
-384.8755
 30
0.0
  0
VERTEX
  5
1E2
  8
TEAM-DET1
 10
261.076
 20
-384.7973
 30
0.0
  0
VERTEX
  5
1E3
  8
TEAM-DET1
 10
262.531
 20
-384.7055
 30
0.0
  0
VERTEX
  5
1E4
  8
TEAM-DET1
 10
263.937
 20
-384.604
 30
0.0
  0
VERTEX
  5
1E5
  8
TEAM-DET1
 10
265.287
 20
-384.4907
 30
0.0
  0
VERTEX
  5
1E6
  8
TEAM-DET1
 10
266.578
 20
-384.3676
 30
0.0
  0
VERTEX
  5
1E7
  8
TEAM-DET1
 10
267.803
 20
-384.2368
 30
0.0
  0
VERTEX
  5
1E8
  8
TEAM-DET1
 10
268.958
 20
-384.0942
 30
0.0
  0
VERTEX
  5
1E9
  8
TEAM-DET1
 10
270.038
 20
-383.9438
 30
0.0
  0
VERTEX
  5
1EA
  8
TEAM-DET1
 10
271.039
 20
-383.7856
 30
0.0
  0
VERTEX
  5
1EB
  8
TEAM-DET1
 10
271.957
 20
-383.6196
 30
0.0
  0
VERTEX
  5
1EC
  8
TEAM-DET1
 10
272.789
 20
-383.4477
 30
0.0
  0
VERTEX
  5
1ED
  8
TEAM-DET1
 10
273.531
 20
-383.268
 30
0.0
  0
VERTEX
  5
1EE
  8
TEAM-DET1
 10
274.179
 20
-383.0844
 30
0.0
  0
SEQEND
  5
1EF
  8
TEAM-DET1
  0
CIRCLE
  5
79
  8
TEAM-DET1
 10
250.005
 20
0.0
 30
0.0
 40
26.0
  0
ENDSEC
  0
EOF
