  0
SECTION
  2
HEADER
  9
$ACADVER
  1
AC1009
  9
$INSBASE
 10
0.0
 20
0.0
 30
0.0
  9
$EXTMIN
 10
-879.824691
 20
-379.798236
 30
0.0
  9
$EXTMAX
 10
927.850675
 20
462.052512
 30
0.000005
  9
$LIMMIN
 10
-879.824691
 20
-379.798236
  9
$LIMMAX
 10
927.850675
 20
462.052512
  9
$ORTHOMODE
 70
     1
  9
$REGENMODE
 70
     1
  9
$FILLMODE
 70
     1
  9
$QTEXTMODE
 70
     0
  9
$MIRRTEXT
 70
     0
  9
$DRAGMODE
 70
     2
  9
$LTSCALE
 40
50.0
  9
$OSMODE
 70
     0
  9
$ATTMODE
 70
     1
  9
$TEXTSIZE
 40
200.0
  9
$TRACEWID
 40
1.0
  9
$TEXTSTYLE
  7
STANDARD
  9
$CLAYER
  8
TEAM-MAS
  9
$CELTYPE
  6
BYLAYER
  9
$CECOLOR
 62
   256
  9
$DIMSCALE
 40
0.0
  9
$DIMASZ
 40
20.0
  9
$DIMEXO
 40
10.0
  9
$DIMDLI
 40
1.0
  9
$DIMRND
 40
0.0
  9
$DIMDLE
 40
0.0
  9
$DIMEXE
 40
1.0
  9
$DIMTP
 40
0.0
  9
$DIMTM
 40
0.0
  9
$DIMTXT
 40
35.0
  9
$DIMCEN
 40
1.0
  9
$DIMTSZ
 40
0.0
  9
$DIMTOL
 70
     0
  9
$DIMLIM
 70
     0
  9
$DIMTIH
 70
     0
  9
$DIMTOH
 70
     0
  9
$DIMSE1
 70
     0
  9
$DIMSE2
 70
     0
  9
$DIMTAD
 70
     0
  9
$DIMZIN
 70
     0
  9
$DIMBLK
  1

  9
$DIMASO
 70
     1
  9
$DIMSHO
 70
     0
  9
$DIMPOST
  1

  9
$DIMAPOST
  1

  9
$DIMALT
 70
     0
  9
$DIMALTD
 70
     2
  9
$DIMALTF
 40
25.4
  9
$DIMLFAC
 40
1.0
  9
$DIMTOFL
 70
     0
  9
$DIMTVP
 40
0.0
  9
$DIMTIX
 70
     0
  9
$DIMSOXD
 70
     0
  9
$DIMSAH
 70
     0
  9
$DIMBLK1
  1

  9
$DIMBLK2
  1

  9
$DIMSTYLE
  2
TEAM
  9
$DIMCLRD
 70
     9
  9
$DIMCLRE
 70
     9
  9
$DIMCLRT
 70
    11
  9
$DIMTFAC
 40
1.0
  9
$DIMGAP
 40
7.0
  9
$LUNITS
 70
     2
  9
$LUPREC
 70
     1
  9
$SKETCHINC
 40
1.0
  9
$FILLETRAD
 40
50.0
  9
$AUNITS
 70
     0
  9
$AUPREC
 70
     0
  9
$MENU
  1
ROPLANS
  9
$ELEVATION
 40
0.0
  9
$PELEVATION
 40
0.0
  9
$THICKNESS
 40
0.0
  9
$LIMCHECK
 70
     0
  9
$BLIPMODE
 70
     1
  9
$CHAMFERA
 40
0.0
  9
$CHAMFERB
 40
0.0
  9
$SKPOLY
 70
     0
  9
$TDCREATE
 40
2450392.957851
  9
$TDUPDATE
 40
2456124.650986
  9
$TDINDWG
 40
2.269834
  9
$TDUSRTIMER
 40
2.269834
  9
$USRTIMER
 70
     1
  9
$ANGBASE
 50
0.0
  9
$ANGDIR
 70
     0
  9
$PDMODE
 70
     0
  9
$PDSIZE
 40
0.0
  9
$PLINEWID
 40
0.0
  9
$COORDS
 70
     2
  9
$SPLFRAME
 70
     0
  9
$SPLINETYPE
 70
     6
  9
$SPLINESEGS
 70
     8
  9
$ATTDIA
 70
     0
  9
$ATTREQ
 70
     0
  9
$HANDLING
 70
     1
  9
$HANDSEED
  5
11D
  9
$SURFTAB1
 70
    24
  9
$SURFTAB2
 70
    24
  9
$SURFTYPE
 70
     6
  9
$SURFU
 70
     6
  9
$SURFV
 70
     6
  9
$UCSNAME
  2

  9
$UCSORG
 10
0.0
 20
0.0
 30
0.0
  9
$UCSXDIR
 10
1.0
 20
0.0
 30
0.0
  9
$UCSYDIR
 10
0.0
 20
1.0
 30
0.0
  9
$PUCSNAME
  2

  9
$PUCSORG
 10
0.0
 20
0.0
 30
0.0
  9
$PUCSXDIR
 10
1.0
 20
0.0
 30
0.0
  9
$PUCSYDIR
 10
0.0
 20
1.0
 30
0.0
  9
$USERI1
 70
     0
  9
$USERI2
 70
     0
  9
$USERI3
 70
     0
  9
$USERI4
 70
     0
  9
$USERI5
 70
     0
  9
$USERR1
 40
0.0
  9
$USERR2
 40
0.0
  9
$USERR3
 40
0.0
  9
$USERR4
 40
0.0
  9
$USERR5
 40
0.0
  9
$WORLDVIEW
 70
     1
  9
$SHADEDGE
 70
     0
  9
$SHADEDIF
 70
    70
  9
$TILEMODE
 70
     1
  9
$MAXACTVP
 70
    16
  9
$PLIMCHECK
 70
     0
  9
$PEXTMIN
 10
-0.805942
 20
0.005011
 30
0.0
  9
$PEXTMAX
 10
20.250094
 20
11.356329
 30
0.0
  9
$PLIMMIN
 10
0.0
 20
0.0
  9
$PLIMMAX
 10
12.0
 20
9.0
  9
$UNITMODE
 70
     0
  9
$VISRETAIN
 70
     0
  9
$PLINEGEN
 70
     0
  9
$PSLTSCALE
 70
     0
  0
ENDSEC
  0
SECTION
  2
TABLES
  0
TABLE
  2
VPORT
 70
     2
  0
VPORT
  2
*ACTIVE
 70
     0
 10
0.0
 20
0.0
 11
1.0
 21
1.0
 12
24.012992
 22
41.127138
 13
0.0
 23
0.0
 14
1.0
 24
1.0
 15
50.0
 25
50.0
 16
0.0
 26
0.0
 36
1.0
 17
0.0
 27
0.0
 37
0.0
 40
948.667206
 41
1.911765
 42
50.0
 43
0.0
 44
0.0
 50
0.0
 51
0.0
 71
     0
 72
   100
 73
     1
 74
     1
 75
     0
 76
     0
 77
     0
 78
     0
  0
ENDTAB
  0
TABLE
  2
LTYPE
 70
     2
  0
LTYPE
  2
CONTINUOUS
 70
     0
  3
Solid Line
 72
    65
 73
     0
 40
0.0
  0
LTYPE
  2
31
 70
     0
  3

 72
    65
 73
     4
 40
2.1
 49
1.5
 49
-0.3
 49
0.0
 49
-0.3
  0
ENDTAB
  0
TABLE
  2
LAYER
 70
     8
  0
LAYER
  2
0
 70
     0
 62
     7
  6
CONTINUOUS
  0
LAYER
  2
DEFPOINTS
 70
     0
 62
     7
  6
CONTINUOUS
  0
LAYER
  2
TEAM-BODY
 70
     0
 62
     2
  6
CONTINUOUS
  0
LAYER
  2
TEAM-AXE
 70
     0
 62
    10
  6
31
  0
LAYER
  2
TEAM-MAS
 70
     0
 62
     9
  6
CONTINUOUS
  0
LAYER
  2
TEAM-TXT
 70
     0
 62
    11
  6
CONTINUOUS
  0
LAYER
  2
TEAM-DET1
 70
     0
 62
     4
  6
CONTINUOUS
  0
LAYER
  2
TEAM-INSP
 70
     0
 62
     5
  6
CONTINUOUS
  0
ENDTAB
  0
TABLE
  2
STYLE
 70
     2
  0
STYLE
  2
STANDARD
 70
     0
 40
0.0
 41
1.0
 50
0.0
 71
     0
 42
200.0
  3
txt
  4

  0
STYLE
  2
TEAM
 70
     0
 40
0.0
 41
0.8
 50
15.0
 71
     0
 42
7.0
  3
ROMANS.shx
  4

  0
ENDTAB
  0
TABLE
  2
VIEW
 70
     0
  0
ENDTAB
  0
TABLE
  2
UCS
 70
     0
  0
ENDTAB
  0
TABLE
  2
APPID
 70
     1
  0
APPID
  2
ACAD
 70
     0
  0
ENDTAB
  0
TABLE
  2
DIMSTYLE
 70
     1
  0
DIMSTYLE
  2
TEAM
 70
     0
  3

  4

  5

  6

  7

 40
0.0
 41
20.0
 42
10.0
 43
1.0
 44
1.0
 45
0.0
 46
0.0
 47
0.0
 48
0.0
140
35.0
141
1.0
142
0.0
143
25.4
144
1.0
145
0.0
146
1.0
147
7.0
 71
     0
 72
     0
 73
     0
 74
     0
 75
     0
 76
     0
 77
     0
 78
     0
170
     0
171
     2
172
     0
173
     0
174
     0
175
     0
176
     9
177
     9
178
    11
  0
ENDTAB
  0
ENDSEC
  0
SECTION
  2
BLOCKS
  0
BLOCK
  8
0
  2
$MODEL_SPACE
 70
     0
 10
0.0
 20
0.0
 30
0.0
  3
$MODEL_SPACE
  1

  0
ENDBLK
  5
DE
  8
0
  0
BLOCK
 67
     1
  8
0
  2
$PAPER_SPACE
 70
     0
 10
0.0
 20
0.0
 30
0.0
  3
$PAPER_SPACE
  1

  0
ENDBLK
  5
DC
 67
     1
  8
0
  0
BLOCK
  8
0
  2
*D0
 70
     1
 10
0.0
 20
0.0
 30
0.0
  3
*D0
  1

  0
LINE
  5
87
  8
0
  6
BYBLOCK
 62
     9
 10
4589.999939
 20
8009.999756
 30
0.0
 11
4589.999939
 21
8410.822121
 31
0.0
  0
LINE
  5
88
  8
0
  6
BYBLOCK
 62
     9
 10
4875.000183
 20
8361.999756
 30
0.0
 11
4875.000183
 21
8410.822121
 31
0.0
  0
LINE
  5
89
  8
0
  6
BYBLOCK
 62
     9
 10
4609.999939
 20
8409.822121
 30
0.0
 11
4678.833394
 21
8409.822121
 31
0.0
  0
LINE
  5
8A
  8
0
  6
BYBLOCK
 62
     9
 10
4855.000183
 20
8409.822121
 30
0.0
 11
4786.166728
 21
8409.822121
 31
0.0
  0
SOLID
  5
8B
  8
0
  6
BYBLOCK
 62
     9
 10
4609.999939
 20
8413.155455
 30
0.0
 11
4609.999939
 21
8406.488788
 31
0.0
 12
4589.999939
 22
8409.822121
 32
0.0
 13
4589.999939
 23
8409.822121
 33
0.0
  0
SOLID
  5
8C
  8
0
  6
BYBLOCK
 62
     9
 10
4855.000183
 20
8413.155455
 30
0.0
 11
4855.000183
 21
8406.488788
 31
0.0
 12
4875.000183
 22
8409.822121
 32
0.0
 13
4875.000183
 23
8409.822121
 33
0.0
  0
TEXT
  5
8D
  8
0
  6
BYBLOCK
 62
    11
 10
4685.833394
 20
8392.322121
 30
0.0
 40
35.0
  1
285
  0
POINT
  5
8E
  8
DEFPOINTS
  6
BYBLOCK
 62
     0
 10
4589.999939
 20
7999.999756
 30
0.0
  0
POINT
  5
8F
  8
DEFPOINTS
  6
BYBLOCK
 62
     0
 10
4875.000183
 20
8351.999756
 30
0.0
  0
POINT
  5
90
  8
DEFPOINTS
  6
BYBLOCK
 62
     0
 10
4875.000183
 20
8409.822121
 30
0.0
  0
ENDBLK
  5
92
  8
0
  0
BLOCK
  8
0
  2
*D1
 70
     1
 10
0.0
 20
0.0
 30
0.0
  3
*D1
  1

  0
LINE
  5
22
  8
0
  6
BYBLOCK
 62
     9
 10
4875.000183
 20
8361.999756
 30
0.0
 11
4875.000183
 21
8445.515104
 31
0.0
  0
LINE
  5
23
  8
0
  6
BYBLOCK
 62
     9
 10
3125.000183
 20
8362.000244
 30
0.0
 11
3125.000183
 21
8445.515104
 31
0.0
  0
LINE
  5
24
  8
0
  6
BYBLOCK
 62
     9
 10
4855.000183
 20
8444.515104
 30
0.0
 11
4062.41685
 21
8444.515104
 31
0.0
  0
LINE
  5
25
  8
0
  6
BYBLOCK
 62
     9
 10
3145.000183
 20
8444.515104
 30
0.0
 11
3937.583516
 21
8444.515104
 31
0.0
  0
SOLID
  5
26
  8
0
  6
BYBLOCK
 62
     9
 10
4855.000183
 20
8447.848438
 30
0.0
 11
4855.000183
 21
8441.181771
 31
0.0
 12
4875.000183
 22
8444.515104
 32
0.0
 13
4875.000183
 23
8444.515104
 33
0.0
  0
SOLID
  5
27
  8
0
  6
BYBLOCK
 62
     9
 10
3145.000183
 20
8447.848438
 30
0.0
 11
3145.000183
 21
8441.181771
 31
0.0
 12
3125.000183
 22
8444.515104
 32
0.0
 13
3125.000183
 23
8444.515104
 33
0.0
  0
TEXT
  5
28
  8
0
  6
BYBLOCK
 62
    11
 10
3944.583516
 20
8427.015104
 30
0.0
 40
35.0
  1
1750
  0
POINT
  5
29
  8
DEFPOINTS
  6
BYBLOCK
 62
     0
 10
4875.000183
 20
8351.999756
 30
0.0
  0
POINT
  5
2B
  8
DEFPOINTS
  6
BYBLOCK
 62
     0
 10
3125.000183
 20
8352.000244
 30
0.0
  0
POINT
  5
2C
  8
DEFPOINTS
  6
BYBLOCK
 62
     0
 10
3125.000183
 20
8444.515104
 30
0.0
  0
ENDBLK
  5
2E
  8
0
  0
BLOCK
  8
0
  2
*D2
 70
     1
 10
0.0
 20
0.0
 30
0.0
  3
*D2
  1

  0
LINE
  5
95
  8
0
  6
BYBLOCK
 62
     9
 10
4861.999939
 20
7624.999756
 30
0.0
 11
4911.265548
 21
7624.999756
 31
0.0
  0
LINE
  5
96
  8
0
  6
BYBLOCK
 62
     9
 10
4862.000061
 20
8374.999756
 30
0.0
 11
4911.265548
 21
8374.999756
 31
0.0
  0
LINE
  5
97
  8
0
  6
BYBLOCK
 62
     9
 10
4910.265548
 20
7644.999756
 30
0.0
 11
4910.265548
 21
7949.249756
 31
0.0
  0
LINE
  5
98
  8
0
  6
BYBLOCK
 62
     9
 10
4910.265548
 20
8354.999756
 30
0.0
 11
4910.265548
 21
8050.749756
 31
0.0
  0
SOLID
  5
99
  8
0
  6
BYBLOCK
 62
     9
 10
4906.932214
 20
7644.999756
 30
0.0
 11
4913.598881
 21
7644.999756
 31
0.0
 12
4910.265548
 22
7624.999756
 32
0.0
 13
4910.265548
 23
7624.999756
 33
0.0
  0
SOLID
  5
9A
  8
0
  6
BYBLOCK
 62
     9
 10
4906.932214
 20
8354.999756
 30
0.0
 11
4913.598881
 21
8354.999756
 31
0.0
 12
4910.265548
 22
8374.999756
 32
0.0
 13
4910.265548
 23
8374.999756
 33
0.0
  0
TEXT
  5
9B
  8
0
  6
BYBLOCK
 62
    11
 10
4927.765548
 20
7956.249756
 30
0.0
 40
35.0
  1
750
 50
90.0
  0
POINT
  5
9C
  8
DEFPOINTS
  6
BYBLOCK
 62
     0
 10
4851.999939
 20
7624.999756
 30
0.0
  0
POINT
  5
9D
  8
DEFPOINTS
  6
BYBLOCK
 62
     0
 10
4852.000061
 20
8374.999756
 30
0.0
  0
POINT
  5
9E
  8
DEFPOINTS
  6
BYBLOCK
 62
     0
 10
4910.265548
 20
8374.999756
 30
0.0
  0
ENDBLK
  5
A0
  8
0
  0
ENDSEC
  0
SECTION
  2
ENTITIES
  0
DIMENSION
  5
20
  8
TEAM-MAS
  2
*D1
 10
-874.999817
 20
444.515104
 30
0.0
 11
0.000183
 21
444.515104
 31
0.0
 12
-4000.0
 22
-8000.0
 32
0.0
 13
875.000183
 23
351.999756
 33
0.0
 14
-874.999817
 24
352.000244
 34
0.0
1001
ACAD
1000
DSTYLE
1002
{
1070
    40
1040
1.0
1002
}
  0
LINE
  5
2F
  8
TEAM-BODY
 10
-149.41803
 20
-315.000244
 30
0.0
 11
619.050476
 21
-273.205322
 31
0.0
  0
LINE
  5
31
  8
TEAM-BODY
 10
-149.41803
 20
314.999756
 30
0.0
 11
619.05072
 21
273.204346
 31
0.0
  0
LINE
  5
32
  8
TEAM-BODY
 10
852.000061
 20
374.999756
 30
0.0
 11
-851.999817
 21
375.000244
 31
0.0
  0
LINE
  5
33
  8
TEAM-BODY
 10
-852.000061
 20
-374.999756
 30
0.0
 11
851.999939
 21
-375.000244
 31
0.0
  0
LINE
  5
34
  8
TEAM-AXE
 10
874.999939
 20
-0.000244
 30
0.0
 11
-875.000061
 21
0.000244
 31
0.0
  0
LINE
  5
37
  8
TEAM-BODY
 10
-152.060852
 20
-150.000244
 30
0.0
 11
611.445007
 21
-108.474854
 31
0.0
  0
LINE
  5
38
  8
TEAM-BODY
 10
-152.060608
 20
149.999756
 30
0.0
 11
611.445129
 21
108.474365
 31
0.0
  0
TEXT
  5
39
  8
TEAM-TXT
 10
-590.955686
 20
242.139572
 30
0.0
 40
30.0
  1
team 111383
 41
0.7
 51
15.0
  7
TEAM
  0
ARC
  5
3C
  8
TEAM-BODY
 10
-598.112366
 20
-114.999756
 30
0.0
 40
200.0
 50
196.708344
 51
270.0
  0
ARC
  5
3D
  8
TEAM-BODY
 10
-598.112366
 20
115.000244
 30
0.0
 40
200.0
 50
90.0
 51
163.291656
  0
ARC
  5
3E
  8
TEAM-BODY
 10
-215.000061
 20
-0.000244
 30
0.0
 40
600.0
 50
163.291611
 51
196.708298
  0
ARC
  5
3F
  8
TEAM-BODY
 10
-852.000061
 20
-351.999756
 30
0.0
 40
23.0
 50
180.0
 51
270.0
  0
ARC
  5
40
  8
TEAM-BODY
 10
-851.999817
 20
352.000244
 30
0.0
 40
23.0
 50
90.0
 51
180.0
  0
LINE
  5
41
  8
TEAM-BODY
 10
-149.41803
 20
-315.000244
 30
0.0
 11
-598.112366
 21
-314.999756
 31
0.0
  0
LINE
  5
42
  8
TEAM-BODY
 10
-598.112366
 20
315.000244
 30
0.0
 11
-149.41803
 21
314.999756
 31
0.0
  0
LINE
  5
43
  8
TEAM-BODY
 10
-874.999817
 20
352.000244
 30
0.0
 11
-875.000061
 21
-351.999756
 31
0.0
  0
LINE
  5
44
  8
TEAM-BODY
 10
-152.060852
 20
-150.000244
 30
0.0
 11
-256.452454
 21
-149.999756
 31
0.0
  0
LINE
  5
45
  8
TEAM-BODY
 10
-152.060608
 20
149.999756
 30
0.0
 11
-256.452454
 21
150.000244
 31
0.0
  0
ARC
  5
46
  8
TEAM-BODY
 10
-256.452454
 20
-69.999756
 30
0.0
 40
80.0
 50
187.736588
 51
270.0
  0
ARC
  5
47
  8
TEAM-BODY
 10
-256.452454
 20
70.000244
 30
0.0
 40
80.0
 50
90.0
 51
172.263397
  0
ARC
  5
48
  8
TEAM-BODY
 10
258.814392
 20
0.000244
 30
0.0
 40
600.0
 50
172.26358
 51
187.736404
  0
POLYLINE
  5
49
  8
TEAM-DET1
 66
     1
 10
0.0
 20
0.0
 30
0.0
  0
VERTEX
  5
E4
  8
TEAM-DET1
 10
774.996033
 20
25.999512
 30
0.0
  0
VERTEX
  5
E5
  8
TEAM-DET1
 10
773.381775
 20
25.658447
 30
0.0
  0
VERTEX
  5
E6
  8
TEAM-DET1
 10
771.875427
 20
24.701172
 30
0.0
  0
VERTEX
  5
E7
  8
TEAM-DET1
 10
770.552673
 20
23.291992
 30
0.0
  0
VERTEX
  5
E8
  8
TEAM-DET1
 10
769.443787
 20
21.623779
 30
0.0
  0
VERTEX
  5
E9
  8
TEAM-DET1
 10
768.542664
 20
19.86084
 30
0.0
  0
VERTEX
  5
EA
  8
TEAM-DET1
 10
767.823181
 20
18.115967
 30
0.0
  0
VERTEX
  5
EB
  8
TEAM-DET1
 10
767.253357
 20
16.453613
 30
0.0
  0
VERTEX
  5
EC
  8
TEAM-DET1
 10
766.802185
 20
14.904053
 30
0.0
  0
VERTEX
  5
ED
  8
TEAM-DET1
 10
766.444031
 20
13.475342
 30
0.0
  0
VERTEX
  5
EE
  8
TEAM-DET1
 10
766.158142
 20
12.164062
 30
0.0
  0
VERTEX
  5
EF
  8
TEAM-DET1
 10
765.928162
 20
10.960693
 30
0.0
  0
VERTEX
  5
F0
  8
TEAM-DET1
 10
765.364929
 20
6.996826
 30
0.0
  0
VERTEX
  5
F1
  8
TEAM-DET1
 10
765.044373
 20
2.554687
 30
0.0
  0
VERTEX
  5
F2
  8
TEAM-DET1
 10
765.110046
 20
-3.914551
 30
0.0
  0
VERTEX
  5
F3
  8
TEAM-DET1
 10
765.928162
 20
-10.96167
 30
0.0
  0
VERTEX
  5
F4
  8
TEAM-DET1
 10
766.158142
 20
-12.165039
 30
0.0
  0
VERTEX
  5
F5
  8
TEAM-DET1
 10
766.444031
 20
-13.476318
 30
0.0
  0
VERTEX
  5
F6
  8
TEAM-DET1
 10
766.802185
 20
-14.905029
 30
0.0
  0
VERTEX
  5
F7
  8
TEAM-DET1
 10
767.253357
 20
-16.45459
 30
0.0
  0
VERTEX
  5
F8
  8
TEAM-DET1
 10
767.823181
 20
-18.116943
 30
0.0
  0
VERTEX
  5
F9
  8
TEAM-DET1
 10
768.542664
 20
-19.861816
 30
0.0
  0
VERTEX
  5
FA
  8
TEAM-DET1
 10
769.443787
 20
-21.624756
 30
0.0
  0
VERTEX
  5
FB
  8
TEAM-DET1
 10
770.552673
 20
-23.292969
 30
0.0
  0
VERTEX
  5
FC
  8
TEAM-DET1
 10
771.875427
 20
-24.702149
 30
0.0
  0
VERTEX
  5
FD
  8
TEAM-DET1
 10
773.381775
 20
-25.659424
 30
0.0
  0
VERTEX
  5
FE
  8
TEAM-DET1
 10
774.996033
 20
-26.000488
 30
0.0
  0
VERTEX
  5
FF
  8
TEAM-DET1
 10
776.61029
 20
-25.659424
 30
0.0
  0
VERTEX
  5
100
  8
TEAM-DET1
 10
778.116638
 20
-24.702149
 30
0.0
  0
VERTEX
  5
101
  8
TEAM-DET1
 10
779.439392
 20
-23.292969
 30
0.0
  0
VERTEX
  5
102
  8
TEAM-DET1
 10
780.548279
 20
-21.624756
 30
0.0
  0
VERTEX
  5
103
  8
TEAM-DET1
 10
781.449402
 20
-19.861816
 30
0.0
  0
VERTEX
  5
104
  8
TEAM-DET1
 10
782.168884
 20
-18.116943
 30
0.0
  0
VERTEX
  5
105
  8
TEAM-DET1
 10
782.738708
 20
-16.45459
 30
0.0
  0
VERTEX
  5
106
  8
TEAM-DET1
 10
783.18988
 20
-14.905029
 30
0.0
  0
VERTEX
  5
107
  8
TEAM-DET1
 10
783.548035
 20
-13.476318
 30
0.0
  0
VERTEX
  5
108
  8
TEAM-DET1
 10
783.833923
 20
-12.165039
 30
0.0
  0
VERTEX
  5
109
  8
TEAM-DET1
 10
784.063904
 20
-10.96167
 30
0.0
  0
VERTEX
  5
10A
  8
TEAM-DET1
 10
784.249939
 20
-9.854981
 30
0.0
  0
VERTEX
  5
10B
  8
TEAM-DET1
 10
784.710876
 20
-6.165772
 30
0.0
  0
VERTEX
  5
10C
  8
TEAM-DET1
 10
784.969177
 20
-1.903076
 30
0.0
  0
VERTEX
  5
10D
  8
TEAM-DET1
 10
784.836121
 20
4.629883
 30
0.0
  0
VERTEX
  5
10E
  8
TEAM-DET1
 10
783.833923
 20
12.164062
 30
0.0
  0
VERTEX
  5
10F
  8
TEAM-DET1
 10
783.548035
 20
13.475342
 30
0.0
  0
VERTEX
  5
110
  8
TEAM-DET1
 10
783.18988
 20
14.904053
 30
0.0
  0
VERTEX
  5
111
  8
TEAM-DET1
 10
782.738708
 20
16.453613
 30
0.0
  0
VERTEX
  5
112
  8
TEAM-DET1
 10
782.168884
 20
18.115967
 30
0.0
  0
VERTEX
  5
113
  8
TEAM-DET1
 10
781.449402
 20
19.86084
 30
0.0
  0
SEQEND
  5
114
  8
TEAM-DET1
  0
POLYLINE
  5
7C
  8
TEAM-DET1
 66
     1
 10
0.0
 20
0.0
 30
0.0
  0
VERTEX
  5
115
  8
TEAM-DET1
 10
781.449402
 20
19.86084
 30
0.0
  0
VERTEX
  5
116
  8
TEAM-DET1
 10
780.548279
 20
21.623779
 30
0.0
  0
VERTEX
  5
117
  8
TEAM-DET1
 10
779.439148
 20
23.291992
 30
0.0
  0
VERTEX
  5
118
  8
TEAM-DET1
 10
778.116638
 20
24.701172
 30
0.0
  0
VERTEX
  5
119
  8
TEAM-DET1
 10
776.61029
 20
25.658447
 30
0.0
  0
VERTEX
  5
11A
  8
TEAM-DET1
 10
774.996033
 20
25.999512
 30
0.0
  0
SEQEND
  5
11B
  8
TEAM-DET1
  0
CIRCLE
  5
84
  8
TEAM-BODY
 10
589.999939
 20
-0.000244
 30
0.0
 40
26.0
  0
DIMENSION
  5
85
  8
TEAM-MAS
  2
*D0
 10
875.000183
 20
409.822121
 30
0.0
 11
732.500061
 21
409.822121
 31
0.0
 12
-4000.0
 22
-8000.0
 32
0.0
 13
589.999939
 23
-0.000244
 33
0.0
 14
875.000183
 24
351.999756
 34
0.0
1001
ACAD
1000
DSTYLE
1002
{
1070
    40
1040
1.0
1002
}
  0
DIMENSION
  5
93
  8
TEAM-MAS
  2
*D2
 10
910.265548
 20
374.999756
 30
0.0
 11
910.265548
 21
-0.000244
 31
0.0
 12
-4000.0
 22
-8000.0
 32
0.0
 13
851.999939
 23
-375.000244
 33
0.0
 14
852.000061
 24
374.999756
 34
0.0
 50
90.0
1001
ACAD
1000
DSTYLE
1002
{
1070
    40
1040
1.0
1002
}
  0
CIRCLE
  5
A1
  8
TEAM-INSP
 10
0.0
 20
0.0
 30
0.0
 40
10.0
  0
ARC
  5
A3
  8
TEAM-BODY
 10
214.999939
 20
-0.000244
 30
0.0
 40
600.0
 50
349.411743
 51
10.588264
  0
ARC
  5
A4
  8
TEAM-BODY
 10
608.189148
 20
-73.500244
 30
0.0
 40
199.999939
 50
273.113068
 51
349.411743
  0
ARC
  5
A5
  8
TEAM-BODY
 10
608.189148
 20
73.499756
 30
0.0
 40
199.999939
 50
10.588269
 51
86.886856
  0
ARC
  5
A6
  8
TEAM-BODY
 10
852.000061
 20
351.999756
 30
0.0
 40
23.0
 50
0.0
 51
90.0
  0
ARC
  5
A7
  8
TEAM-BODY
 10
851.999939
 20
-352.000244
 30
0.0
 40
23.0
 50
270.0
 51
0.0
  0
LINE
  5
A8
  8
TEAM-BODY
 10
874.999939
 20
-352.000244
 30
0.0
 11
875.000183
 21
351.999756
 31
0.0
  0
LINE
  5
A9
  8
TEAM-AXE
 10
0.000061
 20
374.999756
 30
0.0
 11
-0.000061
 21
-374.999756
 31
0.0
  0
ARC
  5
AA
  8
TEAM-BODY
 10
608.729675
 20
-58.549072
 30
0.0
 40
50.0
 50
273.113068
 51
353.889557
  0
ARC
  5
AB
  8
TEAM-BODY
 10
608.729675
 20
58.548584
 30
0.0
 40
50.0
 50
6.110442
 51
86.886787
  0
ARC
  5
AC
  8
TEAM-BODY
 10
61.854919
 20
-0.000244
 30
0.0
 40
600.0
 50
353.88916
 51
6.110819
  0
ENDSEC
  0
EOF
