  0
SECTION
  2
HEADER
  9
$ACADVER
  1
AC1009
  9
$INSBASE
 10
0.0
 20
0.0
 30
0.0
  9
$EXTMIN
 10
-376.295477
 20
-10.03593
 30
0.0
  9
$EXTMAX
 10
469.159377
 20
630.285375
 30
0.000005
  9
$LIMMIN
 10
-376.295477
 20
-10.03593
  9
$LIMMAX
 10
469.159377
 20
630.285375
  9
$ORTHOMODE
 70
     1
  9
$REGENMODE
 70
     1
  9
$FILLMODE
 70
     1
  9
$QTEXTMODE
 70
     0
  9
$MIRRTEXT
 70
     0
  9
$DRAGMODE
 70
     2
  9
$LTSCALE
 40
50.0
  9
$OSMODE
 70
     0
  9
$ATTMODE
 70
     1
  9
$TEXTSIZE
 40
200.0
  9
$TRACEWID
 40
1.0
  9
$TEXTSTYLE
  7
STANDARD
  9
$CLAYER
  8
TEAM-MAS
  9
$CELTYPE
  6
BYLAYER
  9
$CECOLOR
 62
   256
  9
$DIMSCALE
 40
0.0
  9
$DIMASZ
 40
20.0
  9
$DIMEXO
 40
10.0
  9
$DIMDLI
 40
1.0
  9
$DIMRND
 40
0.0
  9
$DIMDLE
 40
0.0
  9
$DIMEXE
 40
1.0
  9
$DIMTP
 40
0.0
  9
$DIMTM
 40
0.0
  9
$DIMTXT
 40
35.0
  9
$DIMCEN
 40
1.0
  9
$DIMTSZ
 40
0.0
  9
$DIMTOL
 70
     0
  9
$DIMLIM
 70
     0
  9
$DIMTIH
 70
     0
  9
$DIMTOH
 70
     0
  9
$DIMSE1
 70
     0
  9
$DIMSE2
 70
     0
  9
$DIMTAD
 70
     0
  9
$DIMZIN
 70
     0
  9
$DIMBLK
  1

  9
$DIMASO
 70
     1
  9
$DIMSHO
 70
     0
  9
$DIMPOST
  1

  9
$DIMAPOST
  1

  9
$DIMALT
 70
     0
  9
$DIMALTD
 70
     2
  9
$DIMALTF
 40
25.4
  9
$DIMLFAC
 40
1.0
  9
$DIMTOFL
 70
     0
  9
$DIMTVP
 40
0.0
  9
$DIMTIX
 70
     0
  9
$DIMSOXD
 70
     0
  9
$DIMSAH
 70
     0
  9
$DIMBLK1
  1

  9
$DIMBLK2
  1

  9
$DIMSTYLE
  2
TEAM
  9
$DIMCLRD
 70
     9
  9
$DIMCLRE
 70
     9
  9
$DIMCLRT
 70
    11
  9
$DIMTFAC
 40
1.0
  9
$DIMGAP
 40
7.0
  9
$LUNITS
 70
     2
  9
$LUPREC
 70
     1
  9
$SKETCHINC
 40
1.0
  9
$FILLETRAD
 40
50.0
  9
$AUNITS
 70
     0
  9
$AUPREC
 70
     0
  9
$MENU
  1
ROPLANS
  9
$ELEVATION
 40
0.0
  9
$PELEVATION
 40
0.0
  9
$THICKNESS
 40
0.0
  9
$LIMCHECK
 70
     0
  9
$BLIPMODE
 70
     1
  9
$CHAMFERA
 40
0.0
  9
$CHAMFERB
 40
0.0
  9
$SKPOLY
 70
     0
  9
$TDCREATE
 40
2450392.957851
  9
$TDUPDATE
 40
2456124.650986
  9
$TDINDWG
 40
2.269834
  9
$TDUSRTIMER
 40
2.269834
  9
$USRTIMER
 70
     1
  9
$ANGBASE
 50
0.0
  9
$ANGDIR
 70
     0
  9
$PDMODE
 70
     0
  9
$PDSIZE
 40
0.0
  9
$PLINEWID
 40
0.0
  9
$COORDS
 70
     2
  9
$SPLFRAME
 70
     0
  9
$SPLINETYPE
 70
     6
  9
$SPLINESEGS
 70
     8
  9
$ATTDIA
 70
     0
  9
$ATTREQ
 70
     0
  9
$HANDLING
 70
     1
  9
$HANDSEED
  5
A6
  9
$SURFTAB1
 70
    24
  9
$SURFTAB2
 70
    24
  9
$SURFTYPE
 70
     6
  9
$SURFU
 70
     6
  9
$SURFV
 70
     6
  9
$UCSNAME
  2

  9
$UCSORG
 10
0.0
 20
0.0
 30
0.0
  9
$UCSXDIR
 10
1.0
 20
0.0
 30
0.0
  9
$UCSYDIR
 10
0.0
 20
1.0
 30
0.0
  9
$PUCSNAME
  2

  9
$PUCSORG
 10
0.0
 20
0.0
 30
0.0
  9
$PUCSXDIR
 10
1.0
 20
0.0
 30
0.0
  9
$PUCSYDIR
 10
0.0
 20
1.0
 30
0.0
  9
$USERI1
 70
     0
  9
$USERI2
 70
     0
  9
$USERI3
 70
     0
  9
$USERI4
 70
     0
  9
$USERI5
 70
     0
  9
$USERR1
 40
0.0
  9
$USERR2
 40
0.0
  9
$USERR3
 40
0.0
  9
$USERR4
 40
0.0
  9
$USERR5
 40
0.0
  9
$WORLDVIEW
 70
     1
  9
$SHADEDGE
 70
     0
  9
$SHADEDIF
 70
    70
  9
$TILEMODE
 70
     1
  9
$MAXACTVP
 70
    16
  9
$PLIMCHECK
 70
     0
  9
$PEXTMIN
 10
-0.805942
 20
0.005011
 30
0.0
  9
$PEXTMAX
 10
20.250094
 20
11.356329
 30
0.0
  9
$PLIMMIN
 10
0.0
 20
0.0
  9
$PLIMMAX
 10
12.0
 20
9.0
  9
$UNITMODE
 70
     0
  9
$VISRETAIN
 70
     0
  9
$PLINEGEN
 70
     0
  9
$PSLTSCALE
 70
     0
  0
ENDSEC
  0
SECTION
  2
TABLES
  0
TABLE
  2
VPORT
 70
     2
  0
VPORT
  2
*ACTIVE
 70
     0
 10
0.0
 20
0.0
 11
1.0
 21
1.0
 12
46.43195
 22
310.124722
 13
0.0
 23
0.0
 14
1.0
 24
1.0
 15
50.0
 25
50.0
 16
0.0
 26
0.0
 36
1.0
 17
0.0
 27
0.0
 37
0.0
 40
644.352709
 41
1.911765
 42
50.0
 43
0.0
 44
0.0
 50
0.0
 51
0.0
 71
     0
 72
   100
 73
     1
 74
     1
 75
     0
 76
     0
 77
     0
 78
     0
  0
ENDTAB
  0
TABLE
  2
LTYPE
 70
     2
  0
LTYPE
  2
CONTINUOUS
 70
     0
  3
Solid Line
 72
    65
 73
     0
 40
0.0
  0
LTYPE
  2
31
 70
     0
  3

 72
    65
 73
     4
 40
2.1
 49
1.5
 49
-0.3
 49
0.0
 49
-0.3
  0
ENDTAB
  0
TABLE
  2
LAYER
 70
     8
  0
LAYER
  2
0
 70
     0
 62
     7
  6
CONTINUOUS
  0
LAYER
  2
DEFPOINTS
 70
     0
 62
     7
  6
CONTINUOUS
  0
LAYER
  2
TEAM-BODY
 70
     0
 62
     2
  6
CONTINUOUS
  0
LAYER
  2
TEAM-AXE
 70
     0
 62
    10
  6
31
  0
LAYER
  2
TEAM-MAS
 70
     0
 62
     9
  6
CONTINUOUS
  0
LAYER
  2
TEAM-TXT
 70
     0
 62
    11
  6
CONTINUOUS
  0
LAYER
  2
TEAM-DET1
 70
     0
 62
     4
  6
CONTINUOUS
  0
LAYER
  2
TEAM-INSP
 70
     0
 62
     5
  6
CONTINUOUS
  0
ENDTAB
  0
TABLE
  2
STYLE
 70
     2
  0
STYLE
  2
STANDARD
 70
     0
 40
0.0
 41
1.0
 50
0.0
 71
     0
 42
200.0
  3
txt
  4

  0
STYLE
  2
TEAM
 70
     0
 40
0.0
 41
0.8
 50
15.0
 71
     0
 42
7.0
  3
ROMANS.shx
  4

  0
ENDTAB
  0
TABLE
  2
VIEW
 70
     0
  0
ENDTAB
  0
TABLE
  2
UCS
 70
     0
  0
ENDTAB
  0
TABLE
  2
APPID
 70
     1
  0
APPID
  2
ACAD
 70
     0
  0
ENDTAB
  0
TABLE
  2
DIMSTYLE
 70
     1
  0
DIMSTYLE
  2
TEAM
 70
     0
  3

  4

  5

  6

  7

 40
0.0
 41
20.0
 42
10.0
 43
1.0
 44
1.0
 45
0.0
 46
0.0
 47
0.0
 48
0.0
140
35.0
141
1.0
142
0.0
143
25.4
144
1.0
145
0.0
146
1.0
147
7.0
 71
     0
 72
     0
 73
     0
 74
     0
 75
     0
 76
     0
 77
     0
 78
     0
170
     0
171
     2
172
     0
173
     0
174
     0
175
     0
176
     9
177
     9
178
    11
  0
ENDTAB
  0
ENDSEC
  0
SECTION
  2
BLOCKS
  0
BLOCK
  8
0
  2
$MODEL_SPACE
 70
     0
 10
0.0
 20
0.0
 30
0.0
  3
$MODEL_SPACE
  1

  0
ENDBLK
  5
9F
  8
0
  0
BLOCK
 67
     1
  8
0
  2
$PAPER_SPACE
 70
     0
 10
0.0
 20
0.0
 30
0.0
  3
$PAPER_SPACE
  1

  0
ENDBLK
  5
9D
 67
     1
  8
0
  0
BLOCK
  8
0
  2
*D0
 70
     1
 10
0.0
 20
0.0
 30
0.0
  3
*D0
  1

  0
LINE
  5
43
  8
0
  6
BYBLOCK
 62
     9
 10
8378.999878
 20
8555.0
 30
0.0
 11
8407.244251
 21
8555.0
 31
0.0
  0
LINE
  5
44
  8
0
  6
BYBLOCK
 62
     9
 10
8036.620728
 20
8124.99873
 30
0.0
 11
8407.244251
 21
8124.99873
 31
0.0
  0
LINE
  5
45
  8
0
  6
BYBLOCK
 62
     9
 10
8406.244251
 20
8535.0
 30
0.0
 11
8406.244251
 21
8390.749365
 31
0.0
  0
LINE
  5
46
  8
0
  6
BYBLOCK
 62
     9
 10
8406.244251
 20
8144.99873
 30
0.0
 11
8406.244251
 21
8289.249365
 31
0.0
  0
SOLID
  5
47
  8
0
  6
BYBLOCK
 62
     9
 10
8402.910918
 20
8535.0
 30
0.0
 11
8409.577585
 21
8535.0
 31
0.0
 12
8406.244251
 22
8555.0
 32
0.0
 13
8406.244251
 23
8555.0
 33
0.0
  0
SOLID
  5
48
  8
0
  6
BYBLOCK
 62
     9
 10
8402.910918
 20
8144.99873
 30
0.0
 11
8409.577585
 21
8144.99873
 31
0.0
 12
8406.244251
 22
8124.99873
 32
0.0
 13
8406.244251
 23
8124.99873
 33
0.0
  0
TEXT
  5
49
  8
0
  6
BYBLOCK
 62
    11
 10
8423.744251
 20
8296.249365
 30
0.0
 40
35.0
  1
430
 50
90.0
  0
POINT
  5
4A
  8
DEFPOINTS
  6
BYBLOCK
 62
     0
 10
8368.999878
 20
8555.0
 30
0.0
  0
POINT
  5
4C
  8
DEFPOINTS
  6
BYBLOCK
 62
     0
 10
8026.620728
 20
8124.99873
 30
0.0
  0
POINT
  5
4D
  8
DEFPOINTS
  6
BYBLOCK
 62
     0
 10
8406.244251
 20
8124.99873
 30
0.0
  0
ENDBLK
  5
4F
  8
0
  0
BLOCK
  8
0
  2
*D1
 70
     1
 10
0.0
 20
0.0
 30
0.0
  3
*D1
  1

  0
LINE
  5
52
  8
0
  6
BYBLOCK
 62
     9
 10
7625.000122
 20
8559.0
 30
0.0
 11
7625.000122
 21
8588.766397
 31
0.0
  0
LINE
  5
53
  8
0
  6
BYBLOCK
 62
     9
 10
8374.999878
 20
8559.0
 30
0.0
 11
8374.999878
 21
8588.766397
 31
0.0
  0
LINE
  5
54
  8
0
  6
BYBLOCK
 62
     9
 10
7645.000122
 20
8587.766397
 30
0.0
 11
7949.25
 21
8587.766397
 31
0.0
  0
LINE
  5
55
  8
0
  6
BYBLOCK
 62
     9
 10
8354.999878
 20
8587.766397
 30
0.0
 11
8050.75
 21
8587.766397
 31
0.0
  0
SOLID
  5
56
  8
0
  6
BYBLOCK
 62
     9
 10
7645.000122
 20
8591.099731
 30
0.0
 11
7645.000122
 21
8584.433064
 31
0.0
 12
7625.000122
 22
8587.766397
 32
0.0
 13
7625.000122
 23
8587.766397
 33
0.0
  0
SOLID
  5
57
  8
0
  6
BYBLOCK
 62
     9
 10
8354.999878
 20
8591.099731
 30
0.0
 11
8354.999878
 21
8584.433064
 31
0.0
 12
8374.999878
 22
8587.766397
 32
0.0
 13
8374.999878
 23
8587.766397
 33
0.0
  0
TEXT
  5
58
  8
0
  6
BYBLOCK
 62
    11
 10
7956.25
 20
8570.266397
 30
0.0
 40
35.0
  1
750
  0
POINT
  5
59
  8
DEFPOINTS
  6
BYBLOCK
 62
     0
 10
7625.000122
 20
8549.0
 30
0.0
  0
POINT
  5
5A
  8
DEFPOINTS
  6
BYBLOCK
 62
     0
 10
8374.999878
 20
8549.0
 30
0.0
  0
POINT
  5
5B
  8
DEFPOINTS
  6
BYBLOCK
 62
     0
 10
8374.999878
 20
8587.766397
 30
0.0
  0
ENDBLK
  5
5D
  8
0
  0
BLOCK
  8
0
  2
*D2
 70
     1
 10
0.0
 20
0.0
 30
0.0
  3
*D2
  1

  0
LINE
  5
60
  8
0
  6
BYBLOCK
 62
     9
 10
8378.999878
 20
8580.0
 30
0.0
 11
8452.61323
 21
8580.0
 31
0.0
  0
LINE
  5
61
  8
0
  6
BYBLOCK
 62
     9
 10
8010.0
 20
8000.0
 30
0.0
 11
8452.61323
 21
8000.0
 31
0.0
  0
LINE
  5
62
  8
0
  6
BYBLOCK
 62
     9
 10
8451.61323
 20
8560.0
 30
0.0
 11
8451.61323
 21
8410.75
 31
0.0
  0
LINE
  5
63
  8
0
  6
BYBLOCK
 62
     9
 10
8451.61323
 20
8020.0
 30
0.0
 11
8451.61323
 21
8169.25
 31
0.0
  0
SOLID
  5
64
  8
0
  6
BYBLOCK
 62
     9
 10
8448.279897
 20
8560.0
 30
0.0
 11
8454.946563
 21
8560.0
 31
0.0
 12
8451.61323
 22
8580.0
 32
0.0
 13
8451.61323
 23
8580.0
 33
0.0
  0
SOLID
  5
65
  8
0
  6
BYBLOCK
 62
     9
 10
8448.279897
 20
8020.0
 30
0.0
 11
8454.946563
 21
8020.0
 31
0.0
 12
8451.61323
 22
8000.0
 32
0.0
 13
8451.61323
 23
8000.0
 33
0.0
  0
TEXT
  5
66
  8
0
  6
BYBLOCK
 62
    11
 10
8469.11323
 20
8176.25
 30
0.0
 40
35.0
  1
565-580
 50
90.0
  0
POINT
  5
67
  8
DEFPOINTS
  6
BYBLOCK
 62
     0
 10
8368.999878
 20
8580.0
 30
0.0
  0
POINT
  5
68
  8
DEFPOINTS
  6
BYBLOCK
 62
     0
 10
8000.0
 20
8000.0
 30
0.0
  0
POINT
  5
69
  8
DEFPOINTS
  6
BYBLOCK
 62
     0
 10
8451.61323
 20
8000.0
 30
0.0
  0
ENDBLK
  5
6B
  8
0
  0
ENDSEC
  0
SECTION
  2
ENTITIES
  0
CIRCLE
  5
20
  8
TEAM-DET1
 10
-0.000122
 20
510.0
 30
0.0
 40
25.5
  0
LINE
  5
22
  8
TEAM-AXE
 10
0.000122
 20
580.0
 30
0.0
 11
0.000122
 21
149.99873
 31
0.0
  0
LINE
  5
25
  8
TEAM-BODY
 10
368.999878
 20
580.0
 30
0.0
 11
-368.999878
 21
580.0
 31
0.0
  0
LINE
  5
27
  8
TEAM-BODY
 10
-374.999878
 20
574.0
 30
0.0
 11
-374.999878
 21
554.0
 31
0.0
  0
LINE
  5
28
  8
TEAM-BODY
 10
374.999878
 20
574.0
 30
0.0
 11
375.000122
 21
554.0
 31
0.0
  0
LINE
  5
29
  8
TEAM-BODY
 10
-368.999878
 20
548.0
 30
0.0
 11
369.000122
 21
548.0
 31
0.0
  0
LINE
  5
2A
  8
TEAM-BODY
 10
-26.620483
 20
149.99873
 30
0.0
 11
26.620728
 21
149.99873
 31
0.0
  0
LINE
  5
2B
  8
TEAM-BODY
 10
-43.973755
 20
165.034375
 30
0.0
 11
43.973755
 21
165.034375
 31
0.0
  0
ARC
  5
2C
  8
TEAM-BODY
 10
-368.999878
 20
574.0
 30
0.0
 40
6.0
 50
90.0
 51
180.0
  0
ARC
  5
2D
  8
TEAM-BODY
 10
-368.999878
 20
554.0
 30
0.0
 40
6.0
 50
180.0
 51
270.0
  0
ARC
  5
2E
  8
TEAM-BODY
 10
369.000122
 20
554.0
 30
0.0
 40
6.0
 50
270.0
 51
0.0
  0
ARC
  5
2F
  8
TEAM-BODY
 10
368.999878
 20
574.0
 30
0.0
 40
6.0
 50
0.0
 51
90.0
  0
ARC
  5
30
  8
TEAM-BODY
 10
284.616089
 20
585.243652
 30
0.0
 40
602.999939
 50
183.541016
 51
204.808182
  0
ARC
  5
31
  8
TEAM-BODY
 10
-858.440552
 20
631.159863
 30
0.0
 40
1153.0
 50
339.947418
 51
342.332794
  0
ARC
  5
32
  8
TEAM-BODY
 10
137.300659
 20
267.704785
 30
0.0
 40
92.999962
 50
278.874481
 51
339.947296
  0
ARC
  5
33
  8
TEAM-BODY
 10
0.000122
 20
1147.05
 30
0.0
 40
982.999939
 50
261.125488
 51
267.436035
  0
ARC
  5
34
  8
TEAM-BODY
 10
-137.300659
 20
267.704785
 30
0.0
 40
92.999985
 50
200.052673
 51
261.125488
  0
ARC
  5
35
  8
TEAM-BODY
 10
0.000122
 20
1147.05
 30
0.0
 40
982.999939
 50
272.563934
 51
278.874481
  0
ARC
  5
36
  8
TEAM-BODY
 10
26.620728
 20
158.99873
 30
0.0
 40
9.0
 50
270.0
 51
350.550964
  0
ARC
  5
37
  8
TEAM-BODY
 10
44.376343
 20
156.043164
 30
0.0
 40
9.0
 50
92.563812
 51
170.547638
  0
ARC
  5
38
  8
TEAM-BODY
 10
-26.620483
 20
158.99873
 30
0.0
 40
9.0
 50
189.452087
 51
270.0
  0
ARC
  5
39
  8
TEAM-BODY
 10
-44.376343
 20
156.043164
 30
0.0
 40
9.0
 50
9.449036
 51
87.43618
  0
ARC
  5
3A
  8
TEAM-BODY
 10
858.440796
 20
631.159863
 30
0.0
 40
1153.0
 50
197.667191
 51
200.052582
  0
ARC
  5
3B
  8
TEAM-BODY
 10
-284.616089
 20
585.243652
 30
0.0
 40
602.999939
 50
335.191803
 51
356.458954
  0
ARC
  5
3C
  8
TEAM-BODY
 10
-617.280869
 20
144.913083
 30
0.0
 40
400.987309
 50
19.875349
 51
27.849699
  0
ARC
  5
3D
  8
TEAM-BODY
 10
617.281377
 20
144.913034
 30
0.0
 40
400.987572
 50
152.150295
 51
160.124665
  0
TEXT
  5
3E
  8
TEAM-TXT
 10
-234.196448
 20
435.793203
 30
0.0
 40
30.0
  1
team 111383
 41
0.7
 51
15.0
  7
TEAM
  0
DIMENSION
  5
41
  8
TEAM-MAS
  2
*D0
 10
406.244251
 20
149.99873
 30
0.0
 11
406.244251
 21
339.999365
 31
0.0
 12
-8000.0
 22
-7975.0
 32
0.0
 13
368.999878
 23
580.0
 33
0.0
 14
26.620728
 24
149.99873
 34
0.0
 50
90.0
1001
ACAD
1000
DSTYLE
1002
{
1070
    40
1040
1.0
1002
}
  0
DIMENSION
  5
50
  8
TEAM-MAS
  2
*D1
 10
374.999878
 20
612.766397
 30
0.0
 11
0.0
 21
587.766397
 31
0.0
 12
-8000.0
 22
-7975.0
 32
0.0
 13
-374.999878
 23
574.0
 33
0.0
 14
374.999878
 24
574.0
 34
0.0
1001
ACAD
1000
DSTYLE
1002
{
1070
    40
1040
1.0
1002
}
  0
DIMENSION
  5
5E
  8
TEAM-MAS
  2
*D2
 10
451.61323
 20
0.0
 30
0.0
 11
451.61323
 21
290.0
 31
0.0
 12
-8000.0
 22
-8000.0
 32
0.0
  1
565-<>
 13
368.999878
 23
580.0
 33
0.0
 14
0.0
 24
0.0
 34
0.0
 50
90.0
1001
ACAD
1000
DSTYLE
1002
{
1070
    40
1040
1.0
1002
}
  0
CIRCLE
  5
6C
  8
TEAM-INSP
 10
0.0
 20
0.0
 30
0.0
 40
10.0
  0
ENDSEC
  0
EOF
