  0
SECTION
  2
HEADER
  9
$ACADVER
  1
AC1009
  9
$INSBASE
 10
0.0
 20
0.0
 30
0.0
  9
$EXTMIN
 10
-876.353727
 20
-10.03593
 30
0.0
  9
$EXTMAX
 10
929.592026
 20
635.730454
 30
0.000005
  9
$LIMMIN
 10
-876.353727
 20
-10.03593
  9
$LIMMAX
 10
929.592026
 20
635.730454
  9
$ORTHOMODE
 70
     1
  9
$REGENMODE
 70
     1
  9
$FILLMODE
 70
     1
  9
$QTEXTMODE
 70
     0
  9
$MIRRTEXT
 70
     0
  9
$DRAGMODE
 70
     2
  9
$LTSCALE
 40
50.0
  9
$OSMODE
 70
     0
  9
$ATTMODE
 70
     1
  9
$TEXTSIZE
 40
200.0
  9
$TRACEWID
 40
1.0
  9
$TEXTSTYLE
  7
STANDARD
  9
$CLAYER
  8
TEAM-MAS
  9
$CELTYPE
  6
BYLAYER
  9
$CECOLOR
 62
   256
  9
$DIMSCALE
 40
0.0
  9
$DIMASZ
 40
20.0
  9
$DIMEXO
 40
10.0
  9
$DIMDLI
 40
1.0
  9
$DIMRND
 40
0.0
  9
$DIMDLE
 40
0.0
  9
$DIMEXE
 40
1.0
  9
$DIMTP
 40
0.0
  9
$DIMTM
 40
0.0
  9
$DIMTXT
 40
35.0
  9
$DIMCEN
 40
1.0
  9
$DIMTSZ
 40
0.0
  9
$DIMTOL
 70
     0
  9
$DIMLIM
 70
     0
  9
$DIMTIH
 70
     0
  9
$DIMTOH
 70
     0
  9
$DIMSE1
 70
     0
  9
$DIMSE2
 70
     0
  9
$DIMTAD
 70
     0
  9
$DIMZIN
 70
     0
  9
$DIMBLK
  1

  9
$DIMASO
 70
     1
  9
$DIMSHO
 70
     0
  9
$DIMPOST
  1

  9
$DIMAPOST
  1

  9
$DIMALT
 70
     0
  9
$DIMALTD
 70
     2
  9
$DIMALTF
 40
25.4
  9
$DIMLFAC
 40
1.0
  9
$DIMTOFL
 70
     0
  9
$DIMTVP
 40
0.0
  9
$DIMTIX
 70
     0
  9
$DIMSOXD
 70
     0
  9
$DIMSAH
 70
     0
  9
$DIMBLK1
  1

  9
$DIMBLK2
  1

  9
$DIMSTYLE
  2
TEAM
  9
$DIMCLRD
 70
     9
  9
$DIMCLRE
 70
     9
  9
$DIMCLRT
 70
    11
  9
$DIMTFAC
 40
1.0
  9
$DIMGAP
 40
7.0
  9
$LUNITS
 70
     2
  9
$LUPREC
 70
     1
  9
$SKETCHINC
 40
1.0
  9
$FILLETRAD
 40
50.0
  9
$AUNITS
 70
     0
  9
$AUPREC
 70
     0
  9
$MENU
  1
ROPLANS
  9
$ELEVATION
 40
0.0
  9
$PELEVATION
 40
0.0
  9
$THICKNESS
 40
0.0
  9
$LIMCHECK
 70
     0
  9
$BLIPMODE
 70
     1
  9
$CHAMFERA
 40
0.0
  9
$CHAMFERB
 40
0.0
  9
$SKPOLY
 70
     0
  9
$TDCREATE
 40
2450392.957851
  9
$TDUPDATE
 40
2456124.650986
  9
$TDINDWG
 40
2.269834
  9
$TDUSRTIMER
 40
2.269834
  9
$USRTIMER
 70
     1
  9
$ANGBASE
 50
0.0
  9
$ANGDIR
 70
     0
  9
$PDMODE
 70
     0
  9
$PDSIZE
 40
0.0
  9
$PLINEWID
 40
0.0
  9
$COORDS
 70
     2
  9
$SPLFRAME
 70
     0
  9
$SPLINETYPE
 70
     6
  9
$SPLINESEGS
 70
     8
  9
$ATTDIA
 70
     0
  9
$ATTREQ
 70
     0
  9
$HANDLING
 70
     1
  9
$HANDSEED
  5
A1
  9
$SURFTAB1
 70
    24
  9
$SURFTAB2
 70
    24
  9
$SURFTYPE
 70
     6
  9
$SURFU
 70
     6
  9
$SURFV
 70
     6
  9
$UCSNAME
  2

  9
$UCSORG
 10
0.0
 20
0.0
 30
0.0
  9
$UCSXDIR
 10
1.0
 20
0.0
 30
0.0
  9
$UCSYDIR
 10
0.0
 20
1.0
 30
0.0
  9
$PUCSNAME
  2

  9
$PUCSORG
 10
0.0
 20
0.0
 30
0.0
  9
$PUCSXDIR
 10
1.0
 20
0.0
 30
0.0
  9
$PUCSYDIR
 10
0.0
 20
1.0
 30
0.0
  9
$USERI1
 70
     0
  9
$USERI2
 70
     0
  9
$USERI3
 70
     0
  9
$USERI4
 70
     0
  9
$USERI5
 70
     0
  9
$USERR1
 40
0.0
  9
$USERR2
 40
0.0
  9
$USERR3
 40
0.0
  9
$USERR4
 40
0.0
  9
$USERR5
 40
0.0
  9
$WORLDVIEW
 70
     1
  9
$SHADEDGE
 70
     0
  9
$SHADEDIF
 70
    70
  9
$TILEMODE
 70
     1
  9
$MAXACTVP
 70
    16
  9
$PLIMCHECK
 70
     0
  9
$PEXTMIN
 10
-0.805942
 20
0.005011
 30
0.0
  9
$PEXTMAX
 10
20.250094
 20
11.356329
 30
0.0
  9
$PLIMMIN
 10
0.0
 20
0.0
  9
$PLIMMAX
 10
12.0
 20
9.0
  9
$UNITMODE
 70
     0
  9
$VISRETAIN
 70
     0
  9
$PLINEGEN
 70
     0
  9
$PSLTSCALE
 70
     0
  0
ENDSEC
  0
SECTION
  2
TABLES
  0
TABLE
  2
VPORT
 70
     2
  0
VPORT
  2
*ACTIVE
 70
     0
 10
0.0
 20
0.0
 11
1.0
 21
1.0
 12
26.61915
 22
312.847262
 13
0.0
 23
0.0
 14
1.0
 24
1.0
 15
50.0
 25
50.0
 16
0.0
 26
0.0
 36
1.0
 17
0.0
 27
0.0
 37
0.0
 40
947.759506
 41
1.911765
 42
50.0
 43
0.0
 44
0.0
 50
0.0
 51
0.0
 71
     0
 72
   100
 73
     1
 74
     1
 75
     0
 76
     0
 77
     0
 78
     0
  0
ENDTAB
  0
TABLE
  2
LTYPE
 70
     2
  0
LTYPE
  2
CONTINUOUS
 70
     0
  3
Solid Line
 72
    65
 73
     0
 40
0.0
  0
LTYPE
  2
31
 70
     0
  3

 72
    65
 73
     4
 40
2.1
 49
1.5
 49
-0.3
 49
0.0
 49
-0.3
  0
ENDTAB
  0
TABLE
  2
LAYER
 70
     7
  0
LAYER
  2
0
 70
     0
 62
     7
  6
CONTINUOUS
  0
LAYER
  2
DEFPOINTS
 70
     0
 62
     7
  6
CONTINUOUS
  0
LAYER
  2
TEAM-BODY
 70
     0
 62
     2
  6
CONTINUOUS
  0
LAYER
  2
TEAM-AXE
 70
     0
 62
    10
  6
31
  0
LAYER
  2
TEAM-MAS
 70
     0
 62
     9
  6
CONTINUOUS
  0
LAYER
  2
TEAM-TXT
 70
     0
 62
    11
  6
CONTINUOUS
  0
LAYER
  2
TEAM-INSP
 70
     0
 62
     5
  6
CONTINUOUS
  0
ENDTAB
  0
TABLE
  2
STYLE
 70
     2
  0
STYLE
  2
STANDARD
 70
     0
 40
0.0
 41
1.0
 50
0.0
 71
     0
 42
200.0
  3
txt
  4

  0
STYLE
  2
TEAM
 70
     0
 40
0.0
 41
0.8
 50
15.0
 71
     0
 42
7.0
  3
ROMANS.shx
  4

  0
ENDTAB
  0
TABLE
  2
VIEW
 70
     0
  0
ENDTAB
  0
TABLE
  2
UCS
 70
     0
  0
ENDTAB
  0
TABLE
  2
APPID
 70
     1
  0
APPID
  2
ACAD
 70
     0
  0
ENDTAB
  0
TABLE
  2
DIMSTYLE
 70
     1
  0
DIMSTYLE
  2
TEAM
 70
     0
  3

  4

  5

  6

  7

 40
0.0
 41
20.0
 42
10.0
 43
1.0
 44
1.0
 45
0.0
 46
0.0
 47
0.0
 48
0.0
140
35.0
141
1.0
142
0.0
143
25.4
144
1.0
145
0.0
146
1.0
147
7.0
 71
     0
 72
     0
 73
     0
 74
     0
 75
     0
 76
     0
 77
     0
 78
     0
170
     0
171
     2
172
     0
173
     0
174
     0
175
     0
176
     9
177
     9
178
    11
  0
ENDTAB
  0
ENDSEC
  0
SECTION
  2
BLOCKS
  0
BLOCK
  8
0
  2
$MODEL_SPACE
 70
     0
 10
0.0
 20
0.0
 30
0.0
  3
$MODEL_SPACE
  1

  0
ENDBLK
  5
9A
  8
0
  0
BLOCK
 67
     1
  8
0
  2
$PAPER_SPACE
 70
     0
 10
0.0
 20
0.0
 30
0.0
  3
$PAPER_SPACE
  1

  0
ENDBLK
  5
98
 67
     1
  8
0
  0
BLOCK
  8
0
  2
*D0
 70
     1
 10
0.0
 20
0.0
 30
0.0
  3
*D0
  1

  0
LINE
  5
26
  8
0
  6
BYBLOCK
 62
     9
 10
11125.0
 20
8559.000244
 30
0.0
 11
11125.0
 21
8594.203886
 31
0.0
  0
LINE
  5
27
  8
0
  6
BYBLOCK
 62
     9
 10
12875.0
 20
8558.999756
 30
0.0
 11
12875.0
 21
8594.203886
 31
0.0
  0
LINE
  5
28
  8
0
  6
BYBLOCK
 62
     9
 10
11145.0
 20
8593.203886
 30
0.0
 11
11937.583333
 21
8593.203886
 31
0.0
  0
LINE
  5
29
  8
0
  6
BYBLOCK
 62
     9
 10
12855.0
 20
8593.203886
 30
0.0
 11
12062.416667
 21
8593.203886
 31
0.0
  0
SOLID
  5
2A
  8
0
  6
BYBLOCK
 62
     9
 10
11145.0
 20
8596.537219
 30
0.0
 11
11145.0
 21
8589.870553
 31
0.0
 12
11125.0
 22
8593.203886
 32
0.0
 13
11125.0
 23
8593.203886
 33
0.0
  0
SOLID
  5
2B
  8
0
  6
BYBLOCK
 62
     9
 10
12855.0
 20
8596.537219
 30
0.0
 11
12855.0
 21
8589.870553
 31
0.0
 12
12875.0
 22
8593.203886
 32
0.0
 13
12875.0
 23
8593.203886
 33
0.0
  0
TEXT
  5
2C
  8
0
  6
BYBLOCK
 62
    11
 10
11944.583333
 20
8575.703886
 30
0.0
 40
35.0
  1
1750
  0
POINT
  5
2D
  8
DEFPOINTS
  6
BYBLOCK
 62
     0
 10
11125.0
 20
8549.000244
 30
0.0
  0
POINT
  5
2F
  8
DEFPOINTS
  6
BYBLOCK
 62
     0
 10
12875.0
 20
8548.999756
 30
0.0
  0
POINT
  5
30
  8
DEFPOINTS
  6
BYBLOCK
 62
     0
 10
12875.0
 20
8593.203886
 30
0.0
  0
ENDBLK
  5
32
  8
0
  0
BLOCK
  8
0
  2
*D1
 70
     1
 10
0.0
 20
0.0
 30
0.0
  3
*D1
  1

  0
LINE
  5
5E
  8
0
  6
BYBLOCK
 62
     9
 10
12879.0
 20
8554.999756
 30
0.0
 11
12913.055527
 21
8554.999756
 31
0.0
  0
LINE
  5
5F
  8
0
  6
BYBLOCK
 62
     9
 10
12591.000362
 20
8124.996435
 30
0.0
 11
12913.055527
 21
8124.996435
 31
0.0
  0
LINE
  5
60
  8
0
  6
BYBLOCK
 62
     9
 10
12912.055527
 20
8534.999756
 30
0.0
 11
12912.055527
 21
8390.748096
 31
0.0
  0
LINE
  5
61
  8
0
  6
BYBLOCK
 62
     9
 10
12912.055527
 20
8144.996435
 30
0.0
 11
12912.055527
 21
8289.248096
 31
0.0
  0
SOLID
  5
62
  8
0
  6
BYBLOCK
 62
     9
 10
12908.722194
 20
8534.999756
 30
0.0
 11
12915.388861
 21
8534.999756
 31
0.0
 12
12912.055527
 22
8554.999756
 32
0.0
 13
12912.055527
 23
8554.999756
 33
0.0
  0
SOLID
  5
63
  8
0
  6
BYBLOCK
 62
     9
 10
12908.722194
 20
8144.996435
 30
0.0
 11
12915.388861
 21
8144.996435
 31
0.0
 12
12912.055527
 22
8124.996435
 32
0.0
 13
12912.055527
 23
8124.996435
 33
0.0
  0
TEXT
  5
64
  8
0
  6
BYBLOCK
 62
    11
 10
12929.555527
 20
8296.248096
 30
0.0
 40
35.0
  1
430
 50
90.0
  0
POINT
  5
65
  8
DEFPOINTS
  6
BYBLOCK
 62
     0
 10
12869.0
 20
8554.999756
 30
0.0
  0
POINT
  5
66
  8
DEFPOINTS
  6
BYBLOCK
 62
     0
 10
12581.000362
 20
8124.996435
 30
0.0
  0
POINT
  5
67
  8
DEFPOINTS
  6
BYBLOCK
 62
     0
 10
12912.055527
 20
8124.996435
 30
0.0
  0
ENDBLK
  5
69
  8
0
  0
BLOCK
  8
0
  2
*D2
 70
     1
 10
0.0
 20
0.0
 30
0.0
  3
*D2
  1

  0
LINE
  5
42
  8
0
  6
BYBLOCK
 62
     9
 10
12528.999151
 20
8139.996924
 30
0.0
 11
12528.999151
 21
8108.894427
 31
0.0
  0
LINE
  5
43
  8
0
  6
BYBLOCK
 62
     9
 10
12581.000362
 20
8139.996435
 30
0.0
 11
12581.000362
 21
8108.894427
 31
0.0
  0
LINE
  5
44
  8
0
  6
BYBLOCK
 62
     9
 10
12508.999151
 20
8109.894427
 30
0.0
 11
12488.999151
 21
8109.894427
 31
0.0
  0
LINE
  5
45
  8
0
  6
BYBLOCK
 62
     9
 10
12601.000362
 20
8109.894427
 30
0.0
 11
12621.000362
 21
8109.894427
 31
0.0
  0
TEXT
  5
46
  8
0
  6
BYBLOCK
 62
    11
 10
12427.711175
 20
8092.394427
 30
0.0
 40
35.0
  1
52
  0
LINE
  5
47
  8
0
  6
BYBLOCK
 62
     9
 10
12528.999151
 20
8109.894427
 30
0.0
 11
12581.000362
 21
8109.894427
 31
0.0
  0
SOLID
  5
48
  8
0
  6
BYBLOCK
 62
     9
 10
12508.999151
 20
8113.22776
 30
0.0
 11
12508.999151
 21
8106.561093
 31
0.0
 12
12528.999151
 22
8109.894427
 32
0.0
 13
12528.999151
 23
8109.894427
 33
0.0
  0
SOLID
  5
49
  8
0
  6
BYBLOCK
 62
     9
 10
12601.000362
 20
8113.22776
 30
0.0
 11
12601.000362
 21
8106.561093
 31
0.0
 12
12581.000362
 22
8109.894427
 32
0.0
 13
12581.000362
 23
8109.894427
 33
0.0
  0
POINT
  5
4A
  8
DEFPOINTS
  6
BYBLOCK
 62
     0
 10
12528.999151
 20
8149.996924
 30
0.0
  0
POINT
  5
4B
  8
DEFPOINTS
  6
BYBLOCK
 62
     0
 10
12581.000362
 20
8149.996435
 30
0.0
  0
POINT
  5
4C
  8
DEFPOINTS
  6
BYBLOCK
 62
     0
 10
12581.000362
 20
8109.894427
 30
0.0
  0
ENDBLK
  5
4E
  8
0
  0
ENDSEC
  0
SECTION
  2
ENTITIES
  0
LINE
  5
20
  8
TEAM-BODY
 10
-869.0
 20
580.000244
 30
0.0
 11
869.0
 21
579.999756
 31
0.0
  0
LINE
  5
22
  8
TEAM-BODY
 10
-869.0
 20
548.000244
 30
0.0
 11
869.0
 21
547.999756
 31
0.0
  0
LINE
  5
23
  8
TEAM-BODY
 10
511.379522
 20
165.179053
 30
0.0
 11
-341.950928
 21
180.210059
 31
0.0
  0
DIMENSION
  5
24
  8
TEAM-MAS
  2
*D0
 10
875.0
 20
618.203886
 30
0.0
 11
0.0
 21
593.203886
 31
0.0
 12
-12000.0
 22
-7975.0
 32
0.0
 13
-875.0
 23
574.000244
 33
0.0
 14
875.0
 24
573.999756
 34
0.0
1001
ACAD
1000
DSTYLE
1002
{
1070
    40
1040
1.0
1002
}
  0
LINE
  5
33
  8
TEAM-AXE
 10
0.0
 20
579.999756
 30
0.0
 11
-0.000244
 21
174.182471
 31
0.0
  0
LINE
  5
36
  8
TEAM-BODY
 10
-875.0
 20
574.000244
 30
0.0
 11
-875.0
 21
554.000244
 31
0.0
  0
ARC
  5
37
  8
TEAM-BODY
 10
-869.0
 20
574.000244
 30
0.0
 40
6.0
 50
90.0
 51
180.0
  0
ARC
  5
38
  8
TEAM-BODY
 10
-869.0
 20
554.000244
 30
0.0
 40
6.0
 50
180.0
 51
270.0
  0
ARC
  5
39
  8
TEAM-BODY
 10
-338.373047
 20
383.178564
 30
0.0
 40
203.000107
 50
229.637314
 51
268.990112
  0
ARC
  5
3A
  8
TEAM-BODY
 10
1153.427016
 20
2187.314777
 30
0.0
 40
2544.002978
 50
220.119501
 51
230.351461
  0
TEXT
  5
3B
  8
TEAM-TXT
 10
-611.369754
 20
490.792269
 30
0.0
 40
30.0
  1
team 111383
 41
0.7
 51
15.0
  7
TEAM
  0
CIRCLE
  5
3E
  8
TEAM-INSP
 10
0.0
 20
0.0
 30
0.0
 40
10.0
  0
DIMENSION
  5
40
  8
TEAM-MAS
  2
*D2
 10
581.000362
 20
109.894427
 30
0.0
 11
456.877841
 21
109.894427
 31
0.0
 12
-12000.0
 22
-8000.0
 32
0.0
 70
   128
 13
528.999151
 23
149.996924
 33
0.0
 14
581.000362
 24
149.996435
 34
0.0
1001
ACAD
1000
DSTYLE
1002
{
1070
    40
1040
1.0
1002
}
  0
LINE
  5
4F
  8
TEAM-AXE
 10
555.000122
 20
579.999512
 30
0.0
 11
555.0
 21
149.99668
 31
0.0
  0
LINE
  5
50
  8
TEAM-BODY
 10
875.0
 20
573.999756
 30
0.0
 11
875.0
 21
553.999756
 31
0.0
  0
LINE
  5
51
  8
TEAM-BODY
 10
528.999151
 20
149.996924
 30
0.0
 11
581.000362
 21
149.996435
 31
0.0
  0
LINE
  5
52
  8
TEAM-BODY
 10
598.630488
 20
164.901709
 30
0.0
 11
657.72937
 21
165.565039
 31
0.0
  0
LINE
  5
53
  8
TEAM-BODY
 10
511.379522
 20
165.179053
 30
0.0
 11
598.630488
 21
164.901709
 31
0.0
  0
ARC
  5
54
  8
TEAM-BODY
 10
869.0
 20
573.999756
 30
0.0
 40
6.0
 50
0.0
 51
90.0
  0
ARC
  5
55
  8
TEAM-BODY
 10
869.0
 20
553.999756
 30
0.0
 40
6.0
 50
270.0
 51
0.0
  0
ARC
  5
56
  8
TEAM-BODY
 10
-236.952293
 20
596.979227
 30
0.0
 40
1054.956182
 50
339.867032
 51
357.338901
  0
ARC
  5
57
  8
TEAM-BODY
 10
656.561157
 20
268.558447
 30
0.0
 40
103.0
 50
270.649841
 51
340.315063
  0
ARC
  5
58
  8
TEAM-BODY
 10
511.22083
 20
156.180517
 30
0.0
 40
9.0
 50
9.001877
 51
88.989677
  0
ARC
  5
59
  8
TEAM-BODY
 10
528.999151
 20
158.996924
 30
0.0
 40
9.0
 50
189.001877
 51
270.0
  0
ARC
  5
5A
  8
TEAM-BODY
 10
581.000362
 20
158.996435
 30
0.0
 40
9.0
 50
270.0
 51
350.103302
  0
ARC
  5
5B
  8
TEAM-BODY
 10
598.732417
 20
155.902197
 30
0.0
 40
9.0
 50
90.648903
 51
170.099976
  0
DIMENSION
  5
5C
  8
TEAM-MAS
  2
*D1
 10
912.055527
 20
149.996435
 30
0.0
 11
912.055527
 21
339.998095
 31
0.0
 12
-12000.0
 22
-7975.0
 32
0.0
 13
869.0
 23
579.999756
 33
0.0
 14
581.000362
 24
149.996435
 34
0.0
 50
90.0
1001
ACAD
1000
DSTYLE
1002
{
1070
    40
1040
1.0
1002
}
  0
ENDSEC
  0
EOF
