  0
SECTION
  2
HEADER
  9
$ACADVER
  1
AC1009
  9
$INSBASE
 10
0.0
 20
0.0
 30
0.0
  9
$EXTMIN
 10
-704.817579
 20
-354.767007
 30
0.0
  9
$EXTMAX
 10
753.338664
 20
444.264737
 30
0.000005
  9
$LIMMIN
 10
-704.817579
 20
-354.767007
  9
$LIMMAX
 10
753.338664
 20
444.264737
  9
$ORTHOMODE
 70
     1
  9
$REGENMODE
 70
     1
  9
$FILLMODE
 70
     1
  9
$QTEXTMODE
 70
     0
  9
$MIRRTEXT
 70
     0
  9
$DRAGMODE
 70
     2
  9
$LTSCALE
 40
50.0
  9
$OSMODE
 70
     0
  9
$ATTMODE
 70
     1
  9
$TEXTSIZE
 40
200.0
  9
$TRACEWID
 40
1.0
  9
$TEXTSTYLE
  7
STANDARD
  9
$CLAYER
  8
TEAM-MAS
  9
$CELTYPE
  6
BYLAYER
  9
$CECOLOR
 62
   256
  9
$DIMSCALE
 40
0.0
  9
$DIMASZ
 40
20.0
  9
$DIMEXO
 40
10.0
  9
$DIMDLI
 40
1.0
  9
$DIMRND
 40
0.0
  9
$DIMDLE
 40
0.0
  9
$DIMEXE
 40
1.0
  9
$DIMTP
 40
0.0
  9
$DIMTM
 40
0.0
  9
$DIMTXT
 40
35.0
  9
$DIMCEN
 40
1.0
  9
$DIMTSZ
 40
0.0
  9
$DIMTOL
 70
     0
  9
$DIMLIM
 70
     0
  9
$DIMTIH
 70
     0
  9
$DIMTOH
 70
     0
  9
$DIMSE1
 70
     0
  9
$DIMSE2
 70
     0
  9
$DIMTAD
 70
     0
  9
$DIMZIN
 70
     0
  9
$DIMBLK
  1

  9
$DIMASO
 70
     1
  9
$DIMSHO
 70
     0
  9
$DIMPOST
  1

  9
$DIMAPOST
  1

  9
$DIMALT
 70
     0
  9
$DIMALTD
 70
     2
  9
$DIMALTF
 40
25.4
  9
$DIMLFAC
 40
1.0
  9
$DIMTOFL
 70
     0
  9
$DIMTVP
 40
0.0
  9
$DIMTIX
 70
     0
  9
$DIMSOXD
 70
     0
  9
$DIMSAH
 70
     0
  9
$DIMBLK1
  1

  9
$DIMBLK2
  1

  9
$DIMSTYLE
  2
TEAM
  9
$DIMCLRD
 70
     9
  9
$DIMCLRE
 70
     9
  9
$DIMCLRT
 70
    11
  9
$DIMTFAC
 40
1.0
  9
$DIMGAP
 40
7.0
  9
$LUNITS
 70
     2
  9
$LUPREC
 70
     1
  9
$SKETCHINC
 40
1.0
  9
$FILLETRAD
 40
50.0
  9
$AUNITS
 70
     0
  9
$AUPREC
 70
     0
  9
$MENU
  1
ROPLANS
  9
$ELEVATION
 40
0.0
  9
$PELEVATION
 40
0.0
  9
$THICKNESS
 40
0.0
  9
$LIMCHECK
 70
     0
  9
$BLIPMODE
 70
     1
  9
$CHAMFERA
 40
0.0
  9
$CHAMFERB
 40
0.0
  9
$SKPOLY
 70
     0
  9
$TDCREATE
 40
2450392.957851
  9
$TDUPDATE
 40
2456124.650986
  9
$TDINDWG
 40
2.269834
  9
$TDUSRTIMER
 40
2.269834
  9
$USRTIMER
 70
     1
  9
$ANGBASE
 50
0.0
  9
$ANGDIR
 70
     0
  9
$PDMODE
 70
     0
  9
$PDSIZE
 40
0.0
  9
$PLINEWID
 40
0.0
  9
$COORDS
 70
     2
  9
$SPLFRAME
 70
     0
  9
$SPLINETYPE
 70
     6
  9
$SPLINESEGS
 70
     8
  9
$ATTDIA
 70
     0
  9
$ATTREQ
 70
     0
  9
$HANDLING
 70
     1
  9
$HANDSEED
  5
151
  9
$SURFTAB1
 70
    24
  9
$SURFTAB2
 70
    24
  9
$SURFTYPE
 70
     6
  9
$SURFU
 70
     6
  9
$SURFV
 70
     6
  9
$UCSNAME
  2

  9
$UCSORG
 10
0.0
 20
0.0
 30
0.0
  9
$UCSXDIR
 10
1.0
 20
0.0
 30
0.0
  9
$UCSYDIR
 10
0.0
 20
1.0
 30
0.0
  9
$PUCSNAME
  2

  9
$PUCSORG
 10
0.0
 20
0.0
 30
0.0
  9
$PUCSXDIR
 10
1.0
 20
0.0
 30
0.0
  9
$PUCSYDIR
 10
0.0
 20
1.0
 30
0.0
  9
$USERI1
 70
     0
  9
$USERI2
 70
     0
  9
$USERI3
 70
     0
  9
$USERI4
 70
     0
  9
$USERI5
 70
     0
  9
$USERR1
 40
0.0
  9
$USERR2
 40
0.0
  9
$USERR3
 40
0.0
  9
$USERR4
 40
0.0
  9
$USERR5
 40
0.0
  9
$WORLDVIEW
 70
     1
  9
$SHADEDGE
 70
     0
  9
$SHADEDIF
 70
    70
  9
$TILEMODE
 70
     1
  9
$MAXACTVP
 70
    16
  9
$PLIMCHECK
 70
     0
  9
$PEXTMIN
 10
-0.805942
 20
0.005011
 30
0.0
  9
$PEXTMAX
 10
20.250094
 20
11.356329
 30
0.0
  9
$PLIMMIN
 10
0.0
 20
0.0
  9
$PLIMMAX
 10
12.0
 20
9.0
  9
$UNITMODE
 70
     0
  9
$VISRETAIN
 70
     0
  9
$PLINEGEN
 70
     0
  9
$PSLTSCALE
 70
     0
  0
ENDSEC
  0
SECTION
  2
TABLES
  0
TABLE
  2
VPORT
 70
     2
  0
VPORT
  2
*ACTIVE
 70
     0
 10
0.0
 20
0.0
 11
1.0
 21
1.0
 12
24.260542
 22
44.748865
 13
0.0
 23
0.0
 14
1.0
 24
1.0
 15
50.0
 25
50.0
 16
0.0
 26
0.0
 36
1.0
 17
0.0
 27
0.0
 37
0.0
 40
804.062375
 41
1.911765
 42
50.0
 43
0.0
 44
0.0
 50
0.0
 51
0.0
 71
     0
 72
   100
 73
     1
 74
     1
 75
     0
 76
     0
 77
     0
 78
     0
  0
ENDTAB
  0
TABLE
  2
LTYPE
 70
     2
  0
LTYPE
  2
CONTINUOUS
 70
     0
  3
Solid Line
 72
    65
 73
     0
 40
0.0
  0
LTYPE
  2
31
 70
     0
  3

 72
    65
 73
     4
 40
2.1
 49
1.5
 49
-0.3
 49
0.0
 49
-0.3
  0
ENDTAB
  0
TABLE
  2
LAYER
 70
     8
  0
LAYER
  2
0
 70
     0
 62
     7
  6
CONTINUOUS
  0
LAYER
  2
DEFPOINTS
 70
     0
 62
     7
  6
CONTINUOUS
  0
LAYER
  2
TEAM-BODY
 70
     0
 62
     2
  6
CONTINUOUS
  0
LAYER
  2
TEAM-AXE
 70
     0
 62
    10
  6
31
  0
LAYER
  2
TEAM-MAS
 70
     0
 62
     9
  6
CONTINUOUS
  0
LAYER
  2
TEAM-TXT
 70
     0
 62
    11
  6
CONTINUOUS
  0
LAYER
  2
TEAM-DET1
 70
     0
 62
     4
  6
CONTINUOUS
  0
LAYER
  2
TEAM-INSP
 70
     0
 62
     5
  6
CONTINUOUS
  0
ENDTAB
  0
TABLE
  2
STYLE
 70
     2
  0
STYLE
  2
STANDARD
 70
     0
 40
0.0
 41
1.0
 50
0.0
 71
     0
 42
200.0
  3
txt
  4

  0
STYLE
  2
TEAM
 70
     0
 40
0.0
 41
0.8
 50
15.0
 71
     0
 42
7.0
  3
ROMANS.shx
  4

  0
ENDTAB
  0
TABLE
  2
VIEW
 70
     0
  0
ENDTAB
  0
TABLE
  2
UCS
 70
     0
  0
ENDTAB
  0
TABLE
  2
APPID
 70
     1
  0
APPID
  2
ACAD
 70
     0
  0
ENDTAB
  0
TABLE
  2
DIMSTYLE
 70
     1
  0
DIMSTYLE
  2
TEAM
 70
     0
  3

  4

  5

  6

  7

 40
0.0
 41
20.0
 42
10.0
 43
1.0
 44
1.0
 45
0.0
 46
0.0
 47
0.0
 48
0.0
140
35.0
141
1.0
142
0.0
143
25.4
144
1.0
145
0.0
146
1.0
147
7.0
 71
     0
 72
     0
 73
     0
 74
     0
 75
     0
 76
     0
 77
     0
 78
     0
170
     0
171
     2
172
     0
173
     0
174
     0
175
     0
176
     9
177
     9
178
    11
  0
ENDTAB
  0
ENDSEC
  0
SECTION
  2
BLOCKS
  0
BLOCK
  8
0
  2
$MODEL_SPACE
 70
     0
 10
0.0
 20
0.0
 30
0.0
  3
$MODEL_SPACE
  1

  0
ENDBLK
  5
F6
  8
0
  0
BLOCK
 67
     1
  8
0
  2
$PAPER_SPACE
 70
     0
 10
0.0
 20
0.0
 30
0.0
  3
$PAPER_SPACE
  1

  0
ENDBLK
  5
F4
 67
     1
  8
0
  0
BLOCK
  8
0
  2
*D0
 70
     1
 10
0.0
 20
0.0
 30
0.0
  3
*D0
  1

  0
LINE
  5
22
  8
0
  6
BYBLOCK
 62
     9
 10
4700.000004
 20
28337.0
 30
0.0
 11
4700.000004
 21
28427.722129
 31
0.0
  0
LINE
  5
23
  8
0
  6
BYBLOCK
 62
     9
 10
3299.999996
 20
28337.0
 30
0.0
 11
3299.999996
 21
28427.722129
 31
0.0
  0
LINE
  5
24
  8
0
  6
BYBLOCK
 62
     9
 10
4680.000004
 20
28426.722129
 30
0.0
 11
4059.5
 21
28426.722129
 31
0.0
  0
LINE
  5
25
  8
0
  6
BYBLOCK
 62
     9
 10
3319.999996
 20
28426.722129
 30
0.0
 11
3940.5
 21
28426.722129
 31
0.0
  0
SOLID
  5
26
  8
0
  6
BYBLOCK
 62
     9
 10
4680.000004
 20
28430.055462
 30
0.0
 11
4680.000004
 21
28423.388795
 31
0.0
 12
4700.000004
 22
28426.722129
 32
0.0
 13
4700.000004
 23
28426.722129
 33
0.0
  0
SOLID
  5
27
  8
0
  6
BYBLOCK
 62
     9
 10
3319.999996
 20
28430.055462
 30
0.0
 11
3319.999996
 21
28423.388795
 31
0.0
 12
3299.999996
 22
28426.722129
 32
0.0
 13
3299.999996
 23
28426.722129
 33
0.0
  0
TEXT
  5
28
  8
0
  6
BYBLOCK
 62
    11
 10
3947.5
 20
28409.222129
 30
0.0
 40
35.0
  1
1400
  0
POINT
  5
29
  8
DEFPOINTS
  6
BYBLOCK
 62
     0
 10
4700.000004
 20
28327.0
 30
0.0
  0
POINT
  5
2B
  8
DEFPOINTS
  6
BYBLOCK
 62
     0
 10
3299.999996
 20
28327.0
 30
0.0
  0
POINT
  5
2C
  8
DEFPOINTS
  6
BYBLOCK
 62
     0
 10
3299.999996
 20
28426.722129
 30
0.0
  0
ENDBLK
  5
2E
  8
0
  0
BLOCK
  8
0
  2
*D1
 70
     1
 10
0.0
 20
0.0
 30
0.0
  3
*D1
  1

  0
LINE
  5
88
  8
0
  6
BYBLOCK
 62
     9
 10
4700.000004
 20
28337.0
 30
0.0
 11
4700.000004
 21
28385.245923
 31
0.0
  0
LINE
  5
89
  8
0
  6
BYBLOCK
 62
     9
 10
4390.000004
 20
28010.0
 30
0.0
 11
4390.000004
 21
28385.245923
 31
0.0
  0
LINE
  5
8A
  8
0
  6
BYBLOCK
 62
     9
 10
4680.000004
 20
28384.245923
 30
0.0
 11
4589.916671
 21
28384.245923
 31
0.0
  0
LINE
  5
8B
  8
0
  6
BYBLOCK
 62
     9
 10
4410.000004
 20
28384.245923
 30
0.0
 11
4500.083337
 21
28384.245923
 31
0.0
  0
SOLID
  5
8C
  8
0
  6
BYBLOCK
 62
     9
 10
4680.000004
 20
28387.579256
 30
0.0
 11
4680.000004
 21
28380.912589
 31
0.0
 12
4700.000004
 22
28384.245923
 32
0.0
 13
4700.000004
 23
28384.245923
 33
0.0
  0
SOLID
  5
8D
  8
0
  6
BYBLOCK
 62
     9
 10
4410.000004
 20
28387.579256
 30
0.0
 11
4410.000004
 21
28380.912589
 31
0.0
 12
4390.000004
 22
28384.245923
 32
0.0
 13
4390.000004
 23
28384.245923
 33
0.0
  0
TEXT
  5
8E
  8
0
  6
BYBLOCK
 62
    11
 10
4507.083337
 20
28366.745923
 30
0.0
 40
35.0
  1
310
  0
POINT
  5
8F
  8
DEFPOINTS
  6
BYBLOCK
 62
     0
 10
4700.000004
 20
28327.0
 30
0.0
  0
POINT
  5
90
  8
DEFPOINTS
  6
BYBLOCK
 62
     0
 10
4390.000004
 20
28000.0
 30
0.0
  0
POINT
  5
91
  8
DEFPOINTS
  6
BYBLOCK
 62
     0
 10
4390.000004
 20
28384.245923
 30
0.0
  0
ENDBLK
  5
93
  8
0
  0
BLOCK
  8
0
  2
*D2
 70
     1
 10
0.0
 20
0.0
 30
0.0
  3
*D2
  1

  0
LINE
  5
7A
  8
0
  6
BYBLOCK
 62
     9
 10
4687.000004
 20
28349.999939
 30
0.0
 11
4736.8135
 21
28349.999939
 31
0.0
  0
LINE
  5
7B
  8
0
  6
BYBLOCK
 62
     9
 10
4687.000004
 20
27649.999908
 30
0.0
 11
4736.8135
 21
27649.999908
 31
0.0
  0
LINE
  5
7C
  8
0
  6
BYBLOCK
 62
     9
 10
4735.8135
 20
28329.999939
 30
0.0
 11
4735.8135
 21
28047.833257
 31
0.0
  0
LINE
  5
7D
  8
0
  6
BYBLOCK
 62
     9
 10
4735.8135
 20
27669.999908
 30
0.0
 11
4735.8135
 21
27952.16659
 31
0.0
  0
SOLID
  5
7E
  8
0
  6
BYBLOCK
 62
     9
 10
4732.480167
 20
28329.999939
 30
0.0
 11
4739.146833
 21
28329.999939
 31
0.0
 12
4735.8135
 22
28349.999939
 32
0.0
 13
4735.8135
 23
28349.999939
 33
0.0
  0
SOLID
  5
7F
  8
0
  6
BYBLOCK
 62
     9
 10
4732.480167
 20
27669.999908
 30
0.0
 11
4739.146833
 21
27669.999908
 31
0.0
 12
4735.8135
 22
27649.999908
 32
0.0
 13
4735.8135
 23
27649.999908
 33
0.0
  0
TEXT
  5
80
  8
0
  6
BYBLOCK
 62
    11
 10
4753.3135
 20
27959.16659
 30
0.0
 40
35.0
  1
700
 50
90.0
  0
POINT
  5
81
  8
DEFPOINTS
  6
BYBLOCK
 62
     0
 10
4677.000004
 20
28349.999939
 30
0.0
  0
POINT
  5
82
  8
DEFPOINTS
  6
BYBLOCK
 62
     0
 10
4677.000004
 20
27649.999908
 30
0.0
  0
POINT
  5
83
  8
DEFPOINTS
  6
BYBLOCK
 62
     0
 10
4735.8135
 20
27649.999908
 30
0.0
  0
ENDBLK
  5
85
  8
0
  0
ENDSEC
  0
SECTION
  2
ENTITIES
  0
DIMENSION
  5
20
  8
TEAM-MAS
  2
*D0
 10
-700.000004
 20
426.722129
 30
0.0
 11
0.0
 21
426.722129
 31
0.0
 12
-4000.0
 22
-28000.0
 32
0.0
 13
700.000004
 23
327.0
 33
0.0
 14
-700.000004
 24
327.0
 34
0.0
1001
ACAD
1000
DSTYLE
1002
{
1070
    40
1040
1.0
1002
}
  0
ARC
  5
2F
  8
TEAM-BODY
 10
-530.225597
 20
24711.947571
 30
0.0
 40
24999.998047
 50
270.114685
 51
272.166748
  0
ARC
  5
31
  8
TEAM-BODY
 10
-530.226574
 20
-24711.946961
 30
0.0
 40
24999.998047
 50
87.833237
 51
89.885315
  0
LINE
  5
32
  8
TEAM-BODY
 10
677.000004
 20
-350.000092
 30
0.0
 11
-677.000004
 21
-350.000092
 31
0.0
  0
LINE
  5
33
  8
TEAM-BODY
 10
677.000004
 20
349.999939
 30
0.0
 11
-677.000004
 21
349.999939
 31
0.0
  0
LINE
  5
34
  8
TEAM-AXE
 10
700.000004
 20
0.0
 30
0.0
 11
-700.000004
 21
0.0
 31
0.0
  0
LINE
  5
37
  8
TEAM-BODY
 10
310.000004
 20
-125.0
 30
0.0
 11
-176.793026
 21
-125.000122
 31
0.0
  0
LINE
  5
38
  8
TEAM-BODY
 10
310.000004
 20
125.0
 30
0.0
 11
-176.793026
 21
125.0
 31
0.0
  0
TEXT
  5
39
  8
TEAM-TXT
 10
-476.887338
 20
214.340289
 30
0.0
 40
30.0
  1
team 111391
 41
0.7
 51
15.0
  7
TEAM
  0
ARC
  5
3C
  8
TEAM-BODY
 10
-480.18655
 20
-158.000122
 30
0.0
 40
129.999985
 50
190.712494
 51
270.0
  0
ARC
  5
3D
  8
TEAM-BODY
 10
-677.000004
 20
-327.000092
 30
0.0
 40
22.999998
 50
180.0
 51
270.0
  0
ARC
  5
3E
  8
TEAM-BODY
 10
-480.18655
 20
158.0
 30
0.0
 40
129.999985
 50
90.0
 51
169.319748
  0
ARC
  5
3F
  8
TEAM-BODY
 10
355.000004
 20
0.0
 30
0.0
 40
979.999939
 50
169.291718
 51
190.71257
  0
ARC
  5
40
  8
TEAM-BODY
 10
-677.000004
 20
327.0
 30
0.0
 40
22.999998
 50
90.0
 51
180.0
  0
LINE
  5
41
  8
TEAM-BODY
 10
-700.000004
 20
327.0
 30
0.0
 11
-700.000004
 21
-327.000092
 31
0.0
  0
ARC
  5
42
  8
TEAM-BODY
 10
-176.793026
 20
-65.000122
 30
0.0
 40
59.999996
 50
186.434677
 51
270.0
  0
ARC
  5
43
  8
TEAM-BODY
 10
-176.793026
 20
65.0
 30
0.0
 40
59.999996
 50
90.0
 51
173.565308
  0
ARC
  5
44
  8
TEAM-BODY
 10
399.553715
 20
0.0
 30
0.0
 40
639.999939
 50
173.565399
 51
186.434601
  0
POLYLINE
  5
45
  8
TEAM-DET1
 66
     1
 10
0.0
 20
0.0
 30
0.0
  0
VERTEX
  5
FC
  8
TEAM-DET1
 10
580.000004
 20
-26.0
 30
0.0
  0
VERTEX
  5
FD
  8
TEAM-DET1
 10
581.614262
 20
-25.658936
 30
0.0
  0
VERTEX
  5
FE
  8
TEAM-DET1
 10
583.120609
 20
-24.70166
 30
0.0
  0
VERTEX
  5
FF
  8
TEAM-DET1
 10
584.443363
 20
-23.292481
 30
0.0
  0
VERTEX
  5
100
  8
TEAM-DET1
 10
585.55225
 20
-21.624268
 30
0.0
  0
VERTEX
  5
101
  8
TEAM-DET1
 10
586.453129
 20
-19.861328
 30
0.0
  0
VERTEX
  5
102
  8
TEAM-DET1
 10
587.172855
 20
-18.116455
 30
0.0
  0
VERTEX
  5
103
  8
TEAM-DET1
 10
587.74268
 20
-16.454102
 30
0.0
  0
VERTEX
  5
104
  8
TEAM-DET1
 10
588.193851
 20
-14.904541
 30
0.0
  0
VERTEX
  5
105
  8
TEAM-DET1
 10
588.551762
 20
-13.47583
 30
0.0
  0
VERTEX
  5
106
  8
TEAM-DET1
 10
588.837894
 20
-12.164429
 30
0.0
  0
VERTEX
  5
107
  8
TEAM-DET1
 10
589.067875
 20
-10.961182
 30
0.0
  0
VERTEX
  5
108
  8
TEAM-DET1
 10
589.630863
 20
-6.997315
 30
0.0
  0
VERTEX
  5
109
  8
TEAM-DET1
 10
589.951664
 20
-2.555176
 30
0.0
  0
VERTEX
  5
10A
  8
TEAM-DET1
 10
589.886234
 20
3.914184
 30
0.0
  0
VERTEX
  5
10B
  8
TEAM-DET1
 10
589.067875
 20
10.961181
 30
0.0
  0
VERTEX
  5
10C
  8
TEAM-DET1
 10
588.837894
 20
12.164429
 30
0.0
  0
VERTEX
  5
10D
  8
TEAM-DET1
 10
588.551762
 20
13.47583
 30
0.0
  0
VERTEX
  5
10E
  8
TEAM-DET1
 10
588.193851
 20
14.904541
 30
0.0
  0
VERTEX
  5
10F
  8
TEAM-DET1
 10
587.74268
 20
16.454223
 30
0.0
  0
VERTEX
  5
110
  8
TEAM-DET1
 10
587.172855
 20
18.116455
 30
0.0
  0
VERTEX
  5
111
  8
TEAM-DET1
 10
586.453129
 20
19.86145
 30
0.0
  0
VERTEX
  5
112
  8
TEAM-DET1
 10
585.55225
 20
21.624389
 30
0.0
  0
VERTEX
  5
113
  8
TEAM-DET1
 10
584.443363
 20
23.29248
 30
0.0
  0
VERTEX
  5
114
  8
TEAM-DET1
 10
583.120609
 20
24.70166
 30
0.0
  0
VERTEX
  5
115
  8
TEAM-DET1
 10
581.614262
 20
25.658935
 30
0.0
  0
VERTEX
  5
116
  8
TEAM-DET1
 10
580.000004
 20
26.0
 30
0.0
  0
VERTEX
  5
117
  8
TEAM-DET1
 10
578.385746
 20
25.658935
 30
0.0
  0
VERTEX
  5
118
  8
TEAM-DET1
 10
576.879398
 20
24.70166
 30
0.0
  0
VERTEX
  5
119
  8
TEAM-DET1
 10
575.556644
 20
23.29248
 30
0.0
  0
VERTEX
  5
11A
  8
TEAM-DET1
 10
574.447758
 20
21.624267
 30
0.0
  0
VERTEX
  5
11B
  8
TEAM-DET1
 10
573.54639
 20
19.861328
 30
0.0
  0
VERTEX
  5
11C
  8
TEAM-DET1
 10
572.827152
 20
18.116333
 30
0.0
  0
VERTEX
  5
11D
  8
TEAM-DET1
 10
572.257328
 20
16.454101
 30
0.0
  0
VERTEX
  5
11E
  8
TEAM-DET1
 10
571.806156
 20
14.904419
 30
0.0
  0
VERTEX
  5
11F
  8
TEAM-DET1
 10
571.448246
 20
13.475708
 30
0.0
  0
VERTEX
  5
120
  8
TEAM-DET1
 10
571.162113
 20
12.164429
 30
0.0
  0
VERTEX
  5
121
  8
TEAM-DET1
 10
570.932133
 20
10.961181
 30
0.0
  0
VERTEX
  5
122
  8
TEAM-DET1
 10
570.746098
 20
9.85437
 30
0.0
  0
VERTEX
  5
123
  8
TEAM-DET1
 10
570.28516
 20
6.165161
 30
0.0
  0
VERTEX
  5
124
  8
TEAM-DET1
 10
570.026859
 20
1.902466
 30
0.0
  0
VERTEX
  5
125
  8
TEAM-DET1
 10
570.159672
 20
-4.630493
 30
0.0
  0
VERTEX
  5
126
  8
TEAM-DET1
 10
571.162113
 20
-12.164551
 30
0.0
  0
VERTEX
  5
127
  8
TEAM-DET1
 10
571.448246
 20
-13.47583
 30
0.0
  0
VERTEX
  5
128
  8
TEAM-DET1
 10
571.806156
 20
-14.904541
 30
0.0
  0
VERTEX
  5
129
  8
TEAM-DET1
 10
572.257328
 20
-16.454224
 30
0.0
  0
VERTEX
  5
12A
  8
TEAM-DET1
 10
572.827152
 20
-18.116455
 30
0.0
  0
VERTEX
  5
12B
  8
TEAM-DET1
 10
573.546879
 20
-19.86145
 30
0.0
  0
SEQEND
  5
12C
  8
TEAM-DET1
  0
DIMENSION
  5
78
  8
TEAM-MAS
  2
*D2
 10
735.8135
 20
-350.000092
 30
0.0
 11
735.8135
 21
-0.000077
 31
0.0
 12
-4000.0
 22
-28000.0
 32
0.0
 13
677.000004
 23
349.999939
 33
0.0
 14
677.000004
 24
-350.000092
 34
0.0
 50
90.0
1001
ACAD
1000
DSTYLE
1002
{
1070
    40
1040
1.0
1002
}
  0
DIMENSION
  5
86
  8
TEAM-MAS
  2
*D1
 10
390.000004
 20
384.245923
 30
0.0
 11
545.000004
 21
384.245923
 31
0.0
 12
-4000.0
 22
-28000.0
 32
0.0
 13
700.000004
 23
327.0
 33
0.0
 14
390.000004
 24
0.0
 34
0.0
1001
ACAD
1000
DSTYLE
1002
{
1070
    40
1040
1.0
1002
}
  0
CIRCLE
  5
94
  8
TEAM-INSP
 10
0.0
 20
0.0
 30
0.0
 40
10.0
  0
POLYLINE
  5
96
  8
TEAM-BODY
 66
     1
 10
0.0
 20
0.0
 30
0.0
  0
VERTEX
  5
12D
  8
TEAM-BODY
 10
573.546879
 20
-19.86145
 30
0.0
  0
VERTEX
  5
12E
  8
TEAM-BODY
 10
574.447758
 20
-21.62439
 30
0.0
  0
VERTEX
  5
12F
  8
TEAM-BODY
 10
575.556644
 20
-23.292481
 30
0.0
  0
VERTEX
  5
130
  8
TEAM-BODY
 10
576.879398
 20
-24.70166
 30
0.0
  0
VERTEX
  5
131
  8
TEAM-BODY
 10
578.385746
 20
-25.659058
 30
0.0
  0
VERTEX
  5
132
  8
TEAM-BODY
 10
580.000004
 20
-26.0
 30
0.0
  0
SEQEND
  5
133
  8
TEAM-BODY
  0
POLYLINE
  5
9E
  8
TEAM-BODY
 66
     1
 10
0.0
 20
0.0
 30
0.0
  0
VERTEX
  5
134
  8
TEAM-BODY
 10
565.213383
 20
-178.311615
 30
0.0
  0
VERTEX
  5
135
  8
TEAM-BODY
 10
564.952152
 20
-178.737396
 30
0.0
  0
VERTEX
  5
136
  8
TEAM-BODY
 10
556.014164
 20
-191.556488
 30
0.0
  0
VERTEX
  5
137
  8
TEAM-BODY
 10
546.088383
 20
-204.018158
 30
0.0
  0
VERTEX
  5
138
  8
TEAM-BODY
 10
535.138676
 20
-215.973725
 30
0.0
  0
VERTEX
  5
139
  8
TEAM-BODY
 10
523.145023
 20
-227.249115
 30
0.0
  0
VERTEX
  5
13A
  8
TEAM-BODY
 10
510.114262
 20
-237.648529
 30
0.0
  0
VERTEX
  5
13B
  8
TEAM-BODY
 10
496.0835
 20
-246.960541
 30
0.0
  0
VERTEX
  5
13C
  8
TEAM-BODY
 10
481.12891
 20
-254.967377
 30
0.0
  0
VERTEX
  5
13D
  8
TEAM-BODY
 10
465.366215
 20
-261.459076
 30
0.0
  0
VERTEX
  5
13E
  8
TEAM-BODY
 10
448.952152
 20
-266.247894
 30
0.0
  0
VERTEX
  5
13F
  8
TEAM-BODY
 10
432.081058
 20
-269.185394
 30
0.0
  0
VERTEX
  5
140
  8
TEAM-BODY
 10
414.973637
 20
-270.175629
 30
0.0
  0
SEQEND
  5
141
  8
TEAM-BODY
  0
POLYLINE
  5
AD
  8
TEAM-BODY
 66
     1
 10
0.0
 20
0.0
 30
0.0
  0
VERTEX
  5
142
  8
TEAM-BODY
 10
565.213383
 20
178.311645
 30
0.0
  0
VERTEX
  5
143
  8
TEAM-BODY
 10
564.952152
 20
178.737305
 30
0.0
  0
VERTEX
  5
144
  8
TEAM-BODY
 10
556.014164
 20
191.556518
 30
0.0
  0
VERTEX
  5
145
  8
TEAM-BODY
 10
546.088383
 20
204.018188
 30
0.0
  0
VERTEX
  5
146
  8
TEAM-BODY
 10
535.138676
 20
215.973633
 30
0.0
  0
VERTEX
  5
147
  8
TEAM-BODY
 10
523.145023
 20
227.248901
 30
0.0
  0
VERTEX
  5
148
  8
TEAM-BODY
 10
510.114262
 20
237.648437
 30
0.0
  0
VERTEX
  5
149
  8
TEAM-BODY
 10
496.0835
 20
246.960449
 30
0.0
  0
VERTEX
  5
14A
  8
TEAM-BODY
 10
481.12891
 20
254.967407
 30
0.0
  0
VERTEX
  5
14B
  8
TEAM-BODY
 10
465.366215
 20
261.459106
 30
0.0
  0
VERTEX
  5
14C
  8
TEAM-BODY
 10
448.952152
 20
266.247925
 30
0.0
  0
VERTEX
  5
14D
  8
TEAM-BODY
 10
432.081058
 20
269.185425
 30
0.0
  0
VERTEX
  5
14E
  8
TEAM-BODY
 10
414.973637
 20
270.175537
 30
0.0
  0
SEQEND
  5
14F
  8
TEAM-BODY
  0
CIRCLE
  5
BC
  8
TEAM-BODY
 10
390.000004
 20
0.0
 30
0.0
 40
25.999998
  0
ARC
  5
BD
  8
TEAM-BODY
 10
355.490238
 20
-42.237427
 30
0.0
 40
249.999985
 50
327.023346
 51
358.616974
  0
ARC
  5
BE
  8
TEAM-BODY
 10
355.490238
 20
42.237305
 30
0.0
 40
249.999985
 50
1.382982
 51
32.976654
  0
ARC
  5
BF
  8
TEAM-BODY
 10
-1393.999935
 20
0.0
 30
0.0
 40
1999.999878
 50
358.617004
 51
1.383
  0
ARC
  5
C0
  8
TEAM-BODY
 10
677.000004
 20
-327.000092
 30
0.0
 40
22.999998
 50
270.0
 51
0.000608
  0
ARC
  5
C1
  8
TEAM-BODY
 10
677.000004
 20
327.0
 30
0.0
 40
22.999998
 50
0.0
 51
90.0
  0
LINE
  5
C2
  8
TEAM-BODY
 10
700.000004
 20
-326.999848
 30
0.0
 11
700.000004
 21
327.0
 31
0.0
  0
LINE
  5
C3
  8
TEAM-AXE
 10
-0.000057
 20
349.999939
 30
0.0
 11
-0.000057
 21
-350.000092
 31
0.0
  0
ARC
  5
C4
  8
TEAM-BODY
 10
310.000004
 20
0.0
 30
0.0
 40
124.999992
 50
270.0
 51
90.0
  0
ENDSEC
  0
EOF
