  0
SECTION
  2
HEADER
  9
$ACADVER
  1
AC1009
  9
$INSBASE
 10
0.0
 20
0.0
 30
0.0
  9
$EXTMIN
 10
-701.268891
 20
-10.023633
 30
0.0
  9
$EXTMAX
 10
747.31326
 20
612.202482
 30
0.000005
  9
$LIMMIN
 10
-701.268891
 20
-10.023633
  9
$LIMMAX
 10
747.31326
 20
612.202482
  9
$ORTHOMODE
 70
     1
  9
$REGENMODE
 70
     1
  9
$FILLMODE
 70
     1
  9
$QTEXTMODE
 70
     0
  9
$MIRRTEXT
 70
     0
  9
$DRAGMODE
 70
     2
  9
$LTSCALE
 40
50.0
  9
$OSMODE
 70
     0
  9
$ATTMODE
 70
     1
  9
$TEXTSIZE
 40
200.0
  9
$TRACEWID
 40
1.0
  9
$TEXTSTYLE
  7
STANDARD
  9
$CLAYER
  8
TEAM-MAS
  9
$CELTYPE
  6
BYLAYER
  9
$CECOLOR
 62
   256
  9
$DIMSCALE
 40
0.0
  9
$DIMASZ
 40
20.0
  9
$DIMEXO
 40
10.0
  9
$DIMDLI
 40
1.0
  9
$DIMRND
 40
0.0
  9
$DIMDLE
 40
0.0
  9
$DIMEXE
 40
1.0
  9
$DIMTP
 40
0.0
  9
$DIMTM
 40
0.0
  9
$DIMTXT
 40
35.0
  9
$DIMCEN
 40
1.0
  9
$DIMTSZ
 40
0.0
  9
$DIMTOL
 70
     0
  9
$DIMLIM
 70
     0
  9
$DIMTIH
 70
     0
  9
$DIMTOH
 70
     0
  9
$DIMSE1
 70
     0
  9
$DIMSE2
 70
     0
  9
$DIMTAD
 70
     0
  9
$DIMZIN
 70
     0
  9
$DIMBLK
  1

  9
$DIMASO
 70
     1
  9
$DIMSHO
 70
     0
  9
$DIMPOST
  1

  9
$DIMAPOST
  1

  9
$DIMALT
 70
     0
  9
$DIMALTD
 70
     2
  9
$DIMALTF
 40
25.4
  9
$DIMLFAC
 40
1.0
  9
$DIMTOFL
 70
     0
  9
$DIMTVP
 40
0.0
  9
$DIMTIX
 70
     0
  9
$DIMSOXD
 70
     0
  9
$DIMSAH
 70
     0
  9
$DIMBLK1
  1

  9
$DIMBLK2
  1

  9
$DIMSTYLE
  2
TEAM
  9
$DIMCLRD
 70
     9
  9
$DIMCLRE
 70
     9
  9
$DIMCLRT
 70
    11
  9
$DIMTFAC
 40
1.0
  9
$DIMGAP
 40
7.0
  9
$LUNITS
 70
     2
  9
$LUPREC
 70
     1
  9
$SKETCHINC
 40
1.0
  9
$FILLETRAD
 40
50.0
  9
$AUNITS
 70
     0
  9
$AUPREC
 70
     0
  9
$MENU
  1
ROPLANS
  9
$ELEVATION
 40
0.0
  9
$PELEVATION
 40
0.0
  9
$THICKNESS
 40
0.0
  9
$LIMCHECK
 70
     0
  9
$BLIPMODE
 70
     1
  9
$CHAMFERA
 40
0.0
  9
$CHAMFERB
 40
0.0
  9
$SKPOLY
 70
     0
  9
$TDCREATE
 40
2450392.957851
  9
$TDUPDATE
 40
2456124.650986
  9
$TDINDWG
 40
2.269834
  9
$TDUSRTIMER
 40
2.269834
  9
$USRTIMER
 70
     1
  9
$ANGBASE
 50
0.0
  9
$ANGDIR
 70
     0
  9
$PDMODE
 70
     0
  9
$PDSIZE
 40
0.0
  9
$PLINEWID
 40
0.0
  9
$COORDS
 70
     2
  9
$SPLFRAME
 70
     0
  9
$SPLINETYPE
 70
     6
  9
$SPLINESEGS
 70
     8
  9
$ATTDIA
 70
     0
  9
$ATTREQ
 70
     0
  9
$HANDLING
 70
     1
  9
$HANDSEED
  5
A3
  9
$SURFTAB1
 70
    24
  9
$SURFTAB2
 70
    24
  9
$SURFTYPE
 70
     6
  9
$SURFU
 70
     6
  9
$SURFV
 70
     6
  9
$UCSNAME
  2

  9
$UCSORG
 10
0.0
 20
0.0
 30
0.0
  9
$UCSXDIR
 10
1.0
 20
0.0
 30
0.0
  9
$UCSYDIR
 10
0.0
 20
1.0
 30
0.0
  9
$PUCSNAME
  2

  9
$PUCSORG
 10
0.0
 20
0.0
 30
0.0
  9
$PUCSXDIR
 10
1.0
 20
0.0
 30
0.0
  9
$PUCSYDIR
 10
0.0
 20
1.0
 30
0.0
  9
$USERI1
 70
     0
  9
$USERI2
 70
     0
  9
$USERI3
 70
     0
  9
$USERI4
 70
     0
  9
$USERI5
 70
     0
  9
$USERR1
 40
0.0
  9
$USERR2
 40
0.0
  9
$USERR3
 40
0.0
  9
$USERR4
 40
0.0
  9
$USERR5
 40
0.0
  9
$WORLDVIEW
 70
     1
  9
$SHADEDGE
 70
     0
  9
$SHADEDIF
 70
    70
  9
$TILEMODE
 70
     1
  9
$MAXACTVP
 70
    16
  9
$PLIMCHECK
 70
     0
  9
$PEXTMIN
 10
-0.805942
 20
0.005011
 30
0.0
  9
$PEXTMAX
 10
20.250094
 20
11.356329
 30
0.0
  9
$PLIMMIN
 10
0.0
 20
0.0
  9
$PLIMMAX
 10
12.0
 20
9.0
  9
$UNITMODE
 70
     0
  9
$VISRETAIN
 70
     0
  9
$PLINEGEN
 70
     0
  9
$PSLTSCALE
 70
     0
  0
ENDSEC
  0
SECTION
  2
TABLES
  0
TABLE
  2
VPORT
 70
     2
  0
VPORT
  2
*ACTIVE
 70
     0
 10
0.0
 20
0.0
 11
1.0
 21
1.0
 12
23.022184
 22
301.089424
 13
0.0
 23
0.0
 14
1.0
 24
1.0
 15
50.0
 25
50.0
 16
0.0
 26
0.0
 36
1.0
 17
0.0
 27
0.0
 37
0.0
 40
760.215251
 41
1.911765
 42
50.0
 43
0.0
 44
0.0
 50
0.0
 51
0.0
 71
     0
 72
   100
 73
     1
 74
     1
 75
     0
 76
     0
 77
     0
 78
     0
  0
ENDTAB
  0
TABLE
  2
LTYPE
 70
     2
  0
LTYPE
  2
CONTINUOUS
 70
     0
  3
Solid Line
 72
    65
 73
     0
 40
0.0
  0
LTYPE
  2
31
 70
     0
  3

 72
    65
 73
     4
 40
2.1
 49
1.5
 49
-0.3
 49
0.0
 49
-0.3
  0
ENDTAB
  0
TABLE
  2
LAYER
 70
     7
  0
LAYER
  2
0
 70
     0
 62
     7
  6
CONTINUOUS
  0
LAYER
  2
DEFPOINTS
 70
     0
 62
     7
  6
CONTINUOUS
  0
LAYER
  2
TEAM-BODY
 70
     0
 62
     2
  6
CONTINUOUS
  0
LAYER
  2
TEAM-AXE
 70
     0
 62
    10
  6
31
  0
LAYER
  2
TEAM-MAS
 70
     0
 62
     9
  6
CONTINUOUS
  0
LAYER
  2
TEAM-TXT
 70
     0
 62
    11
  6
CONTINUOUS
  0
LAYER
  2
TEAM-INSP
 70
     0
 62
     5
  6
CONTINUOUS
  0
ENDTAB
  0
TABLE
  2
STYLE
 70
     2
  0
STYLE
  2
STANDARD
 70
     0
 40
0.0
 41
1.0
 50
0.0
 71
     0
 42
200.0
  3
txt
  4

  0
STYLE
  2
TEAM
 70
     0
 40
0.0
 41
0.8
 50
15.0
 71
     0
 42
7.0
  3
ROMANS.shx
  4

  0
ENDTAB
  0
TABLE
  2
VIEW
 70
     0
  0
ENDTAB
  0
TABLE
  2
UCS
 70
     0
  0
ENDTAB
  0
TABLE
  2
APPID
 70
     1
  0
APPID
  2
ACAD
 70
     0
  0
ENDTAB
  0
TABLE
  2
DIMSTYLE
 70
     1
  0
DIMSTYLE
  2
TEAM
 70
     0
  3

  4

  5

  6

  7

 40
0.0
 41
20.0
 42
10.0
 43
1.0
 44
1.0
 45
0.0
 46
0.0
 47
0.0
 48
0.0
140
35.0
141
1.0
142
0.0
143
25.4
144
1.0
145
0.0
146
1.0
147
7.0
 71
     0
 72
     0
 73
     0
 74
     0
 75
     0
 76
     0
 77
     0
 78
     0
170
     0
171
     2
172
     0
173
     0
174
     0
175
     0
176
     9
177
     9
178
    11
  0
ENDTAB
  0
ENDSEC
  0
SECTION
  2
BLOCKS
  0
BLOCK
  8
0
  2
$MODEL_SPACE
 70
     0
 10
0.0
 20
0.0
 30
0.0
  3
$MODEL_SPACE
  1

  0
ENDBLK
  5
9C
  8
0
  0
BLOCK
 67
     1
  8
0
  2
$PAPER_SPACE
 70
     0
 10
0.0
 20
0.0
 30
0.0
  3
$PAPER_SPACE
  1

  0
ENDBLK
  5
9A
 67
     1
  8
0
  0
BLOCK
  8
0
  2
*D0
 70
     1
 10
0.0
 20
0.0
 30
0.0
  3
*D0
  1

  0
LINE
  5
27
  8
0
  6
BYBLOCK
 62
     9
 10
11299.999996
 20
28559.0
 30
0.0
 11
11299.999996
 21
28590.677993
 31
0.0
  0
LINE
  5
28
  8
0
  6
BYBLOCK
 62
     9
 10
12700.000004
 20
28559.0
 30
0.0
 11
12700.000004
 21
28590.677993
 31
0.0
  0
LINE
  5
29
  8
0
  6
BYBLOCK
 62
     9
 10
11319.999996
 20
28589.677993
 30
0.0
 11
11940.5
 21
28589.677993
 31
0.0
  0
LINE
  5
2A
  8
0
  6
BYBLOCK
 62
     9
 10
12680.000004
 20
28589.677993
 30
0.0
 11
12059.5
 21
28589.677993
 31
0.0
  0
SOLID
  5
2B
  8
0
  6
BYBLOCK
 62
     9
 10
11319.999996
 20
28593.011327
 30
0.0
 11
11319.999996
 21
28586.34466
 31
0.0
 12
11299.999996
 22
28589.677993
 32
0.0
 13
11299.999996
 23
28589.677993
 33
0.0
  0
SOLID
  5
2C
  8
0
  6
BYBLOCK
 62
     9
 10
12680.000004
 20
28593.011327
 30
0.0
 11
12680.000004
 21
28586.34466
 31
0.0
 12
12700.000004
 22
28589.677993
 32
0.0
 13
12700.000004
 23
28589.677993
 33
0.0
  0
TEXT
  5
2D
  8
0
  6
BYBLOCK
 62
    11
 10
11947.5
 20
28572.177993
 30
0.0
 40
35.0
  1
1400
  0
POINT
  5
2E
  8
DEFPOINTS
  6
BYBLOCK
 62
     0
 10
11299.999996
 20
28549.0
 30
0.0
  0
POINT
  5
30
  8
DEFPOINTS
  6
BYBLOCK
 62
     0
 10
12700.000004
 20
28549.0
 30
0.0
  0
POINT
  5
31
  8
DEFPOINTS
  6
BYBLOCK
 62
     0
 10
12700.000004
 20
28589.677993
 30
0.0
  0
ENDBLK
  5
33
  8
0
  0
BLOCK
  8
0
  2
*D1
 70
     1
 10
0.0
 20
0.0
 30
0.0
  3
*D1
  1

  0
LINE
  5
36
  8
0
  6
BYBLOCK
 62
     9
 10
12704.000004
 20
28555.0
 30
0.0
 11
12730.713664
 21
28555.0
 31
0.0
  0
LINE
  5
37
  8
0
  6
BYBLOCK
 62
     9
 10
12416.000609
 20
28145.000001
 30
0.0
 11
12730.713664
 21
28145.000001
 31
0.0
  0
LINE
  5
38
  8
0
  6
BYBLOCK
 62
     9
 10
12729.713664
 20
28535.0
 30
0.0
 11
12729.713664
 21
28394.916667
 31
0.0
  0
LINE
  5
39
  8
0
  6
BYBLOCK
 62
     9
 10
12729.713664
 20
28165.000001
 30
0.0
 11
12729.713664
 21
28305.083334
 31
0.0
  0
SOLID
  5
3A
  8
0
  6
BYBLOCK
 62
     9
 10
12726.380331
 20
28535.0
 30
0.0
 11
12733.046998
 21
28535.0
 31
0.0
 12
12729.713664
 22
28555.0
 32
0.0
 13
12729.713664
 23
28555.0
 33
0.0
  0
SOLID
  5
3B
  8
0
  6
BYBLOCK
 62
     9
 10
12726.380331
 20
28165.000001
 30
0.0
 11
12733.046998
 21
28165.000001
 31
0.0
 12
12729.713664
 22
28145.000001
 32
0.0
 13
12729.713664
 23
28145.000001
 33
0.0
  0
TEXT
  5
3C
  8
0
  6
BYBLOCK
 62
    11
 10
12747.213664
 20
28312.083334
 30
0.0
 40
35.0
  1
410
 50
90.0
  0
POINT
  5
3D
  8
DEFPOINTS
  6
BYBLOCK
 62
     0
 10
12694.000004
 20
28555.0
 30
0.0
  0
POINT
  5
3E
  8
DEFPOINTS
  6
BYBLOCK
 62
     0
 10
12406.000609
 20
28145.000001
 30
0.0
  0
POINT
  5
3F
  8
DEFPOINTS
  6
BYBLOCK
 62
     0
 10
12729.713664
 20
28145.000001
 30
0.0
  0
ENDBLK
  5
41
  8
0
  0
BLOCK
  8
0
  2
*D2
 70
     1
 10
0.0
 20
0.0
 30
0.0
  3
*D2
  1

  0
LINE
  5
44
  8
0
  6
BYBLOCK
 62
     9
 10
12353.999398
 20
28134.999998
 30
0.0
 11
12353.999398
 21
28101.903585
 31
0.0
  0
LINE
  5
45
  8
0
  6
BYBLOCK
 62
     9
 10
12406.000609
 20
28135.0
 30
0.0
 11
12406.000609
 21
28101.903585
 31
0.0
  0
LINE
  5
46
  8
0
  6
BYBLOCK
 62
     9
 10
12333.999398
 20
28102.903585
 30
0.0
 11
12313.999398
 21
28102.903585
 31
0.0
  0
LINE
  5
47
  8
0
  6
BYBLOCK
 62
     9
 10
12426.000609
 20
28102.903585
 30
0.0
 11
12446.000609
 21
28102.903585
 31
0.0
  0
TEXT
  5
48
  8
0
  6
BYBLOCK
 62
    11
 10
12255.507377
 20
28085.403585
 30
0.0
 40
35.0
  1
52
  0
LINE
  5
49
  8
0
  6
BYBLOCK
 62
     9
 10
12353.999398
 20
28102.903585
 30
0.0
 11
12406.000609
 21
28102.903585
 31
0.0
  0
SOLID
  5
4A
  8
0
  6
BYBLOCK
 62
     9
 10
12333.999398
 20
28106.236918
 30
0.0
 11
12333.999398
 21
28099.570252
 31
0.0
 12
12353.999398
 22
28102.903585
 32
0.0
 13
12353.999398
 23
28102.903585
 33
0.0
  0
SOLID
  5
4B
  8
0
  6
BYBLOCK
 62
     9
 10
12426.000609
 20
28106.236918
 30
0.0
 11
12426.000609
 21
28099.570252
 31
0.0
 12
12406.000609
 22
28102.903585
 32
0.0
 13
12406.000609
 23
28102.903585
 33
0.0
  0
POINT
  5
4C
  8
DEFPOINTS
  6
BYBLOCK
 62
     0
 10
12353.999398
 20
28144.999998
 30
0.0
  0
POINT
  5
4D
  8
DEFPOINTS
  6
BYBLOCK
 62
     0
 10
12406.000609
 20
28145.0
 30
0.0
  0
POINT
  5
4E
  8
DEFPOINTS
  6
BYBLOCK
 62
     0
 10
12406.000609
 20
28102.903585
 30
0.0
  0
ENDBLK
  5
50
  8
0
  0
ENDSEC
  0
SECTION
  2
ENTITIES
  0
LINE
  5
20
  8
TEAM-BODY
 10
-694.000004
 20
560.0
 30
0.0
 11
694.000004
 21
560.0
 31
0.0
  0
LINE
  5
22
  8
TEAM-BODY
 10
-694.000004
 20
528.0
 30
0.0
 11
694.000004
 21
528.0
 31
0.0
  0
LINE
  5
23
  8
TEAM-BODY
 10
336.460824
 20
165.155395
 30
0.0
 11
423.58264
 21
165.541504
 31
0.0
  0
ARC
  5
24
  8
TEAM-BODY
 10
406.000609
 20
159.0
 30
0.0
 40
8.999999
 50
270.0
 51
352.161682
  0
DIMENSION
  5
25
  8
TEAM-MAS
  2
*D0
 10
700.000004
 20
594.677993
 30
0.0
 11
0.0
 21
589.677993
 31
0.0
 12
-12000.0
 22
-27995.0
 32
0.0
 13
-700.000004
 23
554.0
 33
0.0
 14
700.000004
 24
554.0
 34
0.0
1001
ACAD
1000
DSTYLE
1002
{
1070
    40
1040
1.0
1002
}
  0
DIMENSION
  5
34
  8
TEAM-MAS
  2
*D1
 10
729.713664
 20
150.000001
 30
0.0
 11
729.713664
 21
350.000001
 31
0.0
 12
-12000.0
 22
-27995.0
 32
0.0
 13
694.000004
 23
560.0
 33
0.0
 14
406.000609
 24
150.000001
 34
0.0
 50
90.0
1001
ACAD
1000
DSTYLE
1002
{
1070
    40
1040
1.0
1002
}
  0
DIMENSION
  5
42
  8
TEAM-MAS
  2
*D2
 10
406.000609
 20
107.903585
 30
0.0
 11
284.674043
 21
107.903585
 31
0.0
 12
-12000.0
 22
-27995.0
 32
0.0
 70
   128
 13
353.999398
 23
149.999998
 33
0.0
 14
406.000609
 24
150.0
 34
0.0
1001
ACAD
1000
DSTYLE
1002
{
1070
    40
1040
1.0
1002
}
  0
LINE
  5
51
  8
TEAM-AXE
 10
-0.000057
 20
560.0
 30
0.0
 11
-0.000057
 21
173.949585
 31
0.0
  0
LINE
  5
54
  8
TEAM-AXE
 10
380.000004
 20
560.0
 30
0.0
 11
380.000004
 21
150.0
 31
0.0
  0
ARC
  5
55
  8
TEAM-BODY
 10
655.732401
 20
1233.422208
 30
0.0
 40
1447.886128
 50
209.914328
 51
221.863698
  0
LINE
  5
56
  8
TEAM-BODY
 10
-238.203182
 20
180.187134
 30
0.0
 11
336.460824
 21
165.155395
 31
0.0
  0
LINE
  5
57
  8
TEAM-BODY
 10
353.999398
 20
150.0
 30
0.0
 11
406.000609
 21
150.0
 31
0.0
  0
ARC
  5
58
  8
TEAM-BODY
 10
-231.581112
 20
433.100464
 30
0.0
 40
252.999969
 50
220.987549
 51
268.500153
  0
ARC
  5
59
  8
TEAM-BODY
 10
336.224984
 20
156.158447
 30
0.0
 40
8.999997
 50
9.082879
 51
88.498428
  0
ARC
  5
5A
  8
TEAM-BODY
 10
353.999398
 20
159.0
 30
0.0
 40
9.000002
 50
189.082886
 51
270.0
  0
CIRCLE
  5
5B
  8
TEAM-INSP
 10
0.0
 20
0.0
 30
0.0
 40
10.0
  0
LINE
  5
5D
  8
TEAM-BODY
 10
-700.000004
 20
554.0
 30
0.0
 11
-700.000004
 21
534.0
 31
0.0
  0
ARC
  5
5E
  8
TEAM-BODY
 10
-694.000004
 20
554.0
 30
0.0
 40
6.0
 50
90.0
 51
180.0
  0
ARC
  5
5F
  8
TEAM-BODY
 10
-694.000004
 20
534.0
 30
0.0
 40
6.0
 50
180.0
 51
270.0
  0
ARC
  5
60
  8
TEAM-BODY
 10
-675.155277
 20
468.832397
 30
0.0
 40
87.000038
 50
29.259239
 51
42.85067
  0
TEXT
  5
61
  8
TEAM-TXT
 10
-433.320331
 20
460.228364
 30
0.0
 40
30.0
  1
team 111391
 41
0.7
 51
15.0
  7
TEAM
  0
ARC
  5
64
  8
TEAM-BODY
 10
100.237247
 20
474.876465
 30
0.0
 40
503.000122
 50
348.772858
 51
355.898193
  0
ARC
  5
65
  8
TEAM-BODY
 10
423.832152
 20
156.545044
 30
0.0
 40
9.000019
 50
91.588654
 51
172.160904
  0
ARC
  5
66
  8
TEAM-BODY
 10
419.394574
 20
319.249092
 30
0.0
 40
153.760456
 50
271.560771
 51
343.204645
  0
ARC
  5
67
  8
TEAM-BODY
 10
-445.613315
 20
597.225263
 30
0.0
 40
1062.315142
 50
342.332444
 51
348.03226
  0
LINE
  5
68
  8
TEAM-BODY
 10
700.000004
 20
554.0
 30
0.0
 11
700.000004
 21
534.0
 31
0.0
  0
ARC
  5
69
  8
TEAM-BODY
 10
694.000004
 20
554.0
 30
0.0
 40
6.0
 50
0.0
 51
90.0
  0
ARC
  5
6A
  8
TEAM-BODY
 10
694.000004
 20
534.0
 30
0.0
 40
6.0
 50
270.0
 51
0.0
  0
ARC
  5
6B
  8
TEAM-BODY
 10
-3390.796627
 20
725.227051
 30
0.0
 40
4002.999756
 50
355.898193
 51
357.175903
  0
ENDSEC
  0
EOF
