  0
SECTION
  2
HEADER
  9
$ACADVER
  1
AC1009
  9
$INSBASE
 10
0.0
 20
0.0
 30
0.0
  9
$EXTMIN
 10
-351.245361
 20
-10.025171
 30
0.0
  9
$EXTMAX
 10
453.368806
 20
613.147527
 30
0.000005
  9
$LIMMIN
 10
-351.245361
 20
-10.025171
  9
$LIMMAX
 10
453.368806
 20
613.147527
  9
$ORTHOMODE
 70
     1
  9
$REGENMODE
 70
     1
  9
$FILLMODE
 70
     1
  9
$QTEXTMODE
 70
     0
  9
$MIRRTEXT
 70
     0
  9
$DRAGMODE
 70
     2
  9
$LTSCALE
 40
50.0
  9
$OSMODE
 70
     0
  9
$ATTMODE
 70
     1
  9
$TEXTSIZE
 40
200.0
  9
$TRACEWID
 40
1.0
  9
$TEXTSTYLE
  7
STANDARD
  9
$CLAYER
  8
TEAM-MAS
  9
$CELTYPE
  6
BYLAYER
  9
$CECOLOR
 62
   256
  9
$DIMSCALE
 40
0.0
  9
$DIMASZ
 40
20.0
  9
$DIMEXO
 40
10.0
  9
$DIMDLI
 40
1.0
  9
$DIMRND
 40
0.0
  9
$DIMDLE
 40
0.0
  9
$DIMEXE
 40
1.0
  9
$DIMTP
 40
0.0
  9
$DIMTM
 40
0.0
  9
$DIMTXT
 40
35.0
  9
$DIMCEN
 40
1.0
  9
$DIMTSZ
 40
0.0
  9
$DIMTOL
 70
     0
  9
$DIMLIM
 70
     0
  9
$DIMTIH
 70
     0
  9
$DIMTOH
 70
     0
  9
$DIMSE1
 70
     0
  9
$DIMSE2
 70
     0
  9
$DIMTAD
 70
     0
  9
$DIMZIN
 70
     0
  9
$DIMBLK
  1

  9
$DIMASO
 70
     1
  9
$DIMSHO
 70
     0
  9
$DIMPOST
  1

  9
$DIMAPOST
  1

  9
$DIMALT
 70
     0
  9
$DIMALTD
 70
     2
  9
$DIMALTF
 40
25.4
  9
$DIMLFAC
 40
1.0
  9
$DIMTOFL
 70
     0
  9
$DIMTVP
 40
0.0
  9
$DIMTIX
 70
     0
  9
$DIMSOXD
 70
     0
  9
$DIMSAH
 70
     0
  9
$DIMBLK1
  1

  9
$DIMBLK2
  1

  9
$DIMSTYLE
  2
TEAM
  9
$DIMCLRD
 70
     9
  9
$DIMCLRE
 70
     9
  9
$DIMCLRT
 70
    11
  9
$DIMTFAC
 40
1.0
  9
$DIMGAP
 40
7.0
  9
$LUNITS
 70
     2
  9
$LUPREC
 70
     1
  9
$SKETCHINC
 40
1.0
  9
$FILLETRAD
 40
50.0
  9
$AUNITS
 70
     0
  9
$AUPREC
 70
     0
  9
$MENU
  1
ROPLANS
  9
$ELEVATION
 40
0.0
  9
$PELEVATION
 40
0.0
  9
$THICKNESS
 40
0.0
  9
$LIMCHECK
 70
     0
  9
$BLIPMODE
 70
     1
  9
$CHAMFERA
 40
0.0
  9
$CHAMFERB
 40
0.0
  9
$SKPOLY
 70
     0
  9
$TDCREATE
 40
2450392.957851
  9
$TDUPDATE
 40
2456124.650986
  9
$TDINDWG
 40
2.269834
  9
$TDUSRTIMER
 40
2.269834
  9
$USRTIMER
 70
     1
  9
$ANGBASE
 50
0.0
  9
$ANGDIR
 70
     0
  9
$PDMODE
 70
     0
  9
$PDSIZE
 40
0.0
  9
$PLINEWID
 40
0.0
  9
$COORDS
 70
     2
  9
$SPLFRAME
 70
     0
  9
$SPLINETYPE
 70
     6
  9
$SPLINESEGS
 70
     8
  9
$ATTDIA
 70
     0
  9
$ATTREQ
 70
     0
  9
$HANDLING
 70
     1
  9
$HANDSEED
  5
BC
  9
$SURFTAB1
 70
    24
  9
$SURFTAB2
 70
    24
  9
$SURFTYPE
 70
     6
  9
$SURFU
 70
     6
  9
$SURFV
 70
     6
  9
$UCSNAME
  2

  9
$UCSORG
 10
0.0
 20
0.0
 30
0.0
  9
$UCSXDIR
 10
1.0
 20
0.0
 30
0.0
  9
$UCSYDIR
 10
0.0
 20
1.0
 30
0.0
  9
$PUCSNAME
  2

  9
$PUCSORG
 10
0.0
 20
0.0
 30
0.0
  9
$PUCSXDIR
 10
1.0
 20
0.0
 30
0.0
  9
$PUCSYDIR
 10
0.0
 20
1.0
 30
0.0
  9
$USERI1
 70
     0
  9
$USERI2
 70
     0
  9
$USERI3
 70
     0
  9
$USERI4
 70
     0
  9
$USERI5
 70
     0
  9
$USERR1
 40
0.0
  9
$USERR2
 40
0.0
  9
$USERR3
 40
0.0
  9
$USERR4
 40
0.0
  9
$USERR5
 40
0.0
  9
$WORLDVIEW
 70
     1
  9
$SHADEDGE
 70
     0
  9
$SHADEDIF
 70
    70
  9
$TILEMODE
 70
     1
  9
$MAXACTVP
 70
    16
  9
$PLIMCHECK
 70
     0
  9
$PEXTMIN
 10
-0.805942
 20
0.005011
 30
0.0
  9
$PEXTMAX
 10
20.250094
 20
11.356329
 30
0.0
  9
$PLIMMIN
 10
0.0
 20
0.0
  9
$PLIMMAX
 10
12.0
 20
9.0
  9
$UNITMODE
 70
     0
  9
$VISRETAIN
 70
     0
  9
$PLINEGEN
 70
     0
  9
$PSLTSCALE
 70
     0
  0
ENDSEC
  0
SECTION
  2
TABLES
  0
TABLE
  2
VPORT
 70
     2
  0
VPORT
  2
*ACTIVE
 70
     0
 10
0.0
 20
0.0
 11
1.0
 21
1.0
 12
51.061722
 22
301.561178
 13
0.0
 23
0.0
 14
1.0
 24
1.0
 15
50.0
 25
50.0
 16
0.0
 26
0.0
 36
1.0
 17
0.0
 27
0.0
 37
0.0
 40
627.096135
 41
1.911765
 42
50.0
 43
0.0
 44
0.0
 50
0.0
 51
0.0
 71
     0
 72
   100
 73
     1
 74
     1
 75
     0
 76
     0
 77
     0
 78
     0
  0
ENDTAB
  0
TABLE
  2
LTYPE
 70
     2
  0
LTYPE
  2
CONTINUOUS
 70
     0
  3
Solid Line
 72
    65
 73
     0
 40
0.0
  0
LTYPE
  2
31
 70
     0
  3

 72
    65
 73
     4
 40
2.1
 49
1.5
 49
-0.3
 49
0.0
 49
-0.3
  0
ENDTAB
  0
TABLE
  2
LAYER
 70
     8
  0
LAYER
  2
0
 70
     0
 62
     7
  6
CONTINUOUS
  0
LAYER
  2
DEFPOINTS
 70
     0
 62
     7
  6
CONTINUOUS
  0
LAYER
  2
TEAM-BODY
 70
     0
 62
     2
  6
CONTINUOUS
  0
LAYER
  2
TEAM-AXE
 70
     0
 62
    10
  6
31
  0
LAYER
  2
TEAM-MAS
 70
     0
 62
     9
  6
CONTINUOUS
  0
LAYER
  2
TEAM-TXT
 70
     0
 62
    11
  6
CONTINUOUS
  0
LAYER
  2
TEAM-DET1
 70
     0
 62
     4
  6
CONTINUOUS
  0
LAYER
  2
TEAM-INSP
 70
     0
 62
     5
  6
CONTINUOUS
  0
ENDTAB
  0
TABLE
  2
STYLE
 70
     2
  0
STYLE
  2
STANDARD
 70
     0
 40
0.0
 41
1.0
 50
0.0
 71
     0
 42
200.0
  3
txt
  4

  0
STYLE
  2
TEAM
 70
     0
 40
0.0
 41
0.8
 50
15.0
 71
     0
 42
7.0
  3
ROMANS.shx
  4

  0
ENDTAB
  0
TABLE
  2
VIEW
 70
     0
  0
ENDTAB
  0
TABLE
  2
UCS
 70
     0
  0
ENDTAB
  0
TABLE
  2
APPID
 70
     1
  0
APPID
  2
ACAD
 70
     0
  0
ENDTAB
  0
TABLE
  2
DIMSTYLE
 70
     1
  0
DIMSTYLE
  2
TEAM
 70
     0
  3

  4

  5

  6

  7

 40
0.0
 41
20.0
 42
10.0
 43
1.0
 44
1.0
 45
0.0
 46
0.0
 47
0.0
 48
0.0
140
35.0
141
1.0
142
0.0
143
25.4
144
1.0
145
0.0
146
1.0
147
7.0
 71
     0
 72
     0
 73
     0
 74
     0
 75
     0
 76
     0
 77
     0
 78
     0
170
     0
171
     2
172
     0
173
     0
174
     0
175
     0
176
     9
177
     9
178
    11
  0
ENDTAB
  0
ENDSEC
  0
SECTION
  2
BLOCKS
  0
BLOCK
  8
0
  2
$MODEL_SPACE
 70
     0
 10
0.0
 20
0.0
 30
0.0
  3
$MODEL_SPACE
  1

  0
ENDBLK
  5
AA
  8
0
  0
BLOCK
 67
     1
  8
0
  2
$PAPER_SPACE
 70
     0
 10
0.0
 20
0.0
 30
0.0
  3
$PAPER_SPACE
  1

  0
ENDBLK
  5
A8
 67
     1
  8
0
  0
BLOCK
  8
0
  2
*D0
 70
     1
 10
0.0
 20
0.0
 30
0.0
  3
*D0
  1

  0
LINE
  5
4E
  8
0
  6
BYBLOCK
 62
     9
 10
8354.0
 20
20555.0
 30
0.0
 11
8388.895261
 21
20555.0
 31
0.0
  0
LINE
  5
4F
  8
0
  6
BYBLOCK
 62
     9
 10
8036.347
 20
20145.0
 30
0.0
 11
8388.895261
 21
20145.0
 31
0.0
  0
LINE
  5
50
  8
0
  6
BYBLOCK
 62
     9
 10
8387.895261
 20
20535.0
 30
0.0
 11
8387.895261
 21
20394.916667
 31
0.0
  0
LINE
  5
51
  8
0
  6
BYBLOCK
 62
     9
 10
8387.895261
 20
20165.0
 30
0.0
 11
8387.895261
 21
20305.083333
 31
0.0
  0
SOLID
  5
52
  8
0
  6
BYBLOCK
 62
     9
 10
8384.561928
 20
20535.0
 30
0.0
 11
8391.228594
 21
20535.0
 31
0.0
 12
8387.895261
 22
20555.0
 32
0.0
 13
8387.895261
 23
20555.0
 33
0.0
  0
SOLID
  5
53
  8
0
  6
BYBLOCK
 62
     9
 10
8384.561928
 20
20165.0
 30
0.0
 11
8391.228594
 21
20165.0
 31
0.0
 12
8387.895261
 22
20145.0
 32
0.0
 13
8387.895261
 23
20145.0
 33
0.0
  0
TEXT
  5
54
  8
0
  6
BYBLOCK
 62
    11
 10
8405.395261
 20
20312.083333
 30
0.0
 40
35.0
  1
410
 50
90.0
  0
POINT
  5
55
  8
DEFPOINTS
  6
BYBLOCK
 62
     0
 10
8344.0
 20
20555.0
 30
0.0
  0
POINT
  5
57
  8
DEFPOINTS
  6
BYBLOCK
 62
     0
 10
8026.347
 20
20145.0
 30
0.0
  0
POINT
  5
58
  8
DEFPOINTS
  6
BYBLOCK
 62
     0
 10
8387.895261
 20
20145.0
 30
0.0
  0
ENDBLK
  5
5A
  8
0
  0
BLOCK
  8
0
  2
*D1
 70
     1
 10
0.0
 20
0.0
 30
0.0
  3
*D1
  1

  0
LINE
  5
5D
  8
0
  6
BYBLOCK
 62
     9
 10
8350.0
 20
20559.0
 30
0.0
 11
8350.0
 21
20591.616856
 31
0.0
  0
LINE
  5
5E
  8
0
  6
BYBLOCK
 62
     9
 10
7650.0
 20
20559.0
 30
0.0
 11
7650.0
 21
20591.616856
 31
0.0
  0
LINE
  5
5F
  8
0
  6
BYBLOCK
 62
     9
 10
8330.0
 20
20590.616856
 30
0.0
 11
8047.833333
 21
20590.616856
 31
0.0
  0
LINE
  5
60
  8
0
  6
BYBLOCK
 62
     9
 10
7670.0
 20
20590.616856
 30
0.0
 11
7952.166667
 21
20590.616856
 31
0.0
  0
SOLID
  5
61
  8
0
  6
BYBLOCK
 62
     9
 10
8330.0
 20
20593.950189
 30
0.0
 11
8330.0
 21
20587.283522
 31
0.0
 12
8350.0
 22
20590.616856
 32
0.0
 13
8350.0
 23
20590.616856
 33
0.0
  0
SOLID
  5
62
  8
0
  6
BYBLOCK
 62
     9
 10
7670.0
 20
20593.950189
 30
0.0
 11
7670.0
 21
20587.283522
 31
0.0
 12
7650.0
 22
20590.616856
 32
0.0
 13
7650.0
 23
20590.616856
 33
0.0
  0
TEXT
  5
63
  8
0
  6
BYBLOCK
 62
    11
 10
7959.166667
 20
20573.116856
 30
0.0
 40
35.0
  1
700
  0
POINT
  5
64
  8
DEFPOINTS
  6
BYBLOCK
 62
     0
 10
8350.0
 20
20549.0
 30
0.0
  0
POINT
  5
65
  8
DEFPOINTS
  6
BYBLOCK
 62
     0
 10
7650.0
 20
20549.0
 30
0.0
  0
POINT
  5
66
  8
DEFPOINTS
  6
BYBLOCK
 62
     0
 10
7650.0
 20
20590.616856
 30
0.0
  0
ENDBLK
  5
68
  8
0
  0
BLOCK
  8
0
  2
*D2
 70
     1
 10
0.0
 20
0.0
 30
0.0
  3
*D2
  1

  0
LINE
  5
6B
  8
0
  6
BYBLOCK
 62
     9
 10
8354.0
 20
20560.0
 30
0.0
 11
8436.842416
 21
20560.0
 31
0.0
  0
LINE
  5
6C
  8
0
  6
BYBLOCK
 62
     9
 10
8010.0
 20
20000.0
 30
0.0
 11
8436.842416
 21
20000.0
 31
0.0
  0
LINE
  5
6D
  8
0
  6
BYBLOCK
 62
     9
 10
8435.842416
 20
20540.0
 30
0.0
 11
8435.842416
 21
20400.75
 31
0.0
  0
LINE
  5
6E
  8
0
  6
BYBLOCK
 62
     9
 10
8435.842416
 20
20020.0
 30
0.0
 11
8435.842416
 21
20159.25
 31
0.0
  0
SOLID
  5
6F
  8
0
  6
BYBLOCK
 62
     9
 10
8432.509082
 20
20540.0
 30
0.0
 11
8439.175749
 21
20540.0
 31
0.0
 12
8435.842416
 22
20560.0
 32
0.0
 13
8435.842416
 23
20560.0
 33
0.0
  0
SOLID
  5
70
  8
0
  6
BYBLOCK
 62
     9
 10
8432.509082
 20
20020.0
 30
0.0
 11
8439.175749
 21
20020.0
 31
0.0
 12
8435.842416
 22
20000.0
 32
0.0
 13
8435.842416
 23
20000.0
 33
0.0
  0
TEXT
  5
71
  8
0
  6
BYBLOCK
 62
    11
 10
8453.342416
 20
20166.25
 30
0.0
 40
35.0
  1
545-560
 50
90.0
  0
POINT
  5
72
  8
DEFPOINTS
  6
BYBLOCK
 62
     0
 10
8344.0
 20
20560.0
 30
0.0
  0
POINT
  5
73
  8
DEFPOINTS
  6
BYBLOCK
 62
     0
 10
8000.0
 20
20000.0
 30
0.0
  0
POINT
  5
74
  8
DEFPOINTS
  6
BYBLOCK
 62
     0
 10
8435.842416
 20
20000.0
 30
0.0
  0
ENDBLK
  5
76
  8
0
  0
ENDSEC
  0
SECTION
  2
ENTITIES
  0
CIRCLE
  5
20
  8
TEAM-DET1
 10
0.0
 20
493.0
 30
0.0
 40
26.0
  0
ARC
  5
22
  8
TEAM-DET1
 10
-21.752
 20
-466.353
 30
0.0
 40
1000.0
 50
96.09186
 51
103.0394
  0
ARC
  5
23
  8
TEAM-DET1
 10
21.752
 20
-466.353
 30
0.0
 40
1000.0
 50
76.96058
 51
83.90814
  0
LINE
  5
24
  8
TEAM-AXE
 10
0.0
 20
560.0
 30
0.0
 11
0.0
 21
150.0
 31
0.0
  0
LINE
  5
27
  8
TEAM-BODY
 10
344.0
 20
528.0
 30
0.0
 11
-344.0
 21
528.0
 31
0.0
  0
LINE
  5
29
  8
TEAM-BODY
 10
344.0
 20
560.0
 30
0.0
 11
-344.0
 21
560.0
 31
0.0
  0
LINE
  5
2A
  8
TEAM-BODY
 10
350.0
 20
534.0
 30
0.0
 11
350.0
 21
554.0
 31
0.0
  0
LINE
  5
2B
  8
TEAM-BODY
 10
-350.0
 20
534.0
 30
0.0
 11
-350.0
 21
554.0
 31
0.0
  0
LINE
  5
2C
  8
TEAM-BODY
 10
26.347
 20
150.0
 30
0.0
 11
-26.347
 21
150.0
 31
0.0
  0
LINE
  5
2D
  8
TEAM-BODY
 10
-43.802
 20
164.482
 30
0.0
 11
43.802
 21
164.479
 31
0.0
  0
ARC
  5
2E
  8
TEAM-BODY
 10
-344.0
 20
534.0
 30
0.0
 40
6.0
 50
180.0
 51
270.0
  0
ARC
  5
2F
  8
TEAM-BODY
 10
-344.0
 20
554.0
 30
0.0
 40
6.0
 50
90.0
 51
180.0
  0
ARC
  5
30
  8
TEAM-BODY
 10
344.0
 20
534.0
 30
0.0
 40
6.0
 50
270.0
 51
0.0
  0
ARC
  5
31
  8
TEAM-BODY
 10
344.0
 20
554.0
 30
0.0
 40
6.0
 50
0.0
 51
90.0
  0
ARC
  5
32
  8
TEAM-BODY
 10
0.0
 20
2167.0
 30
0.0
 40
2003.0
 50
271.2531
 51
273.5833
  0
ARC
  5
33
  8
TEAM-BODY
 10
-44.0
 20
155.484
 30
0.0
 40
9.0
 50
11.25506
 51
88.74251
  0
ARC
  5
34
  8
TEAM-BODY
 10
-26.347
 20
159.0
 30
0.0
 40
9.0
 50
191.2724
 51
270.0
  0
ARC
  5
35
  8
TEAM-BODY
 10
44.0
 20
155.484
 30
0.0
 40
9.0
 50
91.25748
 51
168.7449
  0
ARC
  5
36
  8
TEAM-BODY
 10
26.347
 20
159.0
 30
0.0
 40
9.0
 50
270.0
 51
348.7275
  0
ARC
  5
37
  8
TEAM-BODY
 10
-876.200343
 20
612.210016
 30
0.0
 40
1148.658737
 50
340.591508
 51
355.181374
  0
ARC
  5
38
  8
TEAM-BODY
 10
119.229
 20
260.725
 30
0.0
 40
93.00002
 50
273.673
 51
341.0401
  0
ARC
  5
39
  8
TEAM-BODY
 10
0.0
 20
2167.0
 30
0.0
 40
2003.0
 50
266.4165
 51
268.7469
  0
ARC
  5
3A
  8
TEAM-BODY
 10
-119.229
 20
260.725
 30
0.0
 40
92.99992
 50
198.9597
 51
266.3237
  0
ARC
  5
3B
  8
TEAM-BODY
 10
875.035299
 20
612.013734
 30
0.0
 40
1147.494691
 50
185.138742
 51
199.418579
  0
POLYLINE
  5
3C
  8
TEAM-BODY
 66
     1
 10
0.0
 20
0.0
 30
0.0
  0
VERTEX
  5
B0
  8
TEAM-BODY
 10
268.399
 20
515.72
 30
0.0
  0
VERTEX
  5
B1
  8
TEAM-BODY
 10
268.854
 20
518.832
 30
0.0
  0
VERTEX
  5
B2
  8
TEAM-BODY
 10
270.005
 20
523.713
 30
0.0
  0
VERTEX
  5
B3
  8
TEAM-BODY
 10
271.438
 20
528.0
 30
0.0
  0
SEQEND
  5
B4
  8
TEAM-BODY
  0
POLYLINE
  5
42
  8
TEAM-BODY
 66
     1
 10
0.0
 20
0.0
 30
0.0
  0
VERTEX
  5
B5
  8
TEAM-BODY
 10
-271.438
 20
528.0
 30
0.0
  0
VERTEX
  5
B6
  8
TEAM-BODY
 10
-270.005
 20
523.713
 30
0.0
  0
VERTEX
  5
B7
  8
TEAM-BODY
 10
-268.854
 20
518.832
 30
0.0
  0
VERTEX
  5
B8
  8
TEAM-BODY
 10
-268.14
 20
513.948
 30
0.0
  0
VERTEX
  5
B9
  8
TEAM-BODY
 10
-267.853
 20
509.312
 30
0.0
  0
SEQEND
  5
BA
  8
TEAM-BODY
  0
TEXT
  5
49
  8
TEAM-TXT
 10
-248.647445
 20
425.364321
 30
0.0
 40
30.0
  1
team 111393
 41
0.7
 51
15.0
  7
TEAM
  0
DIMENSION
  5
4C
  8
TEAM-MAS
  2
*D0
 10
387.895261
 20
150.0
 30
0.0
 11
387.895261
 21
350.0
 31
0.0
 12
-8000.0
 22
-19995.0
 32
0.0
 13
344.0
 23
560.0
 33
0.0
 14
26.347
 24
150.0
 34
0.0
 50
90.0
1001
ACAD
1000
DSTYLE
1002
{
1070
    40
1040
1.0
1002
}
  0
DIMENSION
  5
5B
  8
TEAM-MAS
  2
*D1
 10
-350.0
 20
595.616856
 30
0.0
 11
0.0
 21
590.616856
 31
0.0
 12
-8000.0
 22
-19995.0
 32
0.0
 13
350.0
 23
554.0
 33
0.0
 14
-350.0
 24
554.0
 34
0.0
1001
ACAD
1000
DSTYLE
1002
{
1070
    40
1040
1.0
1002
}
  0
DIMENSION
  5
69
  8
TEAM-MAS
  2
*D2
 10
435.842416
 20
0.0
 30
0.0
 11
435.842416
 21
280.0
 31
0.0
 12
-8000.0
 22
-20000.0
 32
0.0
  1
545-<>
 13
344.0
 23
560.0
 33
0.0
 14
0.0
 24
0.0
 34
0.0
 50
90.0
1001
ACAD
1000
DSTYLE
1002
{
1070
    40
1040
1.0
1002
}
  0
CIRCLE
  5
77
  8
TEAM-INSP
 10
0.0
 20
0.0
 30
0.0
 40
10.0
  0
ENDSEC
  0
EOF
