  0
SECTION
  2
HEADER
  9
$ACADVER
  1
AC1009
  9
$INSBASE
 10
0.0
 20
0.0
 30
0.0
  9
$EXTMIN
 10
-954.765426
 20
-504.821084
 30
-0.001526
  9
$EXTMAX
 10
1039.298639
 20
582.08003
 30
0.0
  9
$LIMMIN
 10
-954.765426
 20
-504.821084
  9
$LIMMAX
 10
1039.298639
 20
582.08003
  9
$ORTHOMODE
 70
     1
  9
$REGENMODE
 70
     1
  9
$FILLMODE
 70
     1
  9
$QTEXTMODE
 70
     0
  9
$MIRRTEXT
 70
     0
  9
$DRAGMODE
 70
     2
  9
$LTSCALE
 40
50.0
  9
$OSMODE
 70
     7
  9
$ATTMODE
 70
     1
  9
$TEXTSIZE
 40
200.0
  9
$TRACEWID
 40
1.0
  9
$TEXTSTYLE
  7
STANDARD
  9
$CLAYER
  8
TEAM-MAS
  9
$CELTYPE
  6
BYLAYER
  9
$CECOLOR
 62
   256
  9
$DIMSCALE
 40
0.0
  9
$DIMASZ
 40
20.0
  9
$DIMEXO
 40
10.0
  9
$DIMDLI
 40
1.0
  9
$DIMRND
 40
0.0
  9
$DIMDLE
 40
0.0
  9
$DIMEXE
 40
1.0
  9
$DIMTP
 40
0.0
  9
$DIMTM
 40
0.0
  9
$DIMTXT
 40
35.0
  9
$DIMCEN
 40
1.0
  9
$DIMTSZ
 40
0.0
  9
$DIMTOL
 70
     0
  9
$DIMLIM
 70
     0
  9
$DIMTIH
 70
     0
  9
$DIMTOH
 70
     0
  9
$DIMSE1
 70
     0
  9
$DIMSE2
 70
     0
  9
$DIMTAD
 70
     0
  9
$DIMZIN
 70
     0
  9
$DIMBLK
  1

  9
$DIMASO
 70
     1
  9
$DIMSHO
 70
     0
  9
$DIMPOST
  1

  9
$DIMAPOST
  1

  9
$DIMALT
 70
     0
  9
$DIMALTD
 70
     2
  9
$DIMALTF
 40
25.4
  9
$DIMLFAC
 40
1.0
  9
$DIMTOFL
 70
     0
  9
$DIMTVP
 40
0.0
  9
$DIMTIX
 70
     0
  9
$DIMSOXD
 70
     0
  9
$DIMSAH
 70
     0
  9
$DIMBLK1
  1

  9
$DIMBLK2
  1

  9
$DIMSTYLE
  2
TEAM
  9
$DIMCLRD
 70
     9
  9
$DIMCLRE
 70
     9
  9
$DIMCLRT
 70
    11
  9
$DIMTFAC
 40
1.0
  9
$DIMGAP
 40
7.0
  9
$LUNITS
 70
     2
  9
$LUPREC
 70
     1
  9
$SKETCHINC
 40
1.0
  9
$FILLETRAD
 40
5.0
  9
$AUNITS
 70
     0
  9
$AUPREC
 70
     0
  9
$MENU
  1
ROPLANS
  9
$ELEVATION
 40
0.0
  9
$PELEVATION
 40
0.0
  9
$THICKNESS
 40
0.0
  9
$LIMCHECK
 70
     0
  9
$BLIPMODE
 70
     1
  9
$CHAMFERA
 40
0.0
  9
$CHAMFERB
 40
0.0
  9
$SKPOLY
 70
     0
  9
$TDCREATE
 40
2450392.957851
  9
$TDUPDATE
 40
2455944.698999
  9
$TDINDWG
 40
3.037655
  9
$TDUSRTIMER
 40
3.037655
  9
$USRTIMER
 70
     1
  9
$ANGBASE
 50
0.0
  9
$ANGDIR
 70
     0
  9
$PDMODE
 70
     0
  9
$PDSIZE
 40
0.0
  9
$PLINEWID
 40
0.0
  9
$COORDS
 70
     2
  9
$SPLFRAME
 70
     0
  9
$SPLINETYPE
 70
     6
  9
$SPLINESEGS
 70
     8
  9
$ATTDIA
 70
     0
  9
$ATTREQ
 70
     0
  9
$HANDLING
 70
     1
  9
$HANDSEED
  5
24C
  9
$SURFTAB1
 70
    24
  9
$SURFTAB2
 70
    24
  9
$SURFTYPE
 70
     6
  9
$SURFU
 70
     6
  9
$SURFV
 70
     6
  9
$UCSNAME
  2

  9
$UCSORG
 10
0.0
 20
0.0
 30
0.0
  9
$UCSXDIR
 10
1.0
 20
0.0
 30
0.0
  9
$UCSYDIR
 10
0.0
 20
1.0
 30
0.0
  9
$PUCSNAME
  2

  9
$PUCSORG
 10
0.0
 20
0.0
 30
0.0
  9
$PUCSXDIR
 10
1.0
 20
0.0
 30
0.0
  9
$PUCSYDIR
 10
0.0
 20
1.0
 30
0.0
  9
$USERI1
 70
     0
  9
$USERI2
 70
     0
  9
$USERI3
 70
     0
  9
$USERI4
 70
     0
  9
$USERI5
 70
     0
  9
$USERR1
 40
0.0
  9
$USERR2
 40
0.0
  9
$USERR3
 40
0.0
  9
$USERR4
 40
0.0
  9
$USERR5
 40
0.0
  9
$WORLDVIEW
 70
     1
  9
$SHADEDGE
 70
     0
  9
$SHADEDIF
 70
    70
  9
$TILEMODE
 70
     1
  9
$MAXACTVP
 70
    16
  9
$PLIMCHECK
 70
     0
  9
$PEXTMIN
 10
-0.805942
 20
0.005011
 30
0.0
  9
$PEXTMAX
 10
20.250094
 20
11.356329
 30
0.0
  9
$PLIMMIN
 10
0.0
 20
0.0
  9
$PLIMMAX
 10
12.0
 20
9.0
  9
$UNITMODE
 70
     0
  9
$VISRETAIN
 70
     0
  9
$PLINEGEN
 70
     0
  9
$PSLTSCALE
 70
     0
  0
ENDSEC
  0
SECTION
  2
TABLES
  0
TABLE
  2
VPORT
 70
     2
  0
VPORT
  2
*ACTIVE
 70
     0
 10
0.0
 20
0.0
 11
1.0
 21
1.0
 12
42.266607
 22
38.629473
 13
0.0
 23
0.0
 14
1.0
 24
1.0
 15
20.0
 25
20.0
 16
0.0
 26
0.0
 36
1.0
 17
0.0
 27
0.0
 37
0.0
 40
1093.715541
 41
1.903766
 42
50.0
 43
0.0
 44
0.0
 50
0.0
 51
0.0
 71
     0
 72
   100
 73
     1
 74
     1
 75
     0
 76
     0
 77
     0
 78
     0
  0
ENDTAB
  0
TABLE
  2
LTYPE
 70
     2
  0
LTYPE
  2
CONTINUOUS
 70
     0
  3
Solid Line
 72
    65
 73
     0
 40
0.0
  0
LTYPE
  2
31
 70
     0
  3

 72
    65
 73
     4
 40
2.1
 49
1.5
 49
-0.3
 49
0.0
 49
-0.3
  0
ENDTAB
  0
TABLE
  2
LAYER
 70
     9
  0
LAYER
  2
0
 70
     0
 62
     7
  6
CONTINUOUS
  0
LAYER
  2
DEFPOINTS
 70
     0
 62
     7
  6
CONTINUOUS
  0
LAYER
  2
TEAM-BODY
 70
     0
 62
     2
  6
CONTINUOUS
  0
LAYER
  2
TEAM-AXE
 70
     0
 62
    10
  6
31
  0
LAYER
  2
TEAM-MAS
 70
     0
 62
     9
  6
CONTINUOUS
  0
LAYER
  2
TEAM-TXT
 70
     0
 62
    11
  6
CONTINUOUS
  0
LAYER
  2
TEAM-DET1
 70
     0
 62
     4
  6
CONTINUOUS
  0
LAYER
  2
TEAM-KAN
 70
     0
 62
     6
  6
CONTINUOUS
  0
LAYER
  2
TEAM-INSP
 70
     0
 62
     5
  6
CONTINUOUS
  0
ENDTAB
  0
TABLE
  2
STYLE
 70
     2
  0
STYLE
  2
STANDARD
 70
     0
 40
0.0
 41
1.0
 50
0.0
 71
     0
 42
200.0
  3
txt
  4

  0
STYLE
  2
TEAM
 70
     0
 40
0.0
 41
0.8
 50
15.0
 71
     0
 42
7.0
  3
ROMANS.shx
  4

  0
ENDTAB
  0
TABLE
  2
VIEW
 70
     0
  0
ENDTAB
  0
TABLE
  2
UCS
 70
     0
  0
ENDTAB
  0
TABLE
  2
APPID
 70
     1
  0
APPID
  2
ACAD
 70
     0
  0
ENDTAB
  0
TABLE
  2
DIMSTYLE
 70
     1
  0
DIMSTYLE
  2
TEAM
 70
     0
  3

  4

  5

  6

  7

 40
0.0
 41
20.0
 42
10.0
 43
1.0
 44
1.0
 45
0.0
 46
0.0
 47
0.0
 48
0.0
140
35.0
141
1.0
142
0.0
143
25.4
144
1.0
145
0.0
146
1.0
147
7.0
 71
     0
 72
     0
 73
     0
 74
     0
 75
     0
 76
     0
 77
     0
 78
     0
170
     0
171
     2
172
     0
173
     0
174
     0
175
     0
176
     9
177
     9
178
    11
  0
ENDTAB
  0
ENDSEC
  0
SECTION
  2
BLOCKS
  0
BLOCK
  8
0
  2
$MODEL_SPACE
 70
     0
 10
0.0
 20
0.0
 30
0.0
  3
$MODEL_SPACE
  1

  0
ENDBLK
  5
1D5
  8
0
  0
BLOCK
 67
     1
  8
0
  2
$PAPER_SPACE
 70
     0
 10
0.0
 20
0.0
 30
0.0
  3
$PAPER_SPACE
  1

  0
ENDBLK
  5
1D3
 67
     1
  8
0
  0
BLOCK
  8
0
  2
*D0
 70
     1
 10
0.0
 20
0.0
 30
0.0
  3
*D0
  1

  0
LINE
  5
4D
  8
0
  6
BYBLOCK
 62
     9
 10
949.999939
 20
372486.999954
 30
0.0
 11
949.999939
 21
372565.547006
 31
0.0
  0
LINE
  5
4E
  8
0
  6
BYBLOCK
 62
     9
 10
-949.999951
 20
372486.999954
 30
0.0
 11
-949.999951
 21
372565.547006
 31
0.0
  0
LINE
  5
4F
  8
0
  6
BYBLOCK
 62
     9
 10
929.999939
 20
372564.547006
 30
0.0
 11
59.499994
 21
372564.547006
 31
0.0
  0
LINE
  5
50
  8
0
  6
BYBLOCK
 62
     9
 10
-929.999951
 20
372564.547006
 30
0.0
 11
-59.500006
 21
372564.547006
 31
0.0
  0
SOLID
  5
51
  8
0
  6
BYBLOCK
 62
     9
 10
929.999939
 20
372567.880339
 30
0.0
 11
929.999939
 21
372561.213673
 31
0.0
 12
949.999939
 22
372564.547006
 32
0.0
 13
949.999939
 23
372564.547006
 33
0.0
  0
SOLID
  5
52
  8
0
  6
BYBLOCK
 62
     9
 10
-929.999951
 20
372567.880339
 30
0.0
 11
-929.999951
 21
372561.213673
 31
0.0
 12
-949.999951
 22
372564.547006
 32
0.0
 13
-949.999951
 23
372564.547006
 33
0.0
  0
TEXT
  5
53
  8
0
  6
BYBLOCK
 62
    11
 10
-52.500006
 20
372547.047006
 30
0.0
 40
35.0
  1
1900
  0
POINT
  5
54
  8
DEFPOINTS
  6
BYBLOCK
 62
     0
 10
949.999939
 20
372476.999954
 30
0.0
  0
POINT
  5
55
  8
DEFPOINTS
  6
BYBLOCK
 62
     0
 10
-949.999951
 20
372476.999954
 30
0.0
  0
POINT
  5
56
  8
DEFPOINTS
  6
BYBLOCK
 62
     0
 10
-949.999951
 20
372564.547006
 30
0.0
  0
ENDBLK
  5
58
  8
0
  0
BLOCK
  8
0
  2
*D1
 70
     1
 10
0.0
 20
0.0
 30
0.0
  3
*D1
  1

  0
LINE
  5
3F
  8
0
  6
BYBLOCK
 62
     9
 10
936.999939
 20
372499.999954
 30
0.0
 11
984.176282
 21
372499.999954
 31
0.0
  0
LINE
  5
40
  8
0
  6
BYBLOCK
 62
     9
 10
10.0
 20
372030.000015
 30
0.0
 11
984.176282
 21
372030.000015
 31
0.0
  0
LINE
  5
41
  8
0
  6
BYBLOCK
 62
     9
 10
983.176282
 20
372479.999954
 30
0.0
 11
983.176282
 21
372315.749985
 31
0.0
  0
LINE
  5
42
  8
0
  6
BYBLOCK
 62
     9
 10
983.176282
 20
372050.000015
 30
0.0
 11
983.176282
 21
372214.249985
 31
0.0
  0
SOLID
  5
43
  8
0
  6
BYBLOCK
 62
     9
 10
979.842948
 20
372479.999954
 30
0.0
 11
986.509615
 21
372479.999954
 31
0.0
 12
983.176282
 22
372499.999954
 32
0.0
 13
983.176282
 23
372499.999954
 33
0.0
  0
SOLID
  5
44
  8
0
  6
BYBLOCK
 62
     9
 10
979.842948
 20
372050.000015
 30
0.0
 11
986.509615
 21
372050.000015
 31
0.0
 12
983.176282
 22
372030.000015
 32
0.0
 13
983.176282
 23
372030.000015
 33
0.0
  0
TEXT
  5
45
  8
0
  6
BYBLOCK
 62
    11
 10
1000.676282
 20
372221.249985
 30
0.0
 40
35.0
  1
470
 50
90.0
  0
POINT
  5
46
  8
DEFPOINTS
  6
BYBLOCK
 62
     0
 10
926.999939
 20
372499.999954
 30
0.0
  0
POINT
  5
47
  8
DEFPOINTS
  6
BYBLOCK
 62
     0
 10
0.0
 20
372030.000015
 30
0.0
  0
POINT
  5
48
  8
DEFPOINTS
  6
BYBLOCK
 62
     0
 10
983.176282
 20
372030.000015
 30
0.0
  0
ENDBLK
  5
4A
  8
0
  0
BLOCK
  8
0
  2
*D2
 70
     1
 10
0.0
 20
0.0
 30
0.0
  3
*D2
  1

  0
LINE
  5
31
  8
0
  6
BYBLOCK
 62
     9
 10
10.0
 20
372030.000015
 30
0.0
 11
984.176282
 21
372030.000015
 31
0.0
  0
LINE
  5
32
  8
0
  6
BYBLOCK
 62
     9
 10
936.999939
 20
371500.000046
 30
0.0
 11
984.176282
 21
371500.000046
 31
0.0
  0
LINE
  5
33
  8
0
  6
BYBLOCK
 62
     9
 10
983.176282
 20
372010.000015
 30
0.0
 11
983.176282
 21
371815.750031
 31
0.0
  0
LINE
  5
34
  8
0
  6
BYBLOCK
 62
     9
 10
983.176282
 20
371520.000046
 30
0.0
 11
983.176282
 21
371714.250031
 31
0.0
  0
SOLID
  5
35
  8
0
  6
BYBLOCK
 62
     9
 10
979.842948
 20
372010.000015
 30
0.0
 11
986.509615
 21
372010.000015
 31
0.0
 12
983.176282
 22
372030.000015
 32
0.0
 13
983.176282
 23
372030.000015
 33
0.0
  0
SOLID
  5
36
  8
0
  6
BYBLOCK
 62
     9
 10
979.842948
 20
371520.000046
 30
0.0
 11
986.509615
 21
371520.000046
 31
0.0
 12
983.176282
 22
371500.000046
 32
0.0
 13
983.176282
 23
371500.000046
 33
0.0
  0
TEXT
  5
37
  8
0
  6
BYBLOCK
 62
    11
 10
1000.676282
 20
371721.250031
 30
0.0
 40
35.0
  1
530
 50
90.0
  0
POINT
  5
38
  8
DEFPOINTS
  6
BYBLOCK
 62
     0
 10
0.0
 20
372030.000015
 30
0.0
  0
POINT
  5
39
  8
DEFPOINTS
  6
BYBLOCK
 62
     0
 10
926.999939
 20
371500.000046
 30
0.0
  0
POINT
  5
3A
  8
DEFPOINTS
  6
BYBLOCK
 62
     0
 10
983.176282
 20
371500.000046
 30
0.0
  0
ENDBLK
  5
3C
  8
0
  0
BLOCK
  8
0
  2
*D3
 70
     1
 10
0.0
 20
0.0
 30
0.0
  3
*D3
  1

  0
LINE
  5
A1
  8
0
  6
BYBLOCK
 62
     9
 10
936.999939
 20
372499.999954
 30
0.0
 11
1022.737928
 21
372499.999954
 31
0.0
  0
LINE
  5
A2
  8
0
  6
BYBLOCK
 62
     9
 10
936.999939
 20
371500.000046
 30
0.0
 11
1022.737928
 21
371500.000046
 31
0.0
  0
LINE
  5
A3
  8
0
  6
BYBLOCK
 62
     9
 10
1021.737928
 20
372479.999954
 30
0.0
 11
1021.737928
 21
372056.583333
 31
0.0
  0
LINE
  5
A4
  8
0
  6
BYBLOCK
 62
     9
 10
1021.737928
 20
371520.000046
 30
0.0
 11
1021.737928
 21
371943.416667
 31
0.0
  0
SOLID
  5
A5
  8
0
  6
BYBLOCK
 62
     9
 10
1018.404595
 20
372479.999954
 30
0.0
 11
1025.071261
 21
372479.999954
 31
0.0
 12
1021.737928
 22
372499.999954
 32
0.0
 13
1021.737928
 23
372499.999954
 33
0.0
  0
SOLID
  5
A6
  8
0
  6
BYBLOCK
 62
     9
 10
1018.404595
 20
371520.000046
 30
0.0
 11
1025.071261
 21
371520.000046
 31
0.0
 12
1021.737928
 22
371500.000046
 32
0.0
 13
1021.737928
 23
371500.000046
 33
0.0
  0
TEXT
  5
A7
  8
0
  6
BYBLOCK
 62
    11
 10
1039.237928
 20
371950.416667
 30
0.0
 40
35.0
  1
1000
 50
90.0
  0
POINT
  5
A8
  8
DEFPOINTS
  6
BYBLOCK
 62
     0
 10
926.999939
 20
372499.999954
 30
0.0
  0
POINT
  5
A9
  8
DEFPOINTS
  6
BYBLOCK
 62
     0
 10
926.999939
 20
371500.000046
 30
0.0
  0
POINT
  5
AA
  8
DEFPOINTS
  6
BYBLOCK
 62
     0
 10
1021.737928
 20
371500.000046
 30
0.0
  0
ENDBLK
  5
AC
  8
0
  0
BLOCK
  8
0
  2
*D4
 70
     1
 10
0.0
 20
0.0
 30
0.0
  3
*D4
  1

  0
LINE
  5
22
  8
0
  6
BYBLOCK
 62
     9
 10
0.0
 20
372040.000015
 30
0.0
 11
0.0
 21
372531.691718
 31
0.0
  0
LINE
  5
23
  8
0
  6
BYBLOCK
 62
     9
 10
949.999939
 20
372486.999954
 30
0.0
 11
949.999939
 21
372531.691718
 31
0.0
  0
LINE
  5
24
  8
0
  6
BYBLOCK
 62
     9
 10
20.0
 20
372530.691718
 30
0.0
 11
424.24997
 21
372530.691718
 31
0.0
  0
LINE
  5
25
  8
0
  6
BYBLOCK
 62
     9
 10
929.999939
 20
372530.691718
 30
0.0
 11
525.74997
 21
372530.691718
 31
0.0
  0
SOLID
  5
26
  8
0
  6
BYBLOCK
 62
     9
 10
20.0
 20
372534.025052
 30
0.0
 11
20.0
 21
372527.358385
 31
0.0
 12
0.0
 22
372530.691718
 32
0.0
 13
0.0
 23
372530.691718
 33
0.0
  0
SOLID
  5
27
  8
0
  6
BYBLOCK
 62
     9
 10
929.999939
 20
372534.025052
 30
0.0
 11
929.999939
 21
372527.358385
 31
0.0
 12
949.999939
 22
372530.691718
 32
0.0
 13
949.999939
 23
372530.691718
 33
0.0
  0
TEXT
  5
28
  8
0
  6
BYBLOCK
 62
    11
 10
431.24997
 20
372513.191718
 30
0.0
 40
35.0
  1
950
  0
POINT
  5
29
  8
DEFPOINTS
  6
BYBLOCK
 62
     0
 10
0.0
 20
372030.000015
 30
0.0
  0
POINT
  5
2B
  8
DEFPOINTS
  6
BYBLOCK
 62
     0
 10
949.999939
 20
372476.999954
 30
0.0
  0
POINT
  5
2C
  8
DEFPOINTS
  6
BYBLOCK
 62
     0
 10
949.999939
 20
372530.691718
 30
0.0
  0
ENDBLK
  5
2E
  8
0
  0
ENDSEC
  0
SECTION
  2
ENTITIES
  0
DIMENSION
  5
20
  8
TEAM-MAS
  2
*D4
 10
949.999939
 20
530.691718
 30
0.0
 11
474.99997
 21
530.691718
 31
0.0
 12
0.0
 22
-372000.0
 32
0.0
 13
0.0
 23
30.000015
 33
0.0
 14
949.999939
 24
476.999954
 34
0.0
1001
ACAD
1000
DSTYLE
1002
{
1070
    40
1040
1.0
1002
}
  0
DIMENSION
  5
2F
  8
TEAM-MAS
  2
*D2
 10
983.176282
 20
-499.999954
 30
0.0
 11
983.176282
 21
-234.99997
 31
0.0
 12
0.0
 22
-372000.0
 32
0.0
 13
0.0
 23
30.000015
 33
0.0
 14
926.999939
 24
-499.999954
 34
0.0
 50
90.0
1001
ACAD
1000
DSTYLE
1002
{
1070
    40
1040
1.0
1002
}
  0
DIMENSION
  5
3D
  8
TEAM-MAS
  2
*D1
 10
983.176282
 20
30.000015
 30
0.0
 11
983.176282
 21
264.999984
 31
0.0
 12
0.0
 22
-372000.0
 32
0.0
 13
926.999939
 23
499.999954
 33
0.0
 14
0.0
 24
30.000015
 34
0.0
 50
90.0
1001
ACAD
1000
DSTYLE
1002
{
1070
    40
1040
1.0
1002
}
  0
DIMENSION
  5
4B
  8
TEAM-MAS
  2
*D0
 10
-949.999951
 20
564.547006
 30
0.0
 11
-0.000006
 21
564.547006
 31
0.0
 12
0.0
 22
-372000.0
 32
0.0
 13
949.999939
 23
476.999954
 33
0.0
 14
-949.999951
 24
476.999954
 34
0.0
1001
ACAD
1000
DSTYLE
1002
{
1070
    40
1040
1.0
1002
}
  0
ARC
  5
59
  8
TEAM-DET1
 10
-0.006836
 20
106889.848429
 30
0.0
 40
107269.849696
 50
269.60845
 51
270.39155
  0
ARC
  5
5B
  8
TEAM-DET1
 10
0.007608
 20
-106829.625044
 30
0.0
 40
107269.623778
 50
89.608449
 51
90.391557
  0
LINE
  5
5C
  8
TEAM-AXE
 10
949.999939
 20
0.000015
 30
0.0
 11
-949.999951
 21
0.000015
 31
0.0
  0
LINE
  5
5F
  8
TEAM-AXE
 10
889.999939
 20
30.000015
 30
0.0
 11
-889.999955
 21
30.000015
 31
0.0
  0
ARC
  5
60
  8
TEAM-BODY
 10
-0.006836
 20
106889.536578
 30
0.0
 40
107282.037845
 50
269.608442
 51
270.391558
  0
ARC
  5
62
  8
TEAM-BODY
 10
0.007608
 20
-106829.313198
 30
0.0
 40
107281.811932
 50
89.608441
 51
90.391565
  0
LINE
  5
63
  8
TEAM-BODY
 10
926.999939
 20
-493.999954
 30
0.0
 11
-926.999955
 21
-493.999954
 31
0.0
  0
LINE
  5
64
  8
TEAM-BODY
 10
-926.999955
 20
493.999954
 30
0.0
 11
926.999939
 21
493.999954
 31
0.0
  0
LINE
  5
65
  8
TEAM-BODY
 10
926.999939
 20
-499.999954
 30
0.0
 11
-926.999955
 21
-499.999954
 31
0.0
  0
LINE
  5
66
  8
TEAM-BODY
 10
-926.999955
 20
499.999954
 30
0.0
 11
926.999939
 21
499.999954
 31
0.0
  0
POLYLINE
  5
67
  8
TEAM-DET1
 66
     1
 10
0.0
 20
0.0
 30
0.0
  0
VERTEX
  5
1DB
  8
TEAM-DET1
 10
26.0
 20
-364.800735
 30
0.0
  0
VERTEX
  5
1DC
  8
TEAM-DET1
 10
25.191406
 20
-364.007767
 30
0.0
  0
VERTEX
  5
1DD
  8
TEAM-DET1
 10
23.15039
 20
-363.343704
 30
0.0
  0
VERTEX
  5
1DE
  8
TEAM-DET1
 10
20.620117
 20
-362.851517
 30
0.0
  0
VERTEX
  5
1DF
  8
TEAM-DET1
 10
18.143554
 20
-362.507767
 30
0.0
  0
VERTEX
  5
1E0
  8
TEAM-DET1
 10
15.953613
 20
-362.273392
 30
0.0
  0
VERTEX
  5
1E1
  8
TEAM-DET1
 10
14.095703
 20
-362.111282
 30
0.0
  0
VERTEX
  5
1E2
  8
TEAM-DET1
 10
12.541015
 20
-361.996048
 30
0.0
  0
VERTEX
  5
1E3
  8
TEAM-DET1
 10
11.238769
 20
-361.914017
 30
0.0
  0
VERTEX
  5
1E4
  8
TEAM-DET1
 10
10.14209
 20
-361.85347
 30
0.0
  0
VERTEX
  5
1E5
  8
TEAM-DET1
 10
9.209961
 20
-361.808548
 30
0.0
  0
VERTEX
  5
1E6
  8
TEAM-DET1
 10
8.410644
 20
-361.771439
 30
0.0
  0
VERTEX
  5
1E7
  8
TEAM-DET1
 10
7.717773
 20
-361.744095
 30
0.0
  0
VERTEX
  5
1E8
  8
TEAM-DET1
 10
7.112793
 20
-361.72261
 30
0.0
  0
VERTEX
  5
1E9
  8
TEAM-DET1
 10
6.579101
 20
-361.703079
 30
0.0
  0
VERTEX
  5
1EA
  8
TEAM-DET1
 10
6.104492
 20
-361.689407
 30
0.0
  0
VERTEX
  5
1EB
  8
TEAM-DET1
 10
5.680175
 20
-361.677689
 30
0.0
  0
VERTEX
  5
1EC
  8
TEAM-DET1
 10
5.297363
 20
-361.667923
 30
0.0
  0
VERTEX
  5
1ED
  8
TEAM-DET1
 10
4.950195
 20
-361.658157
 30
0.0
  0
VERTEX
  5
1EE
  8
TEAM-DET1
 10
4.6333
 20
-361.652298
 30
0.0
  0
VERTEX
  5
1EF
  8
TEAM-DET1
 10
4.342773
 20
-361.644485
 30
0.0
  0
VERTEX
  5
1F0
  8
TEAM-DET1
 10
4.074218
 20
-361.640579
 30
0.0
  0
VERTEX
  5
1F1
  8
TEAM-DET1
 10
3.826172
 20
-361.63472
 30
0.0
  0
VERTEX
  5
1F2
  8
TEAM-DET1
 10
3.594726
 20
-361.630814
 30
0.0
  0
VERTEX
  5
1F3
  8
TEAM-DET1
 10
2.804687
 20
-361.619095
 30
0.0
  0
VERTEX
  5
1F4
  8
TEAM-DET1
 10
2.166992
 20
-361.611282
 30
0.0
  0
VERTEX
  5
1F5
  8
TEAM-DET1
 10
1.382812
 20
-361.605423
 30
0.0
  0
VERTEX
  5
1F6
  8
TEAM-DET1
 10
0.404297
 20
-361.601517
 30
0.0
  0
VERTEX
  5
1F7
  8
TEAM-DET1
 10
-0.610352
 20
-361.601517
 30
0.0
  0
VERTEX
  5
1F8
  8
TEAM-DET1
 10
-1.754883
 20
-361.607376
 30
0.0
  0
VERTEX
  5
1F9
  8
TEAM-DET1
 10
-2.633789
 20
-361.617142
 30
0.0
  0
VERTEX
  5
1FA
  8
TEAM-DET1
 10
-3.378907
 20
-361.626907
 30
0.0
  0
VERTEX
  5
1FB
  8
TEAM-DET1
 10
-4.342774
 20
-361.644485
 30
0.0
  0
VERTEX
  5
1FC
  8
TEAM-DET1
 10
-4.633301
 20
-361.652298
 30
0.0
  0
VERTEX
  5
1FD
  8
TEAM-DET1
 10
-4.950196
 20
-361.658157
 30
0.0
  0
VERTEX
  5
1FE
  8
TEAM-DET1
 10
-5.297364
 20
-361.667923
 30
0.0
  0
VERTEX
  5
1FF
  8
TEAM-DET1
 10
-5.680176
 20
-361.677689
 30
0.0
  0
VERTEX
  5
200
  8
TEAM-DET1
 10
-6.104981
 20
-361.689407
 30
0.0
  0
VERTEX
  5
201
  8
TEAM-DET1
 10
-6.579102
 20
-361.703079
 30
0.0
  0
VERTEX
  5
202
  8
TEAM-DET1
 10
-7.112793
 20
-361.72261
 30
0.0
  0
VERTEX
  5
203
  8
TEAM-DET1
 10
-7.717774
 20
-361.744095
 30
0.0
  0
VERTEX
  5
204
  8
TEAM-DET1
 10
-8.410645
 20
-361.771439
 30
0.0
  0
VERTEX
  5
205
  8
TEAM-DET1
 10
-9.209961
 20
-361.808548
 30
0.0
  0
VERTEX
  5
206
  8
TEAM-DET1
 10
-10.14209
 20
-361.85347
 30
0.0
  0
VERTEX
  5
207
  8
TEAM-DET1
 10
-11.23877
 20
-361.914017
 30
0.0
  0
VERTEX
  5
208
  8
TEAM-DET1
 10
-12.541016
 20
-361.996048
 30
0.0
  0
VERTEX
  5
209
  8
TEAM-DET1
 10
-14.095703
 20
-362.111282
 30
0.0
  0
VERTEX
  5
20A
  8
TEAM-DET1
 10
-15.953614
 20
-362.273392
 30
0.0
  0
SEQEND
  5
20B
  8
TEAM-DET1
  0
POLYLINE
  5
68
  8
TEAM-DET1
 66
     1
 10
0.0
 20
0.0
 30
0.0
  0
VERTEX
  5
20C
  8
TEAM-DET1
 10
-15.953614
 20
-362.273392
 30
0.0
  0
VERTEX
  5
20D
  8
TEAM-DET1
 10
-18.143555
 20
-362.507767
 30
0.0
  0
VERTEX
  5
20E
  8
TEAM-DET1
 10
-20.620117
 20
-362.851517
 30
0.0
  0
VERTEX
  5
20F
  8
TEAM-DET1
 10
-23.150391
 20
-363.343704
 30
0.0
  0
VERTEX
  5
210
  8
TEAM-DET1
 10
-25.191407
 20
-364.007767
 30
0.0
  0
VERTEX
  5
211
  8
TEAM-DET1
 10
-26.0
 20
-364.800735
 30
0.0
  0
VERTEX
  5
212
  8
TEAM-DET1
 10
-25.191407
 20
-365.591751
 30
0.0
  0
VERTEX
  5
213
  8
TEAM-DET1
 10
-23.150391
 20
-366.257767
 30
0.0
  0
VERTEX
  5
214
  8
TEAM-DET1
 10
-20.620117
 20
-366.749954
 30
0.0
  0
VERTEX
  5
215
  8
TEAM-DET1
 10
-18.143555
 20
-367.091751
 30
0.0
  0
VERTEX
  5
216
  8
TEAM-DET1
 10
-15.953614
 20
-367.326126
 30
0.0
  0
VERTEX
  5
217
  8
TEAM-DET1
 10
-14.095703
 20
-367.488235
 30
0.0
  0
VERTEX
  5
218
  8
TEAM-DET1
 10
-12.541016
 20
-367.60347
 30
0.0
  0
VERTEX
  5
219
  8
TEAM-DET1
 10
-11.23877
 20
-367.685501
 30
0.0
  0
VERTEX
  5
21A
  8
TEAM-DET1
 10
-10.14209
 20
-367.746048
 30
0.0
  0
VERTEX
  5
21B
  8
TEAM-DET1
 10
-9.209961
 20
-367.792923
 30
0.0
  0
VERTEX
  5
21C
  8
TEAM-DET1
 10
-8.410645
 20
-367.828079
 30
0.0
  0
VERTEX
  5
21D
  8
TEAM-DET1
 10
-7.717774
 20
-367.855423
 30
0.0
  0
VERTEX
  5
21E
  8
TEAM-DET1
 10
-7.112793
 20
-367.87886
 30
0.0
  0
VERTEX
  5
21F
  8
TEAM-DET1
 10
-6.579102
 20
-367.896439
 30
0.0
  0
VERTEX
  5
220
  8
TEAM-DET1
 10
-6.104492
 20
-367.91011
 30
0.0
  0
VERTEX
  5
221
  8
TEAM-DET1
 10
-5.680176
 20
-367.921829
 30
0.0
  0
VERTEX
  5
222
  8
TEAM-DET1
 10
-5.297364
 20
-367.933548
 30
0.0
  0
VERTEX
  5
223
  8
TEAM-DET1
 10
-4.950196
 20
-367.94136
 30
0.0
  0
VERTEX
  5
224
  8
TEAM-DET1
 10
-4.633301
 20
-367.949173
 30
0.0
  0
VERTEX
  5
225
  8
TEAM-DET1
 10
-4.342774
 20
-367.955032
 30
0.0
  0
VERTEX
  5
226
  8
TEAM-DET1
 10
-4.074219
 20
-367.960892
 30
0.0
  0
VERTEX
  5
227
  8
TEAM-DET1
 10
-3.826172
 20
-367.964798
 30
0.0
  0
VERTEX
  5
228
  8
TEAM-DET1
 10
-3.594727
 20
-367.968704
 30
0.0
  0
VERTEX
  5
229
  8
TEAM-DET1
 10
-2.804688
 20
-367.980423
 30
0.0
  0
VERTEX
  5
22A
  8
TEAM-DET1
 10
-2.166992
 20
-367.988235
 30
0.0
  0
VERTEX
  5
22B
  8
TEAM-DET1
 10
-1.382813
 20
-367.996048
 30
0.0
  0
VERTEX
  5
22C
  8
TEAM-DET1
 10
-0.506836
 20
-367.999954
 30
0.0
  0
VERTEX
  5
22D
  8
TEAM-DET1
 10
0.506836
 20
-367.999954
 30
0.0
  0
VERTEX
  5
22E
  8
TEAM-DET1
 10
1.626953
 20
-367.994095
 30
0.0
  0
VERTEX
  5
22F
  8
TEAM-DET1
 10
2.804687
 20
-367.980423
 30
0.0
  0
VERTEX
  5
230
  8
TEAM-DET1
 10
3.594726
 20
-367.968704
 30
0.0
  0
VERTEX
  5
231
  8
TEAM-DET1
 10
3.826172
 20
-367.964798
 30
0.0
  0
VERTEX
  5
232
  8
TEAM-DET1
 10
4.074218
 20
-367.960892
 30
0.0
  0
VERTEX
  5
233
  8
TEAM-DET1
 10
4.342773
 20
-367.955032
 30
0.0
  0
VERTEX
  5
234
  8
TEAM-DET1
 10
4.6333
 20
-367.949173
 30
0.0
  0
VERTEX
  5
235
  8
TEAM-DET1
 10
4.950195
 20
-367.94136
 30
0.0
  0
VERTEX
  5
236
  8
TEAM-DET1
 10
5.297851
 20
-367.933548
 30
0.0
  0
VERTEX
  5
237
  8
TEAM-DET1
 10
5.680175
 20
-367.921829
 30
0.0
  0
VERTEX
  5
238
  8
TEAM-DET1
 10
6.10498
 20
-367.91011
 30
0.0
  0
VERTEX
  5
239
  8
TEAM-DET1
 10
6.579101
 20
-367.896439
 30
0.0
  0
VERTEX
  5
23A
  8
TEAM-DET1
 10
7.112793
 20
-367.87886
 30
0.0
  0
VERTEX
  5
23B
  8
TEAM-DET1
 10
7.717773
 20
-367.855423
 30
0.0
  0
SEQEND
  5
23C
  8
TEAM-DET1
  0
POLYLINE
  5
69
  8
TEAM-DET1
 66
     1
 10
0.0
 20
0.0
 30
0.0
  0
VERTEX
  5
23D
  8
TEAM-DET1
 10
7.717773
 20
-367.855423
 30
0.0
  0
VERTEX
  5
23E
  8
TEAM-DET1
 10
8.410644
 20
-367.828079
 30
0.0
  0
VERTEX
  5
23F
  8
TEAM-DET1
 10
9.209961
 20
-367.792923
 30
0.0
  0
VERTEX
  5
240
  8
TEAM-DET1
 10
10.14209
 20
-367.746048
 30
0.0
  0
VERTEX
  5
241
  8
TEAM-DET1
 10
11.238769
 20
-367.685501
 30
0.0
  0
VERTEX
  5
242
  8
TEAM-DET1
 10
12.541015
 20
-367.60347
 30
0.0
  0
VERTEX
  5
243
  8
TEAM-DET1
 10
14.095703
 20
-367.488235
 30
0.0
  0
VERTEX
  5
244
  8
TEAM-DET1
 10
15.954101
 20
-367.326126
 30
0.0
  0
VERTEX
  5
245
  8
TEAM-DET1
 10
18.143554
 20
-367.091751
 30
0.0
  0
VERTEX
  5
246
  8
TEAM-DET1
 10
20.620117
 20
-366.749954
 30
0.0
  0
VERTEX
  5
247
  8
TEAM-DET1
 10
23.150879
 20
-366.255814
 30
0.0
  0
VERTEX
  5
248
  8
TEAM-DET1
 10
25.191894
 20
-365.591751
 30
0.0
  0
VERTEX
  5
249
  8
TEAM-DET1
 10
26.0
 20
-364.800735
 30
0.0
  0
SEQEND
  5
24A
  8
TEAM-DET1
  0
LINE
  5
6A
  8
TEAM-AXE
 10
34.384765
 20
-364.800735
 30
0.0
 11
-34.384766
 21
-364.800735
 31
0.0
  0
CIRCLE
  5
6B
  8
TEAM-KAN
 10
0.0
 20
30.000015
 30
0.0
 40
26.0
  0
LINE
  5
6D
  8
TEAM-AXE
 10
0.0
 20
-499.999954
 30
0.0
 11
0.0
 21
499.999954
 31
0.0
  0
ARC
  5
6E
  8
TEAM-DET1
 10
-55.382325
 20
2.074234
 30
0.0
 40
29.999998
 50
179.906738
 51
270.092316
  0
ARC
  5
6F
  8
TEAM-DET1
 10
0.002929
 20
-34259.173141
 30
0.0
 40
34231.292969
 50
89.908684
 51
90.091324
  0
ARC
  5
70
  8
TEAM-DET1
 10
55.382324
 20
2.076187
 30
0.0
 40
29.999998
 50
269.907684
 51
0.093255
  0
ARC
  5
71
  8
TEAM-DET1
 10
17093.748352
 20
29.898453
 30
0.0
 40
17008.386719
 50
179.90889
 51
180.09111
  0
ARC
  5
72
  8
TEAM-DET1
 10
-17093.749695
 20
29.8965
 30
0.0
 40
17008.388672
 50
359.908875
 51
0.091112
  0
ARC
  5
73
  8
TEAM-DET1
 10
-55.382325
 20
57.718765
 30
0.0
 40
29.999998
 50
89.907677
 51
180.093246
  0
ARC
  5
74
  8
TEAM-DET1
 10
-0.00293
 20
34318.904983
 30
0.0
 40
34231.230469
 50
269.908661
 51
270.091339
  0
ARC
  5
75
  8
TEAM-DET1
 10
55.382324
 20
57.720718
 30
0.0
 40
29.999998
 50
359.906738
 51
90.092316
  0
ARC
  5
76
  8
TEAM-BODY
 10
-0.000489
 20
9870.776077
 30
0.0
 40
10000.056641
 50
268.167664
 51
271.832306
  0
ARC
  5
77
  8
TEAM-BODY
 10
316.232361
 20
-14.222641
 30
0.0
 40
109.999992
 50
271.832245
 51
359.825012
  0
ARC
  5
78
  8
TEAM-BODY
 10
-14173.698914
 20
29.998062
 30
0.0
 40
14599.999023
 50
359.825134
 51
0.174872
  0
ARC
  5
79
  8
TEAM-BODY
 10
316.232361
 20
74.222671
 30
0.0
 40
109.999992
 50
0.17498
 51
88.167732
  0
ARC
  5
7A
  8
TEAM-BODY
 10
0.001465
 20
-9810.774704
 30
0.0
 40
10000.056641
 50
88.167671
 51
91.832336
  0
ARC
  5
7B
  8
TEAM-BODY
 10
55.359375
 20
2.121109
 30
0.0
 40
23.999998
 50
270.0
 51
0.0
  0
ARC
  5
7C
  8
TEAM-BODY
 10
55.359375
 20
57.675796
 30
0.0
 40
23.999998
 50
0.0
 51
90.0
  0
ARC
  5
7D
  8
TEAM-BODY
 10
-55.359375
 20
57.673843
 30
0.0
 40
23.999998
 50
90.0
 51
180.0
  0
ARC
  5
7E
  8
TEAM-BODY
 10
-55.359375
 20
2.119156
 30
0.0
 40
23.999998
 50
180.0
 51
270.0
  0
LINE
  5
7F
  8
TEAM-BODY
 10
79.359375
 20
57.675796
 30
0.0
 11
79.359375
 21
2.121109
 31
0.0
  0
LINE
  5
80
  8
TEAM-BODY
 10
55.359375
 20
81.675796
 30
0.0
 11
-55.359375
 21
81.673843
 31
0.0
  0
LINE
  5
81
  8
TEAM-BODY
 10
-79.359375
 20
57.673843
 30
0.0
 11
-79.359375
 21
2.119156
 31
0.0
  0
LINE
  5
82
  8
TEAM-BODY
 10
55.359375
 20
-21.878891
 30
0.0
 11
-55.359375
 21
-21.880844
 31
0.0
  0
CIRCLE
  5
83
  8
TEAM-INSP
 10
0.0
 20
0.0
 30
0.0
 40
7.1
  0
TEXT
  5
85
  8
TEAM-TXT
 10
-851.416675
 20
338.581088
 30
0.0
 40
30.0
  1
team 111442
 41
0.8
 51
15.0
  7
TEAM
  0
ARC
  5
88
  8
TEAM-DET1
 10
23570.783898
 20
80.001968
 30
0.0
 40
24460.784569
 50
179.460075
 51
180.539925
  0
ARC
  5
89
  8
TEAM-DET1
 10
-806.440384
 20
-290.330063
 30
0.0
 40
79.999992
 50
186.266617
 51
259.389984
  0
ARC
  5
8A
  8
TEAM-DET1
 10
3772.569703
 20
-132.20034
 30
0.0
 40
4661.519598
 50
180.224926
 51
182.051378
  0
ARC
  5
8B
  8
TEAM-DET1
 10
-806.440384
 20
350.330093
 30
0.0
 40
79.999992
 50
100.610016
 51
173.733368
  0
ARC
  5
8C
  8
TEAM-DET1
 10
-388.950196
 20
304.482437
 30
0.0
 40
499.999969
 50
173.733093
 51
179.31041
  0
ARC
  5
8D
  8
TEAM-DET1
 10
-729.106903
 20
122.488296
 30
0.0
 40
499.999969
 50
259.389771
 51
269.5466
  0
ARC
  5
8E
  8
TEAM-DET1
 10
-729.106903
 20
-62.490219
 30
0.0
 40
499.999969
 50
90.453384
 51
100.610184
  0
ARC
  5
8F
  8
TEAM-BODY
 10
14173.69757
 20
30.001968
 30
0.0
 40
14599.999023
 50
179.825134
 51
180.174866
  0
ARC
  5
90
  8
TEAM-BODY
 10
-926.999955
 20
-476.999954
 30
0.0
 40
16.999998
 50
180.0
 51
270.0
  0
ARC
  5
91
  8
TEAM-BODY
 10
-926.999955
 20
476.999954
 30
0.0
 40
16.999998
 50
90.0
 51
180.0
  0
ARC
  5
92
  8
TEAM-BODY
 10
23569.948692
 20
80.002548
 30
0.0
 40
24472.449363
 50
179.459991
 51
180.540021
  0
ARC
  5
93
  8
TEAM-BODY
 10
3720.978617
 20
-132.200969
 30
0.0
 40
4622.428477
 50
180.228685
 51
182.08566
  0
ARC
  5
94
  8
TEAM-BODY
 10
-806.440384
 20
-290.330063
 30
0.0
 40
92.500015
 50
186.267105
 51
259.38974
  0
ARC
  5
95
  8
TEAM-BODY
 10
-388.950196
 20
304.482437
 30
0.0
 40
512.499939
 50
173.733231
 51
179.310425
  0
ARC
  5
96
  8
TEAM-BODY
 10
-806.440384
 20
350.330093
 30
0.0
 40
92.500015
 50
100.610306
 51
173.7341
  0
LINE
  5
97
  8
TEAM-BODY
 10
-943.999947
 20
-476.999954
 30
0.0
 11
-943.999947
 21
476.999954
 31
0.0
  0
LINE
  5
98
  8
TEAM-BODY
 10
-949.999951
 20
-476.999954
 30
0.0
 11
-949.999951
 21
476.999954
 31
0.0
  0
ARC
  5
99
  8
TEAM-BODY
 10
-926.999955
 20
-476.999954
 30
0.0
 40
22.999998
 50
180.0
 51
270.0
  0
ARC
  5
9A
  8
TEAM-BODY
 10
-926.999955
 20
476.999954
 30
0.0
 40
22.999998
 50
90.0
 51
180.0
  0
ARC
  5
9B
  8
TEAM-BODY
 10
-729.106903
 20
122.488296
 30
0.0
 40
512.499939
 50
259.389709
 51
269.54657
  0
ARC
  5
9C
  8
TEAM-BODY
 10
-729.106903
 20
-62.490219
 30
0.0
 40
512.499939
 50
90.453415
 51
100.610245
  0
ARC
  5
9D
  8
TEAM-BODY
 10
-316.232422
 20
-14.222641
 30
0.0
 40
109.999992
 50
180.174973
 51
268.167755
  0
ARC
  5
9E
  8
TEAM-BODY
 10
-316.232422
 20
74.222671
 30
0.0
 40
109.999992
 50
91.83226
 51
179.825012
  0
DIMENSION
  5
9F
  8
TEAM-MAS
  2
*D3
 10
1021.737928
 20
-499.999954
 30
0.0
 11
1021.737928
 21
0.0
 31
0.0
 12
0.0
 22
-372000.0
 32
0.0
 13
926.999939
 23
499.999954
 33
0.0
 14
926.999939
 24
-499.999954
 34
0.0
 50
90.0
1001
ACAD
1000
DSTYLE
1002
{
1070
    40
1040
1.0
1002
}
  0
ARC
  5
AD
  8
TEAM-DET1
 10
806.440368
 20
-290.330063
 30
0.0
 40
79.999992
 50
280.610016
 51
353.733368
  0
ARC
  5
AE
  8
TEAM-DET1
 10
-23571.031505
 20
79.996974
 30
0.0
 40
24461.030833
 50
359.460102
 51
0.539922
  0
ARC
  5
AF
  8
TEAM-DET1
 10
729.106872
 20
122.49025
 30
0.0
 40
499.999969
 50
270.453369
 51
280.610199
  0
ARC
  5
B0
  8
TEAM-DET1
 10
-3772.58612
 20
-132.193995
 30
0.0
 40
4661.535953
 50
357.948551
 51
359.774994
  0
ARC
  5
B1
  8
TEAM-DET1
 10
806.440368
 20
350.330093
 30
0.0
 40
79.999992
 50
6.266623
 51
79.389977
  0
ARC
  5
B2
  8
TEAM-DET1
 10
729.106872
 20
-62.488266
 30
0.0
 40
499.999969
 50
79.389755
 51
89.546608
  0
ARC
  5
B3
  8
TEAM-DET1
 10
388.950134
 20
304.48439
 30
0.0
 40
499.999969
 50
0.689356
 51
6.266679
  0
ARC
  5
B4
  8
TEAM-BODY
 10
729.106872
 20
122.49025
 30
0.0
 40
512.499939
 50
270.4534
 51
280.610229
  0
ARC
  5
B5
  8
TEAM-BODY
 10
-3721.196353
 20
-132.19477
 30
0.0
 40
4622.64615
 50
357.914384
 51
359.77125
  0
ARC
  5
B6
  8
TEAM-BODY
 10
926.999939
 20
-476.999954
 30
0.0
 40
16.999998
 50
270.0
 51
0.0
  0
ARC
  5
B7
  8
TEAM-BODY
 10
926.999939
 20
476.999954
 30
0.0
 40
16.999998
 50
0.0
 51
90.0
  0
ARC
  5
B8
  8
TEAM-BODY
 10
806.440368
 20
-290.330063
 30
0.0
 40
92.500015
 50
280.610321
 51
353.7341
  0
ARC
  5
B9
  8
TEAM-BODY
 10
-23570.073146
 20
79.996974
 30
0.0
 40
24472.572474
 50
359.460004
 51
0.540019
  0
ARC
  5
BA
  8
TEAM-BODY
 10
729.106872
 20
-62.488266
 30
0.0
 40
512.499939
 50
79.389709
 51
89.546585
  0
ARC
  5
BB
  8
TEAM-BODY
 10
388.950134
 20
304.48439
 30
0.0
 40
512.499939
 50
0.689356
 51
6.266768
  0
ARC
  5
BC
  8
TEAM-BODY
 10
806.440368
 20
350.330093
 30
0.0
 40
92.500015
 50
6.267113
 51
79.389694
  0
LINE
  5
BD
  8
TEAM-BODY
 10
943.999939
 20
476.999954
 30
0.0
 11
943.999939
 21
-476.999954
 31
0.0
  0
LINE
  5
BE
  8
TEAM-BODY
 10
949.999939
 20
476.999954
 30
0.0
 11
949.999939
 21
-476.999954
 31
0.0
  0
ARC
  5
BF
  8
TEAM-BODY
 10
926.999939
 20
476.999954
 30
0.0
 40
22.999998
 50
0.0
 51
90.0
  0
ARC
  5
C0
  8
TEAM-BODY
 10
926.999939
 20
-476.999954
 30
0.0
 40
22.999998
 50
270.0
 51
0.0
  0
ENDSEC
  0
EOF
