  0
SECTION
  2
HEADER
  9
$ACADVER
  1
AC1009
  9
$INSBASE
 10
0.0
 20
0.0
 30
0.0
  9
$EXTMIN
 10
-500.034449
 20
-10.02
 30
-0.001526
  9
$EXTMAX
 10
636.949655
 20
645.419702
 30
0.0
  9
$LIMMIN
 10
-500.034449
 20
-10.02
  9
$LIMMAX
 10
636.949655
 20
645.419702
  9
$ORTHOMODE
 70
     1
  9
$REGENMODE
 70
     1
  9
$FILLMODE
 70
     1
  9
$QTEXTMODE
 70
     0
  9
$MIRRTEXT
 70
     0
  9
$DRAGMODE
 70
     2
  9
$LTSCALE
 40
50.0
  9
$OSMODE
 70
     7
  9
$ATTMODE
 70
     1
  9
$TEXTSIZE
 40
200.0
  9
$TRACEWID
 40
1.0
  9
$TEXTSTYLE
  7
STANDARD
  9
$CLAYER
  8
TEAM-MAS
  9
$CELTYPE
  6
BYLAYER
  9
$CECOLOR
 62
   256
  9
$DIMSCALE
 40
0.0
  9
$DIMASZ
 40
20.0
  9
$DIMEXO
 40
10.0
  9
$DIMDLI
 40
1.0
  9
$DIMRND
 40
0.0
  9
$DIMDLE
 40
0.0
  9
$DIMEXE
 40
1.0
  9
$DIMTP
 40
0.0
  9
$DIMTM
 40
0.0
  9
$DIMTXT
 40
35.0
  9
$DIMCEN
 40
1.0
  9
$DIMTSZ
 40
0.0
  9
$DIMTOL
 70
     0
  9
$DIMLIM
 70
     0
  9
$DIMTIH
 70
     0
  9
$DIMTOH
 70
     0
  9
$DIMSE1
 70
     0
  9
$DIMSE2
 70
     0
  9
$DIMTAD
 70
     0
  9
$DIMZIN
 70
     0
  9
$DIMBLK
  1

  9
$DIMASO
 70
     1
  9
$DIMSHO
 70
     0
  9
$DIMPOST
  1

  9
$DIMAPOST
  1

  9
$DIMALT
 70
     0
  9
$DIMALTD
 70
     2
  9
$DIMALTF
 40
25.4
  9
$DIMLFAC
 40
1.0
  9
$DIMTOFL
 70
     0
  9
$DIMTVP
 40
0.0
  9
$DIMTIX
 70
     0
  9
$DIMSOXD
 70
     0
  9
$DIMSAH
 70
     0
  9
$DIMBLK1
  1

  9
$DIMBLK2
  1

  9
$DIMSTYLE
  2
TEAM
  9
$DIMCLRD
 70
     9
  9
$DIMCLRE
 70
     9
  9
$DIMCLRT
 70
    11
  9
$DIMTFAC
 40
1.0
  9
$DIMGAP
 40
7.0
  9
$LUNITS
 70
     2
  9
$LUPREC
 70
     1
  9
$SKETCHINC
 40
1.0
  9
$FILLETRAD
 40
5.0
  9
$AUNITS
 70
     0
  9
$AUPREC
 70
     0
  9
$MENU
  1
ROPLANS
  9
$ELEVATION
 40
0.0
  9
$PELEVATION
 40
0.0
  9
$THICKNESS
 40
0.0
  9
$LIMCHECK
 70
     0
  9
$BLIPMODE
 70
     1
  9
$CHAMFERA
 40
0.0
  9
$CHAMFERB
 40
0.0
  9
$SKPOLY
 70
     0
  9
$TDCREATE
 40
2450392.957851
  9
$TDUPDATE
 40
2455944.698999
  9
$TDINDWG
 40
3.037655
  9
$TDUSRTIMER
 40
3.037655
  9
$USRTIMER
 70
     1
  9
$ANGBASE
 50
0.0
  9
$ANGDIR
 70
     0
  9
$PDMODE
 70
     0
  9
$PDSIZE
 40
0.0
  9
$PLINEWID
 40
0.0
  9
$COORDS
 70
     2
  9
$SPLFRAME
 70
     0
  9
$SPLINETYPE
 70
     6
  9
$SPLINESEGS
 70
     8
  9
$ATTDIA
 70
     0
  9
$ATTREQ
 70
     0
  9
$HANDLING
 70
     1
  9
$HANDSEED
  5
18F
  9
$SURFTAB1
 70
    24
  9
$SURFTAB2
 70
    24
  9
$SURFTYPE
 70
     6
  9
$SURFU
 70
     6
  9
$SURFV
 70
     6
  9
$UCSNAME
  2

  9
$UCSORG
 10
0.0
 20
0.0
 30
0.0
  9
$UCSXDIR
 10
1.0
 20
0.0
 30
0.0
  9
$UCSYDIR
 10
0.0
 20
1.0
 30
0.0
  9
$PUCSNAME
  2

  9
$PUCSORG
 10
0.0
 20
0.0
 30
0.0
  9
$PUCSXDIR
 10
1.0
 20
0.0
 30
0.0
  9
$PUCSYDIR
 10
0.0
 20
1.0
 30
0.0
  9
$USERI1
 70
     0
  9
$USERI2
 70
     0
  9
$USERI3
 70
     0
  9
$USERI4
 70
     0
  9
$USERI5
 70
     0
  9
$USERR1
 40
0.0
  9
$USERR2
 40
0.0
  9
$USERR3
 40
0.0
  9
$USERR4
 40
0.0
  9
$USERR5
 40
0.0
  9
$WORLDVIEW
 70
     1
  9
$SHADEDGE
 70
     0
  9
$SHADEDIF
 70
    70
  9
$TILEMODE
 70
     1
  9
$MAXACTVP
 70
    16
  9
$PLIMCHECK
 70
     0
  9
$PEXTMIN
 10
-0.805942
 20
0.005011
 30
0.0
  9
$PEXTMAX
 10
20.250094
 20
11.356329
 30
0.0
  9
$PLIMMIN
 10
0.0
 20
0.0
  9
$PLIMMAX
 10
12.0
 20
9.0
  9
$UNITMODE
 70
     0
  9
$VISRETAIN
 70
     0
  9
$PLINEGEN
 70
     0
  9
$PSLTSCALE
 70
     0
  0
ENDSEC
  0
SECTION
  2
TABLES
  0
TABLE
  2
VPORT
 70
     2
  0
VPORT
  2
*ACTIVE
 70
     0
 10
0.0
 20
0.0
 11
1.0
 21
1.0
 12
68.457603
 22
317.699851
 13
0.0
 23
0.0
 14
1.0
 24
1.0
 15
20.0
 25
20.0
 16
0.0
 26
0.0
 36
1.0
 17
0.0
 27
0.0
 37
0.0
 40
659.549042
 41
1.903766
 42
50.0
 43
0.0
 44
0.0
 50
0.0
 51
0.0
 71
     0
 72
   100
 73
     1
 74
     1
 75
     0
 76
     0
 77
     0
 78
     0
  0
ENDTAB
  0
TABLE
  2
LTYPE
 70
     3
  0
LTYPE
  2
CONTINUOUS
 70
     0
  3
Solid Line
 72
    65
 73
     0
 40
0.0
  0
LTYPE
  2
31
 70
     0
  3

 72
    65
 73
     4
 40
2.1
 49
1.5
 49
-0.3
 49
0.0
 49
-0.3
  0
LTYPE
  2
22
 70
     0
  3

 72
    65
 73
     2
 40
1.4
 49
1.2
 49
-0.2
  0
ENDTAB
  0
TABLE
  2
LAYER
 70
    11
  0
LAYER
  2
0
 70
     0
 62
     7
  6
CONTINUOUS
  0
LAYER
  2
DEFPOINTS
 70
     0
 62
     7
  6
CONTINUOUS
  0
LAYER
  2
TEAM-BODY
 70
     0
 62
     2
  6
CONTINUOUS
  0
LAYER
  2
TEAM-AXE
 70
     0
 62
    10
  6
31
  0
LAYER
  2
TEAM-MAS
 70
     0
 62
     9
  6
CONTINUOUS
  0
LAYER
  2
TEAM-TXT
 70
     0
 62
    11
  6
CONTINUOUS
  0
LAYER
  2
TEAM-DET1
 70
     0
 62
     4
  6
CONTINUOUS
  0
LAYER
  2
TEAM-HIDE
 70
     0
 62
     8
  6
22
  0
LAYER
  2
TEAM-KAN
 70
     0
 62
     6
  6
CONTINUOUS
  0
LAYER
  2
TEAM-DET3
 70
     0
 62
    14
  6
CONTINUOUS
  0
LAYER
  2
TEAM-INSP
 70
     0
 62
     5
  6
CONTINUOUS
  0
ENDTAB
  0
TABLE
  2
STYLE
 70
     2
  0
STYLE
  2
STANDARD
 70
     0
 40
0.0
 41
1.0
 50
0.0
 71
     0
 42
200.0
  3
txt
  4

  0
STYLE
  2
TEAM
 70
     0
 40
0.0
 41
0.8
 50
15.0
 71
     0
 42
7.0
  3
ROMANS.shx
  4

  0
ENDTAB
  0
TABLE
  2
VIEW
 70
     0
  0
ENDTAB
  0
TABLE
  2
UCS
 70
     0
  0
ENDTAB
  0
TABLE
  2
APPID
 70
     1
  0
APPID
  2
ACAD
 70
     0
  0
ENDTAB
  0
TABLE
  2
DIMSTYLE
 70
     1
  0
DIMSTYLE
  2
TEAM
 70
     0
  3

  4

  5

  6

  7

 40
0.0
 41
20.0
 42
10.0
 43
1.0
 44
1.0
 45
0.0
 46
0.0
 47
0.0
 48
0.0
140
35.0
141
1.0
142
0.0
143
25.4
144
1.0
145
0.0
146
1.0
147
7.0
 71
     0
 72
     0
 73
     0
 74
     0
 75
     0
 76
     0
 77
     0
 78
     0
170
     0
171
     2
172
     0
173
     0
174
     0
175
     0
176
     9
177
     9
178
    11
  0
ENDTAB
  0
ENDSEC
  0
SECTION
  2
BLOCKS
  0
BLOCK
  8
0
  2
$MODEL_SPACE
 70
     0
 10
0.0
 20
0.0
 30
0.0
  3
$MODEL_SPACE
  1

  0
ENDBLK
  5
188
  8
0
  0
BLOCK
 67
     1
  8
0
  2
$PAPER_SPACE
 70
     0
 10
0.0
 20
0.0
 30
0.0
  3
$PAPER_SPACE
  1

  0
ENDBLK
  5
186
 67
     1
  8
0
  0
BLOCK
  8
0
  2
*D0
 70
     1
 10
0.0
 20
0.0
 30
0.0
  3
*D0
  1

  0
LINE
  5
9B
  8
0
  6
BYBLOCK
 62
     9
 10
4534.0
 20
372600.0
 30
0.0
 11
4571.82399
 21
372600.0
 31
0.0
  0
LINE
  5
9C
  8
0
  6
BYBLOCK
 62
     9
 10
4010.000245
 20
372175.00336
 30
0.0
 11
4571.82399
 21
372175.00336
 31
0.0
  0
LINE
  5
9D
  8
0
  6
BYBLOCK
 62
     9
 10
4570.82399
 20
372580.0
 30
0.0
 11
4570.82399
 21
372441.168347
 31
0.0
  0
LINE
  5
9E
  8
0
  6
BYBLOCK
 62
     9
 10
4570.82399
 20
372195.00336
 30
0.0
 11
4570.82399
 21
372333.835013
 31
0.0
  0
SOLID
  5
9F
  8
0
  6
BYBLOCK
 62
     9
 10
4567.490657
 20
372580.0
 30
0.0
 11
4574.157323
 21
372580.0
 31
0.0
 12
4570.82399
 22
372600.0
 32
0.0
 13
4570.82399
 23
372600.0
 33
0.0
  0
SOLID
  5
A0
  8
0
  6
BYBLOCK
 62
     9
 10
4567.490657
 20
372195.00336
 30
0.0
 11
4574.157323
 21
372195.00336
 31
0.0
 12
4570.82399
 22
372175.00336
 32
0.0
 13
4570.82399
 23
372175.00336
 33
0.0
  0
TEXT
  5
A1
  8
0
  6
BYBLOCK
 62
    11
 10
4588.32399
 20
372340.835013
 30
0.0
 40
35.0
  1
425
 50
90.0
  0
POINT
  5
A2
  8
DEFPOINTS
  6
BYBLOCK
 62
     0
 10
4524.0
 20
372600.0
 30
0.0
  0
POINT
  5
A3
  8
DEFPOINTS
  6
BYBLOCK
 62
     0
 10
4000.000245
 20
372175.00336
 30
0.0
  0
POINT
  5
A4
  8
DEFPOINTS
  6
BYBLOCK
 62
     0
 10
4570.82399
 20
372175.00336
 30
0.0
  0
ENDBLK
  5
A6
  8
0
  0
BLOCK
  8
0
  2
*D1
 70
     1
 10
0.0
 20
0.0
 30
0.0
  3
*D1
  1

  0
LINE
  5
22
  8
0
  6
BYBLOCK
 62
     9
 10
3530.0
 20
372594.0
 30
0.0
 11
3530.0
 21
372628.899699
 31
0.0
  0
LINE
  5
23
  8
0
  6
BYBLOCK
 62
     9
 10
4530.0
 20
372594.0
 30
0.0
 11
4530.0
 21
372628.899699
 31
0.0
  0
LINE
  5
24
  8
0
  6
BYBLOCK
 62
     9
 10
3550.0
 20
372627.899699
 30
0.0
 11
3973.416667
 21
372627.899699
 31
0.0
  0
LINE
  5
25
  8
0
  6
BYBLOCK
 62
     9
 10
4510.0
 20
372627.899699
 30
0.0
 11
4086.583333
 21
372627.899699
 31
0.0
  0
SOLID
  5
26
  8
0
  6
BYBLOCK
 62
     9
 10
3550.0
 20
372631.233033
 30
0.0
 11
3550.0
 21
372624.566366
 31
0.0
 12
3530.0
 22
372627.899699
 32
0.0
 13
3530.0
 23
372627.899699
 33
0.0
  0
SOLID
  5
27
  8
0
  6
BYBLOCK
 62
     9
 10
4510.0
 20
372631.233033
 30
0.0
 11
4510.0
 21
372624.566366
 31
0.0
 12
4530.0
 22
372627.899699
 32
0.0
 13
4530.0
 23
372627.899699
 33
0.0
  0
TEXT
  5
28
  8
0
  6
BYBLOCK
 62
    11
 10
3980.416667
 20
372610.399699
 30
0.0
 40
35.0
  1
1000
  0
POINT
  5
29
  8
DEFPOINTS
  6
BYBLOCK
 62
     0
 10
3530.0
 20
372584.0
 30
0.0
  0
POINT
  5
2B
  8
DEFPOINTS
  6
BYBLOCK
 62
     0
 10
4530.0
 20
372584.0
 30
0.0
  0
POINT
  5
2C
  8
DEFPOINTS
  6
BYBLOCK
 62
     0
 10
4530.0
 20
372627.899699
 30
0.0
  0
ENDBLK
  5
2E
  8
0
  0
BLOCK
  8
0
  2
*D2
 70
     1
 10
0.0
 20
0.0
 30
0.0
  3
*D2
  1

  0
LINE
  5
8D
  8
0
  6
BYBLOCK
 62
     9
 10
4534.0
 20
372600.0
 30
0.0
 11
4620.414957
 21
372600.0
 31
0.0
  0
LINE
  5
8E
  8
0
  6
BYBLOCK
 62
     9
 10
4510.000244
 20
372000.000719
 30
0.0
 11
4620.414957
 21
372000.000719
 31
0.0
  0
LINE
  5
8F
  8
0
  6
BYBLOCK
 62
     9
 10
4619.414957
 20
372580.0
 30
0.0
 11
4619.414957
 21
372417.833693
 31
0.0
  0
LINE
  5
90
  8
0
  6
BYBLOCK
 62
     9
 10
4619.414957
 20
372020.000719
 30
0.0
 11
4619.414957
 21
372182.167026
 31
0.0
  0
SOLID
  5
91
  8
0
  6
BYBLOCK
 62
     9
 10
4616.081623
 20
372580.0
 30
0.0
 11
4622.74829
 21
372580.0
 31
0.0
 12
4619.414957
 22
372600.0
 32
0.0
 13
4619.414957
 23
372600.0
 33
0.0
  0
SOLID
  5
92
  8
0
  6
BYBLOCK
 62
     9
 10
4616.081623
 20
372020.000719
 30
0.0
 11
4622.74829
 21
372020.000719
 31
0.0
 12
4619.414957
 22
372000.000719
 32
0.0
 13
4619.414957
 23
372000.000719
 33
0.0
  0
TEXT
  5
93
  8
0
  6
BYBLOCK
 62
    11
 10
4636.914957
 20
372189.167026
 30
0.0
 40
35.0
  1
540-560
 50
90.0
  0
POINT
  5
94
  8
DEFPOINTS
  6
BYBLOCK
 62
     0
 10
4524.0
 20
372600.0
 30
0.0
  0
POINT
  5
95
  8
DEFPOINTS
  6
BYBLOCK
 62
     0
 10
4500.000244
 20
372000.000719
 30
0.0
  0
POINT
  5
96
  8
DEFPOINTS
  6
BYBLOCK
 62
     0
 10
4619.414957
 20
372000.000719
 30
0.0
  0
ENDBLK
  5
98
  8
0
  0
ENDSEC
  0
SECTION
  2
ENTITIES
  0
DIMENSION
  5
20
  8
TEAM-MAS
  2
*D1
 10
530.0
 20
627.899699
 30
0.0
 11
30.0
 21
627.899699
 31
0.0
 12
-4000.0
 22
-372000.0
 32
0.0
 13
-470.0
 23
584.0
 33
0.0
 14
530.0
 24
584.0
 34
0.0
1001
ACAD
1000
DSTYLE
1002
{
1070
    40
1040
1.0
1002
}
  0
ARC
  5
2F
  8
TEAM-BODY
 10
54.037207
 20
5828.169592
 30
0.0
 40
5630.868189
 50
266.759325
 51
268.861119
  0
LINE
  5
31
  8
TEAM-DET3
 10
-214.01916
 20
187.02402
 30
0.0
 11
-69.36828
 21
164.99374
 31
0.0
  0
LINE
  5
33
  8
TEAM-DET3
 10
-213.86168
 20
190.01932
 30
0.0
 11
-69.21082
 21
167.99026
 31
0.0
  0
LINE
  5
34
  8
TEAM-DET3
 10
-213.71764
 20
192.76528
 30
0.0
 11
-69.06676
 21
170.73624
 31
0.0
  0
LINE
  5
35
  8
TEAM-BODY
 10
524.0
 20
600.0
 30
0.0
 11
-464.0
 21
600.0
 31
0.0
  0
LINE
  5
36
  8
TEAM-HIDE
 10
-286.42272
 20
-0.00016
 30
0.0
 11
286.42396
 21
0.00016
 31
0.0
  0
LINE
  5
39
  8
TEAM-DET1
 10
524.0
 20
568.0
 30
0.0
 11
-464.0
 21
568.0
 31
0.0
  0
TEXT
  5
3B
  8
TEAM-TXT
 10
-106.003433
 20
430.784699
 30
0.0
 40
30.0
  1
team 111442
 41
0.8
 51
15.0
  7
TEAM
  0
LINE
  5
3E
  8
TEAM-BODY
 10
-470.0
 20
594.0
 30
0.0
 11
-470.0
 21
574.0
 31
0.0
  0
ARC
  5
3F
  8
TEAM-BODY
 10
-464.0
 20
594.0
 30
0.0
 40
6.0
 50
90.0
 51
180.0
  0
ARC
  5
40
  8
TEAM-BODY
 10
-464.0
 20
574.0
 30
0.0
 40
6.0
 50
180.0
 51
270.0
  0
ARC
  5
41
  8
TEAM-BODY
 10
-253.050782
 20
308.390625
 30
0.0
 40
102.699707
 50
195.41861
 51
263.724182
  0
ARC
  5
42
  8
TEAM-BODY
 10
1578.572265
 20
813.539063
 30
0.0
 40
2002.704468
 50
187.042389
 51
195.418472
  0
ARC
  5
43
  8
TEAM-DET3
 10
-355.11536
 20
218.16904
 30
0.0
 40
32.75012
 50
2.999767
 51
59.94175
  0
ARC
  5
44
  8
TEAM-DET3
 10
-355.11536
 20
218.16904
 30
0.0
 40
27.25002
 50
3.001793
 51
59.94249
  0
ARC
  5
45
  8
TEAM-DET3
 10
-355.11536
 20
218.16904
 30
0.0
 40
30.0
 50
3.001882
 51
59.940788
  0
ARC
  5
46
  8
TEAM-DET3
 10
-255.7489
 20
184.27988
 30
0.0
 40
10.75002
 50
239.446289
 51
274.99649
  0
ARC
  5
47
  8
TEAM-DET3
 10
-254.84314
 20
185.8143
 30
0.0
 40
6.69984
 50
221.175369
 51
274.996216
  0
ARC
  5
48
  8
TEAM-DET3
 10
-254.84314
 20
185.8143
 30
0.0
 40
6.0
 50
221.174683
 51
274.995483
  0
ARC
  5
49
  8
TEAM-DET3
 10
-263.24768
 20
171.57846
 30
0.0
 40
4.0
 50
59.429832
 51
170.000122
  0
LINE
  5
4A
  8
TEAM-DET3
 10
-267.2345
 20
169.61924
 30
0.0
 11
-261.29088
 21
175.06722
 31
0.0
  0
LINE
  5
4B
  8
TEAM-DET3
 10
-290.19104
 20
211.77042
 30
0.0
 11
-294.18152
 21
203.71012
 31
0.0
  0
ARC
  5
4C
  8
TEAM-DET3
 10
-281.01624
 20
190.37148
 30
0.0
 40
10.70006
 50
41.177006
 51
63.719959
  0
ARC
  5
4D
  8
TEAM-DET3
 10
-281.01624
 20
190.37148
 30
0.0
 40
10.0
 50
41.176712
 51
63.720371
  0
ARC
  5
4E
  8
TEAM-DET3
 10
-329.43908
 20
210.70322
 30
0.0
 40
10.0
 50
3.001943
 51
64.64476
  0
LINE
  5
4F
  8
TEAM-DET3
 10
-276.27868
 20
199.965
 30
0.0
 11
-289.9054
 21
206.71182
 31
0.0
  0
LINE
  5
50
  8
TEAM-DET3
 10
-289.6582
 20
207.21354
 30
0.0
 11
-290.79284
 21
204.9186
 31
0.0
  0
LINE
  5
51
  8
TEAM-DET3
 10
-294.09668
 20
209.5173
 30
0.0
 11
-295.27404
 21
207.13784
 31
0.0
  0
LINE
  5
52
  8
TEAM-DET3
 10
-294.3866
 20
208.92984
 30
0.0
 11
-299.9884
 21
211.70206
 31
0.0
  0
LINE
  5
53
  8
TEAM-DET3
 10
-295.32532
 20
208.61246
 30
0.0
 11
-300.29846
 21
211.07462
 31
0.0
  0
LINE
  5
54
  8
TEAM-DET3
 10
-277.901
 20
198.53678
 30
0.0
 11
-296.84264
 21
207.9136
 31
0.0
  0
LINE
  5
55
  8
TEAM-DET3
 10
-297.7301
 20
206.121
 30
0.0
 11
-290.11168
 21
202.35024
 31
0.0
  0
LINE
  5
56
  8
TEAM-DET3
 10
-327.20886
 20
206.3453
 30
0.0
 11
-324.46228
 21
206.48934
 31
0.0
  0
LINE
  5
57
  8
TEAM-DET3
 10
-303.7738
 20
169.16268
 30
0.0
 11
-275.85876
 21
169.16268
 31
0.0
  0
LINE
  5
58
  8
TEAM-DET3
 10
-317.53722
 20
174.66318
 30
0.0
 11
-289.77356
 21
174.66318
 31
0.0
  0
LINE
  5
59
  8
TEAM-DET3
 10
-289.77356
 20
174.66318
 30
0.0
 11
-289.77356
 21
171.91294
 31
0.0
  0
LINE
  5
5A
  8
TEAM-DET3
 10
-303.7738
 20
171.91294
 30
0.0
 11
-303.7738
 21
169.16268
 31
0.0
  0
LINE
  5
5B
  8
TEAM-DET3
 10
-317.39196
 20
171.91294
 30
0.0
 11
-275.35094
 21
171.91262
 31
0.0
  0
LINE
  5
5C
  8
TEAM-DET3
 10
-325.15686
 20
219.74008
 30
0.0
 11
-322.41028
 21
219.8829
 31
0.0
  0
LINE
  5
5D
  8
TEAM-DET3
 10
-319.4525
 20
211.2269
 30
0.0
 11
-312.93762
 21
40.91294
 31
0.0
  0
LINE
  5
5E
  8
TEAM-DET3
 10
-325.15686
 20
219.74008
 30
0.0
 11
-324.46228
 21
206.48934
 31
0.0
  0
LINE
  5
5F
  8
TEAM-DET3
 10
-290.36072
 20
40.91294
 30
0.0
 11
-275.47606
 21
171.33188
 31
0.0
  0
LINE
  5
60
  8
TEAM-DET3
 10
-327.90282
 20
219.59604
 30
0.0
 11
-320.81482
 21
38.36166
 31
0.0
  0
ARC
  5
61
  8
TEAM-DET3
 10
-267.59704
 20
169.94272
 30
0.0
 40
8.0
 50
95.007225
 51
165.745361
  0
LINE
  5
62
  8
TEAM-DET3
 10
-273.48938
 20
196.95536
 30
0.0
 11
-259.88616
 21
181.40328
 31
0.0
  0
LINE
  5
63
  8
TEAM-DET3
 10
-272.96264
 20
197.41616
 30
0.0
 11
-259.35944
 21
181.8641
 31
0.0
  0
LINE
  5
64
  8
TEAM-DET3
 10
-282.81096
 20
37.66342
 30
0.0
 11
-267.18688
 21
172.27304
 31
0.0
  0
LINE
  5
65
  8
TEAM-DET3
 10
-254.32068
 20
179.83774
 30
0.0
 11
-243.53698
 21
180.78134
 31
0.0
  0
LINE
  5
66
  8
TEAM-DET3
 10
-253.37218
 20
181.32578
 30
0.0
 11
-245.90026
 21
181.97884
 31
0.0
  0
LINE
  5
67
  8
TEAM-DET3
 10
-254.81262
 20
173.57064
 30
0.0
 11
-231.5985
 21
175.6019
 31
0.0
  0
LINE
  5
68
  8
TEAM-DET3
 10
-229.66736
 20
181.2922
 30
0.0
 11
-268.29528
 21
177.91268
 31
0.0
  0
ARC
  5
69
  8
TEAM-DET3
 10
-226.35314
 20
186.8519
 30
0.0
 40
8.0
 50
282.549683
 51
338.226166
  0
ARC
  5
6A
  8
TEAM-DET3
 10
-232.53478
 20
186.31112
 30
0.0
 40
10.75002
 50
274.99649
 51
346.797729
  0
ARC
  5
6B
  8
TEAM-DET3
 10
-214.2804
 20
182.03012
 30
0.0
 40
5.00008
 50
87.005226
 51
158.232346
  0
ARC
  5
6C
  8
TEAM-DET3
 10
-214.2804
 20
182.03012
 30
0.0
 40
10.75
 50
86.999268
 51
161.776443
  0
ARC
  5
6D
  8
TEAM-DET3
 10
-214.2804
 20
182.03012
 30
0.0
 40
8.0
 50
86.999962
 51
166.807159
  0
ARC
  5
6E
  8
TEAM-DET3
 10
-230.18982
 20
187.26938
 30
0.0
 40
6.0
 50
274.995483
 51
341.765045
  0
LINE
  5
6F
  8
TEAM-DET3
 10
-341.46666
 20
241.75454
 30
0.0
 11
-338.71154
 21
246.51498
 31
0.0
  0
LINE
  5
70
  8
TEAM-HIDE
 10
-499.999756
 20
-0.000419
 30
0.0
 11
-317.1234
 21
-0.00016
 31
0.0
  0
LINE
  5
71
  8
TEAM-DET3
 10
-315.07262
 20
32.91244
 30
0.0
 11
-288.4735
 21
32.91244
 31
0.0
  0
LINE
  5
72
  8
TEAM-DET3
 10
-286.42272
 20
10.80062
 30
0.0
 11
-286.42272
 21
-0.00016
 31
0.0
  0
LINE
  5
73
  8
TEAM-DET3
 10
-317.1234
 20
10.80062
 30
0.0
 11
-317.1234
 21
-0.00016
 31
0.0
  0
LINE
  5
74
  8
TEAM-DET3
 10
-296.77306
 20
14.0001
 30
0.0
 11
-306.77306
 21
14.0001
 31
0.0
  0
LINE
  5
75
  8
TEAM-DET3
 10
-317.1234
 20
10.80062
 30
0.0
 11
-286.42272
 21
10.80062
 31
0.0
  0
LINE
  5
76
  8
TEAM-DET3
 10
-305.77332
 20
82.91244
 30
0.0
 11
-297.77282
 21
82.91244
 31
0.0
  0
LINE
  5
77
  8
TEAM-DET3
 10
-306.77306
 20
81.91268
 30
0.0
 11
-296.77306
 21
81.91268
 31
0.0
  0
LINE
  5
78
  8
TEAM-DET3
 10
-306.77306
 20
81.91268
 30
0.0
 11
-306.77306
 21
40.91294
 31
0.0
  0
LINE
  5
79
  8
TEAM-DET3
 10
-317.1234
 20
-0.00016
 30
0.0
 11
-286.42272
 21
-0.00016
 31
0.0
  0
LINE
  5
7A
  8
TEAM-DET3
 10
-296.77306
 20
15.71274
 30
0.0
 11
-296.7749
 21
32.91244
 31
0.0
  0
LINE
  5
7B
  8
TEAM-DET3
 10
-290.36072
 20
40.91294
 30
0.0
 11
-312.93762
 21
40.91294
 31
0.0
  0
LINE
  5
7C
  8
TEAM-DET3
 10
-312.93762
 20
40.91294
 30
0.0
 11
-317.13806
 21
36.48666
 31
0.0
  0
LINE
  5
7D
  8
TEAM-DET3
 10
-290.36072
 20
40.91294
 30
0.0
 11
-286.5448
 21
36.3646
 31
0.0
  0
LINE
  5
7E
  8
TEAM-DET3
 10
-306.7749
 20
32.91244
 30
0.0
 11
-306.77306
 21
15.71274
 31
0.0
  0
LINE
  5
7F
  8
TEAM-DET3
 10
-296.77306
 20
40.91294
 30
0.0
 11
-296.77306
 21
81.91268
 31
0.0
  0
ARC
  5
80
  8
TEAM-DET3
 10
-315.07262
 20
38.66196
 30
0.0
 40
5.75002
 50
182.993607
 51
270.0
  0
ARC
  5
81
  8
TEAM-DET3
 10
-288.4735
 20
38.66196
 30
0.0
 40
5.75002
 50
270.0
 51
349.999237
  0
LINE
  5
82
  8
TEAM-DET3
 10
-306.77306
 20
14.0001
 30
0.0
 11
-301.44042
 21
10.80062
 31
0.0
  0
LINE
  5
83
  8
TEAM-DET3
 10
-302.1057
 20
10.80062
 30
0.0
 11
-296.77306
 21
14.0001
 31
0.0
  0
LINE
  5
84
  8
TEAM-DET3
 10
-306.02234
 20
18.00034
 30
0.0
 11
-306.77306
 21
14.0001
 31
0.0
  0
LINE
  5
85
  8
TEAM-DET3
 10
-297.52258
 20
18.00034
 30
0.0
 11
-296.77306
 21
14.0001
 31
0.0
  0
LINE
  5
86
  8
TEAM-DET3
 10
-306.02356
 20
82.6622
 30
0.0
 11
-306.02234
 21
40.91294
 31
0.0
  0
LINE
  5
87
  8
TEAM-DET3
 10
-297.52258
 20
82.6622
 30
0.0
 11
-297.52258
 21
40.91294
 31
0.0
  0
LINE
  5
88
  8
TEAM-AXE
 10
-301.77306
 20
4.91196
 30
0.0
 11
-301.77306
 21
72.91244
 31
0.0
  0
DIMENSION
  5
8B
  8
TEAM-MAS
  2
*D2
 10
619.414957
 20
0.000719
 30
0.0
 11
619.414957
 21
300.000359
 31
0.0
 12
-4000.0
 22
-372000.0
 32
0.0
  1
540-560
 13
524.0
 23
600.0
 33
0.0
 14
500.000244
 24
0.000719
 34
0.0
 50
90.0
1001
ACAD
1000
DSTYLE
1002
{
1070
    40
1040
1.0
1002
}
  0
DIMENSION
  5
99
  8
TEAM-MAS
  2
*D0
 10
570.82399
 20
175.00336
 30
0.0
 11
570.82399
 21
387.50168
 31
0.0
 12
-4000.0
 22
-372000.0
 32
0.0
 13
524.0
 23
600.0
 33
0.0
 14
0.000244
 24
175.00336
 34
0.0
 50
90.0
1001
ACAD
1000
DSTYLE
1002
{
1070
    40
1040
1.0
1002
}
  0
ARC
  5
A7
  8
TEAM-DET3
 10
69.63014
 20
160.00106
 30
0.0
 40
4.99998
 50
99.131165
 51
141.090042
  0
ARC
  5
A8
  8
TEAM-DET3
 10
69.63014
 20
160.00106
 30
0.0
 40
10.75
 50
93.00074
 51
141.094543
  0
ARC
  5
A9
  8
TEAM-DET3
 10
69.63014
 20
160.00106
 30
0.0
 40
8.0
 50
93.000031
 51
141.09613
  0
LINE
  5
AA
  8
TEAM-BODY
 10
530.0
 20
574.0
 30
0.0
 11
530.0
 21
594.0
 31
0.0
  0
ARC
  5
AB
  8
TEAM-BODY
 10
524.0
 20
594.0
 30
0.0
 40
6.0
 50
0.0
 51
90.0
  0
ARC
  5
AC
  8
TEAM-BODY
 10
524.0
 20
574.0
 30
0.0
 40
6.0
 50
270.0
 51
0.0
  0
ARC
  5
AD
  8
TEAM-BODY
 10
-1578.572144
 20
813.539063
 30
0.0
 40
2002.70459
 50
344.581512
 51
352.957581
  0
ARC
  5
AE
  8
TEAM-BODY
 10
253.050781
 20
308.390625
 30
0.0
 40
102.699738
 50
276.276062
 51
344.58136
  0
ARC
  5
AF
  8
TEAM-BODY
 10
-54.035673
 20
5828.08925
 30
0.0
 40
5630.787847
 50
271.138874
 51
273.240714
  0
ARC
  5
B0
  8
TEAM-DET3
 10
355.11598
 20
218.16904
 30
0.0
 40
32.75012
 50
120.057968
 51
177.000214
  0
ARC
  5
B1
  8
TEAM-DET3
 10
355.11598
 20
218.16904
 30
0.0
 40
27.25002
 50
120.057503
 51
176.998138
  0
ARC
  5
B2
  8
TEAM-DET3
 10
355.11598
 20
218.16904
 30
0.0
 40
30.0
 50
120.059204
 51
176.998108
  0
LINE
  5
B3
  8
TEAM-DET3
 10
290.19226
 20
211.77072
 30
0.0
 11
294.18274
 21
203.71042
 31
0.0
  0
ARC
  5
B4
  8
TEAM-DET3
 10
255.74952
 20
184.27988
 30
0.0
 40
10.75002
 50
265.003326
 51
300.552307
  0
ARC
  5
B5
  8
TEAM-DET3
 10
267.59766
 20
169.94272
 30
0.0
 40
8.0
 50
10.002029
 51
84.992958
  0
ARC
  5
B6
  8
TEAM-DET3
 10
281.01746
 20
190.3718
 30
0.0
 40
10.70006
 50
116.283684
 51
138.822983
  0
ARC
  5
B7
  8
TEAM-DET3
 10
281.01746
 20
190.3718
 30
0.0
 40
10.0
 50
116.282761
 51
138.823273
  0
ARC
  5
B8
  8
TEAM-DET3
 10
329.4397
 20
210.70322
 30
0.0
 40
10.0
 50
115.35524
 51
176.998047
  0
ARC
  5
B9
  8
TEAM-DET3
 10
254.84376
 20
185.8143
 30
0.0
 40
6.69984
 50
265.003784
 51
318.828308
  0
ARC
  5
BA
  8
TEAM-DET3
 10
254.84376
 20
185.8143
 30
0.0
 40
6.0
 50
265.004517
 51
318.829407
  0
ARC
  5
BB
  8
TEAM-DET3
 10
263.2483
 20
171.57846
 30
0.0
 40
4.0
 50
9.999877
 51
120.570152
  0
LINE
  5
BC
  8
TEAM-DET3
 10
273.4906
 20
196.95566
 30
0.0
 11
259.8871
 21
181.4036
 31
0.0
  0
LINE
  5
BD
  8
TEAM-DET3
 10
259.36036
 20
181.8644
 30
0.0
 11
272.96388
 21
197.41648
 31
0.0
  0
LINE
  5
BE
  8
TEAM-DET3
 10
327.20948
 20
206.3453
 30
0.0
 11
324.4629
 21
206.48934
 31
0.0
  0
LINE
  5
BF
  8
TEAM-DET3
 10
267.23512
 20
169.61924
 30
0.0
 11
261.2915
 21
175.06722
 31
0.0
  0
LINE
  5
C0
  8
TEAM-DET3
 10
303.77442
 20
169.16268
 30
0.0
 11
275.85938
 21
169.16268
 31
0.0
  0
LINE
  5
C1
  8
TEAM-DET3
 10
317.53784
 20
174.66318
 30
0.0
 11
289.77418
 21
174.66318
 31
0.0
  0
LINE
  5
C2
  8
TEAM-DET3
 10
289.77418
 20
174.66318
 30
0.0
 11
289.77418
 21
171.91294
 31
0.0
  0
LINE
  5
C3
  8
TEAM-DET3
 10
303.77442
 20
171.91294
 30
0.0
 11
303.77442
 21
169.16268
 31
0.0
  0
LINE
  5
C4
  8
TEAM-DET3
 10
317.39258
 20
171.91294
 30
0.0
 11
275.35156
 21
171.91294
 31
0.0
  0
LINE
  5
C5
  8
TEAM-DET3
 10
325.15748
 20
219.74008
 30
0.0
 11
322.4109
 21
219.8829
 31
0.0
  0
LINE
  5
C6
  8
TEAM-DET3
 10
254.3213
 20
179.83774
 30
0.0
 11
243.5376
 21
180.78134
 31
0.0
  0
LINE
  5
C7
  8
TEAM-DET3
 10
253.3728
 20
181.32578
 30
0.0
 11
245.90088
 21
181.97884
 31
0.0
  0
LINE
  5
C8
  8
TEAM-DET3
 10
276.27992
 20
199.9653
 30
0.0
 11
289.90662
 21
206.71212
 31
0.0
  0
LINE
  5
C9
  8
TEAM-DET3
 10
319.45314
 20
211.2269
 30
0.0
 11
312.93824
 21
40.91294
 31
0.0
  0
LINE
  5
CA
  8
TEAM-DET3
 10
325.15748
 20
219.74008
 30
0.0
 11
324.4629
 21
206.48934
 31
0.0
  0
LINE
  5
CB
  8
TEAM-DET3
 10
290.36134
 20
40.91294
 30
0.0
 11
275.47608
 21
171.33218
 31
0.0
  0
LINE
  5
CC
  8
TEAM-DET3
 10
282.8119
 20
37.66342
 30
0.0
 11
267.1875
 21
172.27304
 31
0.0
  0
LINE
  5
CD
  8
TEAM-DET3
 10
327.90406
 20
219.59604
 30
0.0
 11
320.81544
 21
38.36166
 31
0.0
  0
LINE
  5
CE
  8
TEAM-DET3
 10
289.65942
 20
207.21384
 30
0.0
 11
290.79408
 21
204.91892
 31
0.0
  0
LINE
  5
CF
  8
TEAM-DET3
 10
294.0979
 20
209.5176
 30
0.0
 11
295.27528
 21
207.13816
 31
0.0
  0
LINE
  5
D0
  8
TEAM-DET3
 10
294.38782
 20
208.93014
 30
0.0
 11
299.98962
 21
211.70236
 31
0.0
  0
LINE
  5
D1
  8
TEAM-DET3
 10
295.32654
 20
208.61276
 30
0.0
 11
300.29968
 21
211.07492
 31
0.0
  0
LINE
  5
D2
  8
TEAM-DET3
 10
277.90222
 20
198.53708
 30
0.0
 11
296.84388
 21
207.9139
 31
0.0
  0
LINE
  5
D3
  8
TEAM-DET3
 10
297.73132
 20
206.1213
 30
0.0
 11
290.11292
 21
202.35056
 31
0.0
  0
LINE
  5
D4
  8
TEAM-DET3
 10
341.4673
 20
241.75454
 30
0.0
 11
338.71216
 21
246.51498
 31
0.0
  0
ARC
  5
D5
  8
TEAM-DET3
 10
232.5354
 20
186.31112
 30
0.0
 40
10.75002
 50
193.200653
 51
265.00351
  0
ARC
  5
D6
  8
TEAM-DET3
 10
230.19044
 20
187.26938
 30
0.0
 40
6.0
 50
198.233093
 51
265.004517
  0
LINE
  5
D7
  8
TEAM-DET3
 10
254.81324
 20
173.57064
 30
0.0
 11
231.59912
 21
175.6019
 31
0.0
  0
LINE
  5
D8
  8
TEAM-DET3
 10
229.66798
 20
181.2922
 30
0.0
 11
268.2959
 21
177.91268
 31
0.0
  0
ARC
  5
D9
  8
TEAM-DET3
 10
226.35376
 20
186.8519
 30
0.0
 40
8.0
 50
201.773804
 51
257.450317
  0
ARC
  5
DA
  8
TEAM-DET3
 10
214.28102
 20
182.03012
 30
0.0
 40
10.75
 50
18.224586
 51
93.00074
  0
ARC
  5
DB
  8
TEAM-DET3
 10
214.28102
 20
182.03012
 30
0.0
 40
8.0
 50
13.194468
 51
93.000031
  0
ARC
  5
DC
  8
TEAM-DET3
 10
214.28102
 20
182.03012
 30
0.0
 40
5.00008
 50
21.767641
 51
92.994774
  0
LINE
  5
DD
  8
TEAM-DET3
 10
214.01978
 20
187.02402
 30
0.0
 11
69.3689
 21
164.99374
 31
0.0
  0
LINE
  5
DE
  8
TEAM-DET3
 10
213.86232
 20
190.01932
 30
0.0
 11
69.21144
 21
167.99026
 31
0.0
  0
LINE
  5
DF
  8
TEAM-DET3
 10
213.71826
 20
192.76528
 30
0.0
 11
69.06738
 21
170.73624
 31
0.0
  0
LINE
  5
E0
  8
TEAM-HIDE
 10
317.12464
 20
0.00046
 30
0.0
 11
500.000244
 21
0.000719
 31
0.0
  0
LINE
  5
E1
  8
TEAM-DET3
 10
315.07324
 20
32.91244
 30
0.0
 11
288.47412
 21
32.91244
 31
0.0
  0
LINE
  5
E2
  8
TEAM-DET3
 10
286.42334
 20
10.80124
 30
0.0
 11
286.42396
 21
0.00016
 31
0.0
  0
LINE
  5
E3
  8
TEAM-DET3
 10
317.12402
 20
10.80124
 30
0.0
 11
317.12464
 21
0.00046
 31
0.0
  0
LINE
  5
E4
  8
TEAM-DET3
 10
296.77368
 20
14.0007
 30
0.0
 11
306.77368
 21
14.0007
 31
0.0
  0
LINE
  5
E5
  8
TEAM-DET3
 10
317.12402
 20
10.80124
 30
0.0
 11
286.42334
 21
10.80124
 31
0.0
  0
LINE
  5
E6
  8
TEAM-DET3
 10
305.77394
 20
82.91244
 30
0.0
 11
297.77344
 21
82.91244
 31
0.0
  0
LINE
  5
E7
  8
TEAM-DET3
 10
306.77368
 20
81.91268
 30
0.0
 11
296.77368
 21
81.91268
 31
0.0
  0
LINE
  5
E8
  8
TEAM-DET3
 10
306.77368
 20
81.91268
 30
0.0
 11
306.77368
 21
40.91294
 31
0.0
  0
LINE
  5
E9
  8
TEAM-DET3
 10
317.12464
 20
0.00046
 30
0.0
 11
286.42396
 21
0.00016
 31
0.0
  0
LINE
  5
EA
  8
TEAM-DET3
 10
296.77368
 20
10.80124
 30
0.0
 11
296.7749
 21
32.91244
 31
0.0
  0
LINE
  5
EB
  8
TEAM-DET3
 10
290.36134
 20
40.91294
 30
0.0
 11
312.93824
 21
40.91294
 31
0.0
  0
LINE
  5
EC
  8
TEAM-DET3
 10
312.93824
 20
40.91294
 30
0.0
 11
317.13868
 21
36.48666
 31
0.0
  0
LINE
  5
ED
  8
TEAM-DET3
 10
290.36134
 20
40.91294
 30
0.0
 11
286.54542
 21
36.3646
 31
0.0
  0
LINE
  5
EE
  8
TEAM-DET3
 10
296.77368
 20
40.91294
 30
0.0
 11
296.77368
 21
81.91268
 31
0.0
  0
LINE
  5
EF
  8
TEAM-DET3
 10
306.7749
 20
32.91244
 30
0.0
 11
306.77368
 21
10.80124
 31
0.0
  0
ARC
  5
F0
  8
TEAM-DET3
 10
315.07324
 20
38.66196
 30
0.0
 40
5.75002
 50
270.0
 51
357.006378
  0
ARC
  5
F1
  8
TEAM-DET3
 10
288.47412
 20
38.66196
 30
0.0
 40
5.75002
 50
190.001297
 51
270.0
  0
LINE
  5
F2
  8
TEAM-DET3
 10
306.77368
 20
14.0007
 30
0.0
 11
301.44104
 21
10.80124
 31
0.0
  0
LINE
  5
F3
  8
TEAM-DET3
 10
302.10632
 20
10.80124
 30
0.0
 11
296.77368
 21
14.0007
 31
0.0
  0
LINE
  5
F4
  8
TEAM-DET3
 10
306.02296
 20
18.00094
 30
0.0
 11
306.77368
 21
14.0007
 31
0.0
  0
LINE
  5
F5
  8
TEAM-DET3
 10
297.5232
 20
18.00094
 30
0.0
 11
296.77368
 21
14.0007
 31
0.0
  0
LINE
  5
F6
  8
TEAM-DET3
 10
306.02418
 20
82.6622
 30
0.0
 11
306.02296
 21
40.91294
 31
0.0
  0
LINE
  5
F7
  8
TEAM-DET3
 10
297.5232
 20
82.6622
 30
0.0
 11
297.5232
 21
40.91294
 31
0.0
  0
LINE
  5
F8
  8
TEAM-DET3
 10
297.5232
 20
18.00094
 30
0.0
 11
297.5238
 21
32.91244
 31
0.0
  0
LINE
  5
F9
  8
TEAM-DET3
 10
306.02356
 20
32.91274
 30
0.0
 11
306.02296
 21
18.00094
 31
0.0
  0
LINE
  5
FA
  8
TEAM-AXE
 10
301.77368
 20
4.91196
 30
0.0
 11
301.77368
 21
72.91244
 31
0.0
  0
CIRCLE
  5
FB
  8
TEAM-INSP
 10
0.0
 20
0.0
 30
0.0
 40
10.0
  0
LINE
  5
FD
  8
TEAM-DET3
 10
-18.8034
 20
156.0167
 30
0.0
 11
-18.8034
 21
144.01718
 31
0.0
  0
LINE
  5
FE
  8
TEAM-DET3
 10
-17.20428
 20
144.01718
 30
0.0
 11
-14.45404
 21
144.01718
 31
0.0
  0
LINE
  5
FF
  8
TEAM-DET3
 10
-14.45404
 20
146.51718
 30
0.0
 11
-17.20428
 21
146.51718
 31
0.0
  0
LINE
  5
100
  8
TEAM-DET3
 10
-14.45404
 20
153.5167
 30
0.0
 11
-17.20428
 21
153.5167
 31
0.0
  0
LINE
  5
101
  8
TEAM-DET3
 10
-17.20428
 20
144.01718
 30
0.0
 11
-17.20428
 21
161.96396
 31
0.0
  0
LINE
  5
102
  8
TEAM-DET3
 10
-14.45342
 20
161.96396
 30
0.0
 11
-14.45404
 21
153.01742
 31
0.0
  0
LINE
  5
103
  8
TEAM-DET3
 10
17.2049
 20
152.51694
 30
0.0
 11
-17.20428
 21
152.51694
 31
0.0
  0
LINE
  5
104
  8
TEAM-DET3
 10
17.2049
 20
147.51694
 30
0.0
 11
-17.20428
 21
147.51694
 31
0.0
  0
LINE
  5
105
  8
TEAM-DET3
 10
30.00032
 20
147.51724
 30
0.0
 11
23.80402
 21
147.51694
 31
0.0
  0
LINE
  5
106
  8
TEAM-DET3
 10
30.00032
 20
152.51724
 30
0.0
 11
23.80402
 21
152.51694
 31
0.0
  0
LINE
  5
107
  8
TEAM-DET3
 10
-29.99968
 20
147.51724
 30
0.0
 11
-23.8034
 21
147.51694
 31
0.0
  0
LINE
  5
108
  8
TEAM-DET3
 10
-30.0003
 20
152.51724
 30
0.0
 11
-23.8034
 21
152.51694
 31
0.0
  0
ARC
  5
109
  8
TEAM-DET3
 10
20.15412
 20
161.96396
 30
0.0
 40
2.95
 50
84.991234
 51
180.0
  0
ARC
  5
10A
  8
TEAM-DET3
 10
25.41658
 20
142.28256
 30
0.0
 40
6.43004
 50
301.790649
 51
6.562411
  0
ARC
  5
10B
  8
TEAM-DET3
 10
25.41658
 20
157.75132
 30
0.0
 40
6.43004
 50
353.437592
 51
58.209358
  0
ARC
  5
10C
  8
TEAM-DET3
 10
20.15412
 20
161.96396
 30
0.0
 40
5.7
 50
84.999695
 51
180.0
  0
ARC
  5
10D
  8
TEAM-DET3
 10
-69.62952
 20
160.00106
 30
0.0
 40
4.99998
 50
38.907764
 51
80.868835
  0
ARC
  5
10E
  8
TEAM-DET3
 10
-69.62952
 20
160.00106
 30
0.0
 40
10.75
 50
38.908752
 51
86.999268
  0
ARC
  5
10F
  8
TEAM-DET3
 10
-69.62952
 20
160.00106
 30
0.0
 40
8.0
 50
38.90694
 51
86.999962
  0
ARC
  5
110
  8
TEAM-DET3
 10
-56.59514
 20
170.51986
 30
0.0
 40
8.75
 50
218.901062
 51
274.994141
  0
ARC
  5
111
  8
TEAM-DET3
 10
-56.59514
 20
170.51986
 30
0.0
 40
6.0
 50
218.896927
 51
274.995483
  0
ARC
  5
112
  8
TEAM-DET3
 10
-56.59514
 20
170.51986
 30
0.0
 40
11.75004
 50
218.902206
 51
275.000397
  0
ARC
  5
113
  8
TEAM-DET3
 10
-20.1535
 20
161.96396
 30
0.0
 40
2.95
 50
0.0
 51
95.008759
  0
ARC
  5
114
  8
TEAM-DET3
 10
-25.41594
 20
142.28256
 30
0.0
 40
6.43004
 50
173.437576
 51
238.209351
  0
ARC
  5
115
  8
TEAM-DET3
 10
-25.41594
 20
157.75132
 30
0.0
 40
6.43004
 50
121.790627
 51
186.562393
  0
ARC
  5
116
  8
TEAM-DET3
 10
-20.1535
 20
161.96396
 30
0.0
 40
5.7
 50
0.0
 51
95.000305
  0
LINE
  5
117
  8
TEAM-DET3
 10
30.00032
 20
153.01742
 30
0.0
 11
30.00032
 21
147.01766
 31
0.0
  0
LINE
  5
118
  8
TEAM-DET3
 10
-30.0003
 20
153.01742
 30
0.0
 11
-29.99968
 21
147.01766
 31
0.0
  0
LINE
  5
119
  8
TEAM-DET3
 10
26.25398
 20
161.38046
 30
0.0
 11
17.21222
 21
162.17148
 31
0.0
  0
LINE
  5
11A
  8
TEAM-DET3
 10
55.5713
 20
158.81576
 30
0.0
 11
30.98542
 21
160.96664
 31
0.0
  0
LINE
  5
11B
  8
TEAM-DET3
 10
56.073
 20
164.5433
 30
0.0
 11
20.65094
 21
167.64236
 31
0.0
  0
LINE
  5
11C
  8
TEAM-DET3
 10
55.83374
 20
161.80404
 30
0.0
 11
20.41168
 21
164.9028
 31
0.0
  0
LINE
  5
11D
  8
TEAM-DET3
 10
14.45466
 20
147.01644
 30
0.0
 11
14.45466
 21
144.01718
 31
0.0
  0
LINE
  5
11E
  8
TEAM-DET3
 10
17.2049
 20
153.01742
 30
0.0
 11
-17.20428
 21
153.01742
 31
0.0
  0
LINE
  5
11F
  8
TEAM-DET3
 10
17.2049
 20
147.01644
 30
0.0
 11
-17.20428
 21
147.01644
 31
0.0
  0
LINE
  5
120
  8
TEAM-DET3
 10
18.20466
 20
156.26694
 30
0.0
 11
18.20466
 21
143.76694
 31
0.0
  0
LINE
  5
121
  8
TEAM-DET3
 10
30.00032
 20
147.01766
 30
0.0
 11
23.80402
 21
147.01644
 31
0.0
  0
LINE
  5
122
  8
TEAM-DET3
 10
30.00032
 20
153.01742
 30
0.0
 11
23.80402
 21
153.01742
 31
0.0
  0
LINE
  5
123
  8
TEAM-DET3
 10
28.80402
 20
136.81748
 30
0.0
 11
18.80402
 21
144.01718
 31
0.0
  0
LINE
  5
124
  8
TEAM-DET3
 10
31.8045
 20
143.01742
 30
0.0
 11
23.80402
 21
146.0167
 31
0.0
  0
LINE
  5
125
  8
TEAM-DET3
 10
23.80402
 20
146.0167
 30
0.0
 11
18.80402
 21
144.01718
 31
0.0
  0
LINE
  5
126
  8
TEAM-DET3
 10
23.80402
 20
154.01718
 30
0.0
 11
18.80402
 21
156.0167
 31
0.0
  0
LINE
  5
127
  8
TEAM-DET3
 10
28.80402
 20
163.2167
 30
0.0
 11
18.80402
 21
156.0167
 31
0.0
  0
LINE
  5
128
  8
TEAM-DET3
 10
31.8045
 20
157.01644
 30
0.0
 11
23.80402
 21
154.01718
 31
0.0
  0
LINE
  5
129
  8
TEAM-DET3
 10
23.80402
 20
154.01718
 30
0.0
 11
23.80402
 21
146.0167
 31
0.0
  0
LINE
  5
12A
  8
TEAM-DET3
 10
18.80402
 20
156.0167
 30
0.0
 11
18.80402
 21
144.01718
 31
0.0
  0
LINE
  5
12B
  8
TEAM-DET3
 10
17.2049
 20
144.01718
 30
0.0
 11
14.45466
 21
144.01718
 31
0.0
  0
LINE
  5
12C
  8
TEAM-DET3
 10
14.45466
 20
146.51718
 30
0.0
 11
17.2049
 21
146.51718
 31
0.0
  0
LINE
  5
12D
  8
TEAM-DET3
 10
14.45466
 20
153.5167
 30
0.0
 11
17.2049
 21
153.5167
 31
0.0
  0
LINE
  5
12E
  8
TEAM-DET3
 10
17.2049
 20
144.01718
 30
0.0
 11
17.2049
 21
161.96396
 31
0.0
  0
LINE
  5
12F
  8
TEAM-DET3
 10
14.45404
 20
161.96396
 30
0.0
 11
14.45466
 21
153.01742
 31
0.0
  0
LINE
  5
130
  8
TEAM-DET3
 10
-26.25336
 20
161.38046
 30
0.0
 11
-17.2116
 21
162.17148
 31
0.0
  0
LINE
  5
131
  8
TEAM-DET3
 10
-55.57098
 20
158.81576
 30
0.0
 11
-30.9848
 21
160.96664
 31
0.0
  0
LINE
  5
132
  8
TEAM-DET3
 10
-56.07268
 20
164.5433
 30
0.0
 11
-20.65032
 21
167.64236
 31
0.0
  0
LINE
  5
133
  8
TEAM-DET3
 10
-55.83342
 20
161.80404
 30
0.0
 11
-20.41106
 21
164.9028
 31
0.0
  0
LINE
  5
134
  8
TEAM-DET3
 10
-14.45404
 20
147.01644
 30
0.0
 11
-14.45404
 21
144.01718
 31
0.0
  0
LINE
  5
135
  8
TEAM-DET3
 10
-18.20404
 20
156.26694
 30
0.0
 11
-18.20404
 21
143.76694
 31
0.0
  0
LINE
  5
136
  8
TEAM-DET3
 10
-29.99968
 20
147.01766
 30
0.0
 11
-23.8034
 21
147.01644
 31
0.0
  0
LINE
  5
137
  8
TEAM-DET3
 10
-30.0003
 20
153.01742
 30
0.0
 11
-23.8034
 21
153.01742
 31
0.0
  0
LINE
  5
138
  8
TEAM-DET3
 10
-28.8034
 20
136.81748
 30
0.0
 11
-18.8034
 21
144.01718
 31
0.0
  0
LINE
  5
139
  8
TEAM-DET3
 10
-31.80388
 20
143.01742
 30
0.0
 11
-23.8034
 21
146.0167
 31
0.0
  0
LINE
  5
13A
  8
TEAM-DET3
 10
-23.8034
 20
146.0167
 30
0.0
 11
-18.8034
 21
144.01718
 31
0.0
  0
LINE
  5
13B
  8
TEAM-DET3
 10
-23.8034
 20
154.01718
 30
0.0
 11
-18.8034
 21
156.0167
 31
0.0
  0
LINE
  5
13C
  8
TEAM-DET3
 10
-28.8034
 20
163.2167
 30
0.0
 11
-18.8034
 21
156.0167
 31
0.0
  0
LINE
  5
13D
  8
TEAM-DET3
 10
-31.80388
 20
157.01644
 30
0.0
 11
-23.8034
 21
154.01718
 31
0.0
  0
LINE
  5
13E
  8
TEAM-DET3
 10
-23.8034
 20
154.01718
 30
0.0
 11
-23.8034
 21
146.0167
 31
0.0
  0
LINE
  5
13F
  8
TEAM-AXE
 10
41.983013
 20
150.01786
 30
0.0
 11
-42.864933
 21
150.01754
 31
0.0
  0
ARC
  5
140
  8
TEAM-DET1
 10
-29.169922
 20
182.7
 30
0.0
 40
7.700664
 50
211.617188
 51
270.0
  0
ARC
  5
141
  8
TEAM-DET1
 10
29.169921
 20
182.7
 30
0.0
 40
7.699848
 50
270.0
 51
328.380707
  0
ARC
  5
142
  8
TEAM-DET1
 10
48.500488
 20
170.79961
 30
0.0
 40
14.999901
 50
96.459496
 51
148.383301
  0
ARC
  5
143
  8
TEAM-DET1
 10
-48.500977
 20
170.79961
 30
0.0
 40
14.999443
 50
31.616392
 51
83.538437
  0
ARC
  5
144
  8
TEAM-DET1
 10
-46.515885
 20
193.7269
 30
0.0
 40
8.029133
 50
185.978566
 51
267.87935
  0
ARC
  5
145
  8
TEAM-DET1
 10
46.515888
 20
193.726899
 30
0.0
 40
8.028606
 50
272.120703
 51
354.021225
  0
LINE
  5
146
  8
TEAM-DET1
 10
-46.812989
 20
185.703296
 30
0.0
 11
46.812988
 21
185.703784
 31
0.0
  0
LINE
  5
147
  8
TEAM-KAN
 10
29.169921
 20
174.998828
 30
0.0
 11
-29.169922
 21
174.999317
 31
0.0
  0
LINE
  5
149
  8
TEAM-AXE
 10
30.0
 20
594.0
 30
0.0
 11
30.0
 21
574.0
 31
0.0
  0
LINE
  5
14A
  8
TEAM-DET1
 10
-54.501465
 20
192.890625
 30
0.0
 11
-54.765137
 21
195.902344
 31
0.0
  0
LINE
  5
14B
  8
TEAM-DET1
 10
54.500976
 20
192.890625
 30
0.0
 11
54.720459
 21
195.404297
 31
0.0
  0
ARC
  5
14C
  8
TEAM-DET1
 10
-58.008789
 20
195.117188
 30
0.0
 40
3.3
 50
5.003706
 51
87.778336
  0
LINE
  5
14D
  8
TEAM-AXE
 10
0.0
 20
600.0
 30
0.0
 11
0.0
 21
191.699219
 31
0.0
  0
ARC
  5
14E
  8
TEAM-DET3
 10
56.59546
 20
170.51986
 30
0.0
 40
8.75
 50
265.005829
 51
321.098633
  0
ARC
  5
14F
  8
TEAM-DET3
 10
56.59546
 20
170.51986
 30
0.0
 40
6.0
 50
265.004517
 51
321.102631
  0
ARC
  5
150
  8
TEAM-DET3
 10
56.59546
 20
170.51986
 30
0.0
 40
11.75004
 50
264.999542
 51
321.098724
  0
LINE
  5
151
  8
TEAM-BODY
 10
-57.88086
 20
198.414795
 30
0.0
 11
57.880859
 21
198.414795
 31
0.0
  0
ARC
  5
152
  8
TEAM-DET1
 10
58.007812
 20
195.117188
 30
0.0
 40
3.3
 50
92.20472
 51
175.008591
  0
ENDSEC
  0
EOF
