  0
SECTION
  2
HEADER
  9
$ACADVER
  1
AC1009
  9
$INSBASE
 10
0.0
 20
0.0
 30
0.0
  9
$EXTMIN
 10
-804.823144
 20
-396.447934
 30
-0.001526
  9
$EXTMAX
 10
846.355395
 20
396.674465
 30
0.0
  9
$LIMMIN
 10
-804.823144
 20
-396.447934
  9
$LIMMAX
 10
846.355395
 20
396.674465
  9
$ORTHOMODE
 70
     1
  9
$REGENMODE
 70
     1
  9
$FILLMODE
 70
     1
  9
$QTEXTMODE
 70
     0
  9
$MIRRTEXT
 70
     0
  9
$DRAGMODE
 70
     2
  9
$LTSCALE
 40
50.0
  9
$OSMODE
 70
     7
  9
$ATTMODE
 70
     1
  9
$TEXTSIZE
 40
200.0
  9
$TRACEWID
 40
1.0
  9
$TEXTSTYLE
  7
STANDARD
  9
$CLAYER
  8
TEAM-MAS
  9
$CELTYPE
  6
BYLAYER
  9
$CECOLOR
 62
   256
  9
$DIMSCALE
 40
0.0
  9
$DIMASZ
 40
20.0
  9
$DIMEXO
 40
10.0
  9
$DIMDLI
 40
1.0
  9
$DIMRND
 40
0.0
  9
$DIMDLE
 40
0.0
  9
$DIMEXE
 40
1.0
  9
$DIMTP
 40
0.0
  9
$DIMTM
 40
0.0
  9
$DIMTXT
 40
35.0
  9
$DIMCEN
 40
1.0
  9
$DIMTSZ
 40
0.0
  9
$DIMTOL
 70
     0
  9
$DIMLIM
 70
     0
  9
$DIMTIH
 70
     0
  9
$DIMTOH
 70
     0
  9
$DIMSE1
 70
     0
  9
$DIMSE2
 70
     0
  9
$DIMTAD
 70
     0
  9
$DIMZIN
 70
     0
  9
$DIMBLK
  1

  9
$DIMASO
 70
     1
  9
$DIMSHO
 70
     0
  9
$DIMPOST
  1

  9
$DIMAPOST
  1

  9
$DIMALT
 70
     0
  9
$DIMALTD
 70
     2
  9
$DIMALTF
 40
25.4
  9
$DIMLFAC
 40
1.0
  9
$DIMTOFL
 70
     0
  9
$DIMTVP
 40
0.0
  9
$DIMTIX
 70
     0
  9
$DIMSOXD
 70
     0
  9
$DIMSAH
 70
     0
  9
$DIMBLK1
  1

  9
$DIMBLK2
  1

  9
$DIMSTYLE
  2
TEAM
  9
$DIMCLRD
 70
     9
  9
$DIMCLRE
 70
     9
  9
$DIMCLRT
 70
    11
  9
$DIMTFAC
 40
1.0
  9
$DIMGAP
 40
7.0
  9
$LUNITS
 70
     2
  9
$LUPREC
 70
     1
  9
$SKETCHINC
 40
1.0
  9
$FILLETRAD
 40
5.0
  9
$AUNITS
 70
     0
  9
$AUPREC
 70
     0
  9
$MENU
  1
ROPLANS
  9
$ELEVATION
 40
0.0
  9
$PELEVATION
 40
0.0
  9
$THICKNESS
 40
0.0
  9
$LIMCHECK
 70
     0
  9
$BLIPMODE
 70
     1
  9
$CHAMFERA
 40
0.0
  9
$CHAMFERB
 40
0.0
  9
$SKPOLY
 70
     0
  9
$TDCREATE
 40
2450392.957851
  9
$TDUPDATE
 40
2455944.698999
  9
$TDINDWG
 40
3.037655
  9
$TDUSRTIMER
 40
3.037655
  9
$USRTIMER
 70
     1
  9
$ANGBASE
 50
0.0
  9
$ANGDIR
 70
     0
  9
$PDMODE
 70
     0
  9
$PDSIZE
 40
0.0
  9
$PLINEWID
 40
0.0
  9
$COORDS
 70
     2
  9
$SPLFRAME
 70
     0
  9
$SPLINETYPE
 70
     6
  9
$SPLINESEGS
 70
     8
  9
$ATTDIA
 70
     0
  9
$ATTREQ
 70
     0
  9
$HANDLING
 70
     1
  9
$HANDSEED
  5
2AD
  9
$SURFTAB1
 70
    24
  9
$SURFTAB2
 70
    24
  9
$SURFTYPE
 70
     6
  9
$SURFU
 70
     6
  9
$SURFV
 70
     6
  9
$UCSNAME
  2

  9
$UCSORG
 10
0.0
 20
0.0
 30
0.0
  9
$UCSXDIR
 10
1.0
 20
0.0
 30
0.0
  9
$UCSYDIR
 10
0.0
 20
1.0
 30
0.0
  9
$PUCSNAME
  2

  9
$PUCSORG
 10
0.0
 20
0.0
 30
0.0
  9
$PUCSXDIR
 10
1.0
 20
0.0
 30
0.0
  9
$PUCSYDIR
 10
0.0
 20
1.0
 30
0.0
  9
$USERI1
 70
     0
  9
$USERI2
 70
     0
  9
$USERI3
 70
     0
  9
$USERI4
 70
     0
  9
$USERI5
 70
     0
  9
$USERR1
 40
0.0
  9
$USERR2
 40
0.0
  9
$USERR3
 40
0.0
  9
$USERR4
 40
0.0
  9
$USERR5
 40
0.0
  9
$WORLDVIEW
 70
     1
  9
$SHADEDGE
 70
     0
  9
$SHADEDIF
 70
    70
  9
$TILEMODE
 70
     1
  9
$MAXACTVP
 70
    16
  9
$PLIMCHECK
 70
     0
  9
$PEXTMIN
 10
-0.805942
 20
0.005011
 30
0.0
  9
$PEXTMAX
 10
20.250094
 20
11.356329
 30
0.0
  9
$PLIMMIN
 10
0.0
 20
0.0
  9
$PLIMMAX
 10
12.0
 20
9.0
  9
$UNITMODE
 70
     0
  9
$VISRETAIN
 70
     0
  9
$PLINEGEN
 70
     0
  9
$PSLTSCALE
 70
     0
  0
ENDSEC
  0
SECTION
  2
TABLES
  0
TABLE
  2
VPORT
 70
     2
  0
VPORT
  2
*ACTIVE
 70
     0
 10
0.0
 20
0.0
 11
1.0
 21
1.0
 12
20.766125
 22
0.113266
 13
0.0
 23
0.0
 14
1.0
 24
1.0
 15
20.0
 25
20.0
 16
0.0
 26
0.0
 36
1.0
 17
0.0
 27
0.0
 37
0.0
 40
870.17867
 41
1.903766
 42
50.0
 43
0.0
 44
0.0
 50
0.0
 51
0.0
 71
     0
 72
   100
 73
     1
 74
     1
 75
     0
 76
     0
 77
     0
 78
     0
  0
ENDTAB
  0
TABLE
  2
LTYPE
 70
     2
  0
LTYPE
  2
CONTINUOUS
 70
     0
  3
Solid Line
 72
    65
 73
     0
 40
0.0
  0
LTYPE
  2
31
 70
     0
  3

 72
    65
 73
     4
 40
2.1
 49
1.5
 49
-0.3
 49
0.0
 49
-0.3
  0
ENDTAB
  0
TABLE
  2
LAYER
 70
     8
  0
LAYER
  2
0
 70
     0
 62
     7
  6
CONTINUOUS
  0
LAYER
  2
DEFPOINTS
 70
     0
 62
     7
  6
CONTINUOUS
  0
LAYER
  2
TEAM-BODY
 70
     0
 62
     2
  6
CONTINUOUS
  0
LAYER
  2
TEAM-AXE
 70
     0
 62
    10
  6
31
  0
LAYER
  2
TEAM-MAS
 70
     0
 62
     9
  6
CONTINUOUS
  0
LAYER
  2
TEAM-TXT
 70
     0
 62
    11
  6
CONTINUOUS
  0
LAYER
  2
TEAM-DET1
 70
     0
 62
     4
  6
CONTINUOUS
  0
LAYER
  2
TEAM-INSP
 70
     0
 62
     5
  6
CONTINUOUS
  0
ENDTAB
  0
TABLE
  2
STYLE
 70
     2
  0
STYLE
  2
STANDARD
 70
     0
 40
0.0
 41
1.0
 50
0.0
 71
     0
 42
200.0
  3
txt
  4

  0
STYLE
  2
TEAM
 70
     0
 40
0.0
 41
0.8
 50
15.0
 71
     0
 42
7.0
  3
ROMANS.shx
  4

  0
ENDTAB
  0
TABLE
  2
VIEW
 70
     0
  0
ENDTAB
  0
TABLE
  2
UCS
 70
     0
  0
ENDTAB
  0
TABLE
  2
APPID
 70
     1
  0
APPID
  2
ACAD
 70
     0
  0
ENDTAB
  0
TABLE
  2
DIMSTYLE
 70
     1
  0
DIMSTYLE
  2
TEAM
 70
     0
  3

  4

  5

  6

  7

 40
0.0
 41
20.0
 42
10.0
 43
1.0
 44
1.0
 45
0.0
 46
0.0
 47
0.0
 48
0.0
140
35.0
141
1.0
142
0.0
143
25.4
144
1.0
145
0.0
146
1.0
147
7.0
 71
     0
 72
     0
 73
     0
 74
     0
 75
     0
 76
     0
 77
     0
 78
     0
170
     0
171
     2
172
     0
173
     0
174
     0
175
     0
176
     9
177
     9
178
    11
  0
ENDTAB
  0
ENDSEC
  0
SECTION
  2
BLOCKS
  0
BLOCK
  8
0
  2
$MODEL_SPACE
 70
     0
 10
0.0
 20
0.0
 30
0.0
  3
$MODEL_SPACE
  1

  0
ENDBLK
  5
20A
  8
0
  0
BLOCK
 67
     1
  8
0
  2
$PAPER_SPACE
 70
     0
 10
0.0
 20
0.0
 30
0.0
  3
$PAPER_SPACE
  1

  0
ENDBLK
  5
208
 67
     1
  8
0
  0
BLOCK
  8
0
  2
*D0
 70
     1
 10
0.0
 20
0.0
 30
0.0
  3
*D0
  1

  0
LINE
  5
31
  8
0
  6
BYBLOCK
 62
     9
 10
800.000061
 20
375663.0
 30
0.0
 11
800.000061
 21
375620.076267
 31
0.0
  0
LINE
  5
32
  8
0
  6
BYBLOCK
 62
     9
 10
490.000061
 20
375990.0
 30
0.0
 11
490.000061
 21
375620.076267
 31
0.0
  0
LINE
  5
33
  8
0
  6
BYBLOCK
 62
     9
 10
780.000061
 20
375621.076267
 30
0.0
 11
689.916728
 21
375621.076267
 31
0.0
  0
LINE
  5
34
  8
0
  6
BYBLOCK
 62
     9
 10
510.000061
 20
375621.076267
 30
0.0
 11
600.083394
 21
375621.076267
 31
0.0
  0
SOLID
  5
35
  8
0
  6
BYBLOCK
 62
     9
 10
780.000061
 20
375624.409601
 30
0.0
 11
780.000061
 21
375617.742934
 31
0.0
 12
800.000061
 22
375621.076267
 32
0.0
 13
800.000061
 23
375621.076267
 33
0.0
  0
SOLID
  5
36
  8
0
  6
BYBLOCK
 62
     9
 10
510.000061
 20
375624.409601
 30
0.0
 11
510.000061
 21
375617.742934
 31
0.0
 12
490.000061
 22
375621.076267
 32
0.0
 13
490.000061
 23
375621.076267
 33
0.0
  0
TEXT
  5
37
  8
0
  6
BYBLOCK
 62
    11
 10
607.083394
 20
375603.576267
 30
0.0
 40
35.0
  1
310
  0
POINT
  5
38
  8
DEFPOINTS
  6
BYBLOCK
 62
     0
 10
800.000061
 20
375673.0
 30
0.0
  0
POINT
  5
39
  8
DEFPOINTS
  6
BYBLOCK
 62
     0
 10
490.000061
 20
376000.0
 30
0.0
  0
POINT
  5
3A
  8
DEFPOINTS
  6
BYBLOCK
 62
     0
 10
490.000061
 20
375621.076267
 30
0.0
  0
ENDBLK
  5
3C
  8
0
  0
BLOCK
  8
0
  2
*D1
 70
     1
 10
0.0
 20
0.0
 30
0.0
  3
*D1
  1

  0
LINE
  5
77
  8
0
  6
BYBLOCK
 62
     9
 10
787.000061
 20
376350.0
 30
0.0
 11
829.80515
 21
376350.0
 31
0.0
  0
LINE
  5
78
  8
0
  6
BYBLOCK
 62
     9
 10
787.000061
 20
375650.0
 30
0.0
 11
829.80515
 21
375650.0
 31
0.0
  0
LINE
  5
79
  8
0
  6
BYBLOCK
 62
     9
 10
828.80515
 20
376330.0
 30
0.0
 11
828.80515
 21
376047.833333
 31
0.0
  0
LINE
  5
7A
  8
0
  6
BYBLOCK
 62
     9
 10
828.80515
 20
375670.0
 30
0.0
 11
828.80515
 21
375952.166667
 31
0.0
  0
SOLID
  5
7B
  8
0
  6
BYBLOCK
 62
     9
 10
825.471816
 20
376330.0
 30
0.0
 11
832.138483
 21
376330.0
 31
0.0
 12
828.80515
 22
376350.0
 32
0.0
 13
828.80515
 23
376350.0
 33
0.0
  0
SOLID
  5
7C
  8
0
  6
BYBLOCK
 62
     9
 10
825.471816
 20
375670.0
 30
0.0
 11
832.138483
 21
375670.0
 31
0.0
 12
828.80515
 22
375650.0
 32
0.0
 13
828.80515
 23
375650.0
 33
0.0
  0
TEXT
  5
7D
  8
0
  6
BYBLOCK
 62
    11
 10
846.30515
 20
375959.166667
 30
0.0
 40
35.0
  1
700
 50
90.0
  0
POINT
  5
7E
  8
DEFPOINTS
  6
BYBLOCK
 62
     0
 10
777.000061
 20
376350.0
 30
0.0
  0
POINT
  5
7F
  8
DEFPOINTS
  6
BYBLOCK
 62
     0
 10
777.000061
 20
375650.0
 30
0.0
  0
POINT
  5
80
  8
DEFPOINTS
  6
BYBLOCK
 62
     0
 10
828.80515
 20
375650.0
 30
0.0
  0
ENDBLK
  5
82
  8
0
  0
BLOCK
  8
0
  2
*D2
 70
     1
 10
0.0
 20
0.0
 30
0.0
  3
*D2
  1

  0
LINE
  5
22
  8
0
  6
BYBLOCK
 62
     9
 10
-799.999988
 20
376337.0
 30
0.0
 11
-799.999988
 21
376380.150261
 31
0.0
  0
LINE
  5
23
  8
0
  6
BYBLOCK
 62
     9
 10
800.000061
 20
376337.0
 30
0.0
 11
800.000061
 21
376380.150261
 31
0.0
  0
LINE
  5
24
  8
0
  6
BYBLOCK
 62
     9
 10
-779.999988
 20
376379.150261
 30
0.0
 11
-59.499964
 21
376379.150261
 31
0.0
  0
LINE
  5
25
  8
0
  6
BYBLOCK
 62
     9
 10
780.000061
 20
376379.150261
 30
0.0
 11
59.500036
 21
376379.150261
 31
0.0
  0
SOLID
  5
26
  8
0
  6
BYBLOCK
 62
     9
 10
-779.999988
 20
376382.483594
 30
0.0
 11
-779.999988
 21
376375.816927
 31
0.0
 12
-799.999988
 22
376379.150261
 32
0.0
 13
-799.999988
 23
376379.150261
 33
0.0
  0
SOLID
  5
27
  8
0
  6
BYBLOCK
 62
     9
 10
780.000061
 20
376382.483594
 30
0.0
 11
780.000061
 21
376375.816927
 31
0.0
 12
800.000061
 22
376379.150261
 32
0.0
 13
800.000061
 23
376379.150261
 33
0.0
  0
TEXT
  5
28
  8
0
  6
BYBLOCK
 62
    11
 10
-52.499964
 20
376361.650261
 30
0.0
 40
35.0
  1
1600
  0
POINT
  5
29
  8
DEFPOINTS
  6
BYBLOCK
 62
     0
 10
-799.999988
 20
376327.0
 30
0.0
  0
POINT
  5
2B
  8
DEFPOINTS
  6
BYBLOCK
 62
     0
 10
800.000061
 20
376327.0
 30
0.0
  0
POINT
  5
2C
  8
DEFPOINTS
  6
BYBLOCK
 62
     0
 10
800.000061
 20
376379.150261
 30
0.0
  0
ENDBLK
  5
2E
  8
0
  0
ENDSEC
  0
SECTION
  2
ENTITIES
  0
DIMENSION
  5
20
  8
TEAM-MAS
  2
*D2
 10
800.000061
 20
379.150261
 30
0.0
 11
0.000036
 21
379.150261
 31
0.0
 12
0.0
 22
-376000.0
 32
0.0
 13
-799.999988
 23
327.0
 33
0.0
 14
800.000061
 24
327.0
 34
0.0
1001
ACAD
1000
DSTYLE
1002
{
1070
    40
1040
1.0
1002
}
  0
DIMENSION
  5
2F
  8
TEAM-MAS
  2
*D0
 10
490.000061
 20
-378.923733
 30
0.0
 11
645.000061
 21
-378.923733
 31
0.0
 12
0.0
 22
-376000.0
 32
0.0
 13
800.000061
 23
-327.0
 33
0.0
 14
490.000061
 24
0.0
 34
0.0
1001
ACAD
1000
DSTYLE
1002
{
1070
    40
1040
1.0
1002
}
  0
CIRCLE
  5
3D
  8
TEAM-DET1
 10
490.000061
 20
0.0
 30
0.0
 40
45.0
  0
LINE
  5
3F
  8
TEAM-BODY
 10
543.000061
 20
147.5
 30
0.0
 11
496.926087
 21
147.5
 31
0.0
  0
LINE
  5
41
  8
TEAM-DET1
 10
487.389954
 20
212.933594
 30
0.0
 11
577.735901
 21
212.34961
 31
0.0
  0
ARC
  5
42
  8
TEAM-DET1
 10
0.0
 20
-89709.999634
 30
0.0
 40
90000.0
 50
89.595284
 51
90.40406
  0
LINE
  5
43
  8
TEAM-BODY
 10
-776.999988
 20
350.0
 30
0.0
 11
777.000061
 21
350.0
 31
0.0
  0
LINE
  5
44
  8
TEAM-AXE
 10
-799.999988
 20
0.0
 30
0.0
 11
800.000061
 21
0.0
 31
0.0
  0
ARC
  5
47
  8
TEAM-DET1
 10
0.002442
 20
-89714.437134
 30
0.0
 40
90028.710938
 50
89.529427
 51
90.478081
  0
LINE
  5
48
  8
TEAM-BODY
 10
-776.999988
 20
344.0
 30
0.0
 11
777.000061
 21
344.0
 31
0.0
  0
LINE
  5
49
  8
TEAM-BODY
 10
496.925843
 20
-147.5
 30
0.0
 11
543.000061
 21
-147.5
 31
0.0
  0
LINE
  5
4A
  8
TEAM-DET1
 10
577.735169
 20
-212.349609
 30
0.0
 11
487.389466
 21
-212.933593
 31
0.0
  0
ARC
  5
4B
  8
TEAM-DET1
 10
0.0
 20
89710.000366
 30
0.0
 40
90000.0
 50
269.595917
 51
270.404694
  0
LINE
  5
4C
  8
TEAM-BODY
 10
777.000061
 20
-350.0
 30
0.0
 11
-776.999988
 21
-350.0
 31
0.0
  0
ARC
  5
4D
  8
TEAM-DET1
 10
0.002442
 20
89714.453492
 30
0.0
 40
90028.710938
 50
269.521912
 51
270.470581
  0
LINE
  5
4E
  8
TEAM-BODY
 10
777.000061
 20
-344.0
 30
0.0
 11
-776.999988
 21
-344.0
 31
0.0
  0
POLYLINE
  5
4F
  8
TEAM-DET1
 66
     1
 10
0.0
 20
0.0
 30
0.0
  0
VERTEX
  5
210
  8
TEAM-DET1
 10
537.389466
 20
-212.933593
 30
0.0
  0
VERTEX
  5
211
  8
TEAM-DET1
 10
203.120911
 20
-214.308593
 30
0.0
  0
VERTEX
  5
212
  8
TEAM-DET1
 10
-131.150879
 20
-214.441406
 30
0.0
  0
VERTEX
  5
213
  8
TEAM-DET1
 10
-415.420898
 20
-213.5
 30
0.0
  0
SEQEND
  5
214
  8
TEAM-DET1
  0
CIRCLE
  5
50
  8
TEAM-INSP
 10
0.0
 20
0.0
 30
0.0
 40
7.1
  0
CIRCLE
  5
52
  8
TEAM-BODY
 10
490.000061
 20
0.0
 30
0.0
 40
26.0
  0
LINE
  5
53
  8
TEAM-AXE
 10
490.000061
 20
45.0
 30
0.0
 11
490.000061
 21
-45.0
 31
0.0
  0
POLYLINE
  5
54
  8
TEAM-BODY
 66
     1
 10
0.0
 20
0.0
 30
0.0
  0
VERTEX
  5
215
  8
TEAM-BODY
 10
496.926087
 20
147.5
 30
0.0
  0
VERTEX
  5
216
  8
TEAM-BODY
 10
458.687806
 20
147.5
 30
0.0
  0
VERTEX
  5
217
  8
TEAM-BODY
 10
420.460755
 20
147.5
 30
0.0
  0
SEQEND
  5
218
  8
TEAM-BODY
  0
LINE
  5
55
  8
TEAM-BODY
 10
470.460755
 20
147.5
 30
0.0
 11
-397.000244
 21
147.5
 31
0.0
  0
ARC
  5
56
  8
TEAM-DET1
 10
-653.168441
 20
234.048828
 30
0.0
 40
45.0
 50
139.350464
 51
179.102234
  0
ARC
  5
57
  8
TEAM-DET1
 10
-634.200424
 20
217.763672
 30
0.0
 40
70.0
 50
90.40406
 51
139.351059
  0
ARC
  5
58
  8
TEAM-BODY
 10
-776.999988
 20
327.0
 30
0.0
 40
23.0
 50
90.0
 51
180.0
  0
ARC
  5
59
  8
TEAM-DET1
 10
-751.15477
 20
306.13086
 30
0.0
 40
5.0
 50
90.478386
 51
178.836105
  0
ARC
  5
5A
  8
TEAM-BODY
 10
-776.999988
 20
327.0
 30
0.0
 40
17.0
 50
90.0
 51
180.0
  0
ARC
  5
5B
  8
TEAM-DET1
 10
-430.682861
 20
123.453125
 30
0.0
 40
85.764229
 50
158.706757
 51
179.560272
  0
ARC
  5
5C
  8
TEAM-DET1
 10
-430.958252
 20
123.222657
 30
0.0
 40
85.591774
 50
133.627518
 51
158.496017
  0
POLYLINE
  5
5D
  8
TEAM-DET1
 66
     1
 10
0.0
 20
0.0
 30
0.0
  0
VERTEX
  5
219
  8
TEAM-DET1
 10
-490.014648
 20
185.177735
 30
0.0
  0
VERTEX
  5
21A
  8
TEAM-DET1
 10
-482.262451
 20
191.820313
 30
0.0
  0
VERTEX
  5
21B
  8
TEAM-DET1
 10
-473.835693
 20
197.582032
 30
0.0
  0
VERTEX
  5
21C
  8
TEAM-DET1
 10
-464.864502
 20
202.433594
 30
0.0
  0
VERTEX
  5
21D
  8
TEAM-DET1
 10
-455.457519
 20
206.376953
 30
0.0
  0
VERTEX
  5
21E
  8
TEAM-DET1
 10
-445.721435
 20
209.417969
 30
0.0
  0
VERTEX
  5
21F
  8
TEAM-DET1
 10
-435.750976
 20
211.574219
 30
0.0
  0
VERTEX
  5
220
  8
TEAM-DET1
 10
-425.618408
 20
212.871094
 30
0.0
  0
VERTEX
  5
221
  8
TEAM-DET1
 10
-415.419921
 20
213.333985
 30
0.0
  0
SEQEND
  5
222
  8
TEAM-DET1
  0
ARC
  5
5E
  8
TEAM-BODY
 10
-397.000244
 20
127.5
 30
0.0
 40
20.0
 50
90.0
 51
180.0
  0
POLYLINE
  5
5F
  8
TEAM-DET1
 66
     1
 10
0.0
 20
0.0
 30
0.0
  0
VERTEX
  5
223
  8
TEAM-DET1
 10
-415.42041
 20
213.5
 30
0.0
  0
VERTEX
  5
224
  8
TEAM-DET1
 10
-131.150634
 20
214.441407
 30
0.0
  0
VERTEX
  5
225
  8
TEAM-DET1
 10
203.121399
 20
214.308594
 30
0.0
  0
VERTEX
  5
226
  8
TEAM-DET1
 10
487.390686
 20
213.138672
 30
0.0
  0
SEQEND
  5
227
  8
TEAM-DET1
  0
TEXT
  5
60
  8
TEAM-TXT
 10
-601.416675
 20
232.667788
 30
0.0
 40
30.0
  1
team 111449
 41
0.8
 51
15.0
  7
TEAM
  0
POLYLINE
  5
63
  8
TEAM-BODY
 66
     1
 10
0.0
 20
0.0
 30
0.0
  0
VERTEX
  5
228
  8
TEAM-BODY
 10
420.460755
 20
-147.5
 30
0.0
  0
VERTEX
  5
229
  8
TEAM-BODY
 10
458.687806
 20
-147.5
 30
0.0
  0
VERTEX
  5
22A
  8
TEAM-BODY
 10
496.925843
 20
-147.5
 30
0.0
  0
SEQEND
  5
22B
  8
TEAM-BODY
  0
LINE
  5
64
  8
TEAM-BODY
 10
470.460755
 20
-147.5
 30
0.0
 11
-397.000244
 21
-147.5
 31
0.0
  0
ARC
  5
65
  8
TEAM-DET1
 10
-653.168441
 20
-234.048828
 30
0.0
 40
45.0
 50
180.897766
 51
220.649536
  0
ARC
  5
66
  8
TEAM-DET1
 10
-634.200424
 20
-217.763672
 30
0.0
 40
70.0
 50
220.648926
 51
269.595917
  0
ARC
  5
67
  8
TEAM-BODY
 10
-776.999988
 20
-327.0
 30
0.0
 40
23.0
 50
180.0
 51
270.0
  0
ARC
  5
68
  8
TEAM-DET1
 10
-751.15477
 20
-306.130859
 30
0.0
 40
5.0
 50
181.163879
 51
269.521606
  0
ARC
  5
69
  8
TEAM-BODY
 10
-776.999988
 20
-327.0
 30
0.0
 40
17.0
 50
180.0
 51
270.0
  0
ARC
  5
6A
  8
TEAM-DET1
 10
-430.95874
 20
-123.222656
 30
0.0
 40
85.591843
 50
201.503937
 51
226.372528
  0
ARC
  5
6B
  8
TEAM-DET1
 10
-430.68457
 20
-123.455078
 30
0.0
 40
85.762871
 50
180.438416
 51
201.292206
  0
POLYLINE
  5
6C
  8
TEAM-DET1
 66
     1
 10
0.0
 20
0.0
 30
0.0
  0
VERTEX
  5
22C
  8
TEAM-DET1
 10
-415.42041
 20
-213.333984
 30
0.0
  0
VERTEX
  5
22D
  8
TEAM-DET1
 10
-425.618652
 20
-212.873047
 30
0.0
  0
VERTEX
  5
22E
  8
TEAM-DET1
 10
-435.751464
 20
-211.574218
 30
0.0
  0
VERTEX
  5
22F
  8
TEAM-DET1
 10
-445.721679
 20
-209.417968
 30
0.0
  0
VERTEX
  5
230
  8
TEAM-DET1
 10
-455.457763
 20
-206.376953
 30
0.0
  0
VERTEX
  5
231
  8
TEAM-DET1
 10
-464.864502
 20
-202.433593
 30
0.0
  0
VERTEX
  5
232
  8
TEAM-DET1
 10
-473.835693
 20
-197.582031
 30
0.0
  0
VERTEX
  5
233
  8
TEAM-DET1
 10
-482.262695
 20
-191.820312
 30
0.0
  0
VERTEX
  5
234
  8
TEAM-DET1
 10
-490.015136
 20
-185.177734
 30
0.0
  0
SEQEND
  5
235
  8
TEAM-DET1
  0
ARC
  5
6D
  8
TEAM-BODY
 10
-397.000244
 20
-127.5
 30
0.0
 40
20.0
 50
180.0
 51
270.0
  0
ARC
  5
6E
  8
TEAM-DET1
 10
14300.001282
 20
0.0
 30
0.0
 40
15000.0
 50
179.103271
 51
180.896729
  0
LINE
  5
6F
  8
TEAM-BODY
 10
-799.999988
 20
-327.0
 30
0.0
 11
-799.999988
 21
327.0
 31
0.0
  0
ARC
  5
70
  8
TEAM-DET1
 10
14334.147767
 20
0.0
 30
0.0
 40
15093.408203
 50
178.837433
 51
181.162552
  0
LINE
  5
71
  8
TEAM-BODY
 10
-793.999988
 20
-327.0
 30
0.0
 11
-793.999988
 21
327.0
 31
0.0
  0
LINE
  5
72
  8
TEAM-AXE
 10
0.0
 20
-350.0
 30
0.0
 11
0.0
 21
350.0
 31
0.0
  0
LINE
  5
73
  8
TEAM-DET1
 10
-516.44458
 20
124.111328
 30
0.0
 11
-516.444946
 21
-124.111328
 31
0.0
  0
LINE
  5
74
  8
TEAM-BODY
 10
-417.000244
 20
127.5
 30
0.0
 11
-417.000244
 21
-127.5
 31
0.0
  0
DIMENSION
  5
75
  8
TEAM-MAS
  2
*D1
 10
828.80515
 20
-350.0
 30
0.0
 11
828.80515
 21
0.0
 31
0.0
 12
0.0
 22
-376000.0
 32
0.0
 13
777.000061
 23
350.0
 33
0.0
 14
777.000061
 24
-350.0
 34
0.0
 50
90.0
1001
ACAD
1000
DSTYLE
1002
{
1070
    40
1040
1.0
1002
}
  0
POLYLINE
  5
83
  8
TEAM-DET1
 66
     1
 10
0.0
 20
0.0
 30
0.0
  0
VERTEX
  5
236
  8
TEAM-DET1
 10
705.104554
 20
24.173828
 30
0.0
  0
VERTEX
  5
237
  8
TEAM-DET1
 10
704.927063
 20
24.726563
 30
0.0
  0
VERTEX
  5
238
  8
TEAM-DET1
 10
704.746155
 20
25.183594
 30
0.0
  0
VERTEX
  5
239
  8
TEAM-DET1
 10
704.562073
 20
25.539063
 30
0.0
  0
VERTEX
  5
23A
  8
TEAM-DET1
 10
704.376038
 20
25.794922
 30
0.0
  0
VERTEX
  5
23B
  8
TEAM-DET1
 10
704.188538
 20
25.949219
 30
0.0
  0
VERTEX
  5
23C
  8
TEAM-DET1
 10
704.000061
 20
26.0
 30
0.0
  0
SEQEND
  5
23D
  8
TEAM-DET1
  0
POLYLINE
  5
84
  8
TEAM-DET1
 66
     1
 10
0.0
 20
0.0
 30
0.0
  0
VERTEX
  5
23E
  8
TEAM-DET1
 10
703.43805
 20
-25.539062
 30
0.0
  0
VERTEX
  5
23F
  8
TEAM-DET1
 10
703.624085
 20
-25.794922
 30
0.0
  0
VERTEX
  5
240
  8
TEAM-DET1
 10
703.811585
 20
-25.949218
 30
0.0
  0
VERTEX
  5
241
  8
TEAM-DET1
 10
704.000061
 20
-26.0
 30
0.0
  0
VERTEX
  5
242
  8
TEAM-DET1
 10
704.188538
 20
-25.949218
 30
0.0
  0
VERTEX
  5
243
  8
TEAM-DET1
 10
704.376038
 20
-25.794922
 30
0.0
  0
VERTEX
  5
244
  8
TEAM-DET1
 10
704.562073
 20
-25.539062
 30
0.0
  0
VERTEX
  5
245
  8
TEAM-DET1
 10
704.746155
 20
-25.183593
 30
0.0
  0
VERTEX
  5
246
  8
TEAM-DET1
 10
704.927063
 20
-24.726562
 30
0.0
  0
VERTEX
  5
247
  8
TEAM-DET1
 10
705.104554
 20
-24.173828
 30
0.0
  0
VERTEX
  5
248
  8
TEAM-DET1
 10
705.277405
 20
-23.52539
 30
0.0
  0
VERTEX
  5
249
  8
TEAM-DET1
 10
705.445374
 20
-22.783203
 30
0.0
  0
VERTEX
  5
24A
  8
TEAM-DET1
 10
705.607483
 20
-21.953125
 30
0.0
  0
VERTEX
  5
24B
  8
TEAM-DET1
 10
705.763489
 20
-21.035156
 30
0.0
  0
VERTEX
  5
24C
  8
TEAM-DET1
 10
705.912415
 20
-20.033203
 30
0.0
  0
VERTEX
  5
24D
  8
TEAM-DET1
 10
706.053772
 20
-18.953125
 30
0.0
  0
VERTEX
  5
24E
  8
TEAM-DET1
 10
706.187073
 20
-17.798828
 30
0.0
  0
VERTEX
  5
24F
  8
TEAM-DET1
 10
706.311585
 20
-16.572265
 30
0.0
  0
VERTEX
  5
250
  8
TEAM-DET1
 10
706.427063
 20
-15.283203
 30
0.0
  0
VERTEX
  5
251
  8
TEAM-DET1
 10
706.53302
 20
-13.93164
 30
0.0
  0
VERTEX
  5
252
  8
TEAM-DET1
 10
706.628968
 20
-12.52539
 30
0.0
  0
VERTEX
  5
253
  8
TEAM-DET1
 10
706.714417
 20
-11.070312
 30
0.0
  0
VERTEX
  5
254
  8
TEAM-DET1
 10
706.789368
 20
-9.570312
 30
0.0
  0
VERTEX
  5
255
  8
TEAM-DET1
 10
706.853089
 20
-8.035156
 30
0.0
  0
VERTEX
  5
256
  8
TEAM-DET1
 10
706.905823
 20
-6.466797
 30
0.0
  0
VERTEX
  5
257
  8
TEAM-DET1
 10
706.946839
 20
-4.871093
 30
0.0
  0
VERTEX
  5
258
  8
TEAM-DET1
 10
706.97638
 20
-3.257812
 30
0.0
  0
VERTEX
  5
259
  8
TEAM-DET1
 10
706.994202
 20
-1.632812
 30
0.0
  0
VERTEX
  5
25A
  8
TEAM-DET1
 10
707.000061
 20
0.0
 30
0.0
  0
VERTEX
  5
25B
  8
TEAM-DET1
 10
706.994202
 20
1.632813
 30
0.0
  0
VERTEX
  5
25C
  8
TEAM-DET1
 10
706.97638
 20
3.257813
 30
0.0
  0
VERTEX
  5
25D
  8
TEAM-DET1
 10
706.946839
 20
4.871094
 30
0.0
  0
VERTEX
  5
25E
  8
TEAM-DET1
 10
706.905823
 20
6.466797
 30
0.0
  0
VERTEX
  5
25F
  8
TEAM-DET1
 10
706.853089
 20
8.035157
 30
0.0
  0
VERTEX
  5
260
  8
TEAM-DET1
 10
706.789368
 20
9.570313
 30
0.0
  0
VERTEX
  5
261
  8
TEAM-DET1
 10
706.714417
 20
11.070313
 30
0.0
  0
VERTEX
  5
262
  8
TEAM-DET1
 10
706.628968
 20
12.525391
 30
0.0
  0
VERTEX
  5
263
  8
TEAM-DET1
 10
706.53302
 20
13.931641
 30
0.0
  0
VERTEX
  5
264
  8
TEAM-DET1
 10
706.427063
 20
15.283203
 30
0.0
  0
VERTEX
  5
265
  8
TEAM-DET1
 10
706.311585
 20
16.572266
 30
0.0
  0
VERTEX
  5
266
  8
TEAM-DET1
 10
706.187073
 20
17.798828
 30
0.0
  0
VERTEX
  5
267
  8
TEAM-DET1
 10
706.053772
 20
18.953125
 30
0.0
  0
VERTEX
  5
268
  8
TEAM-DET1
 10
705.912415
 20
20.033203
 30
0.0
  0
VERTEX
  5
269
  8
TEAM-DET1
 10
705.763489
 20
21.035157
 30
0.0
  0
VERTEX
  5
26A
  8
TEAM-DET1
 10
705.607483
 20
21.953125
 30
0.0
  0
VERTEX
  5
26B
  8
TEAM-DET1
 10
705.445374
 20
22.783203
 30
0.0
  0
VERTEX
  5
26C
  8
TEAM-DET1
 10
705.277405
 20
23.525391
 30
0.0
  0
VERTEX
  5
26D
  8
TEAM-DET1
 10
705.104554
 20
24.173828
 30
0.0
  0
SEQEND
  5
26E
  8
TEAM-DET1
  0
POLYLINE
  5
85
  8
TEAM-DET1
 66
     1
 10
0.0
 20
0.0
 30
0.0
  0
VERTEX
  5
26F
  8
TEAM-DET1
 10
704.000061
 20
26.0
 30
0.0
  0
VERTEX
  5
270
  8
TEAM-DET1
 10
703.811585
 20
25.949219
 30
0.0
  0
VERTEX
  5
271
  8
TEAM-DET1
 10
703.624085
 20
25.794922
 30
0.0
  0
VERTEX
  5
272
  8
TEAM-DET1
 10
703.43805
 20
25.539063
 30
0.0
  0
VERTEX
  5
273
  8
TEAM-DET1
 10
703.253968
 20
25.183594
 30
0.0
  0
VERTEX
  5
274
  8
TEAM-DET1
 10
703.073059
 20
24.726563
 30
0.0
  0
VERTEX
  5
275
  8
TEAM-DET1
 10
702.895569
 20
24.173828
 30
0.0
  0
VERTEX
  5
276
  8
TEAM-DET1
 10
702.722718
 20
23.525391
 30
0.0
  0
VERTEX
  5
277
  8
TEAM-DET1
 10
702.554749
 20
22.783203
 30
0.0
  0
VERTEX
  5
278
  8
TEAM-DET1
 10
702.39264
 20
21.953125
 30
0.0
  0
VERTEX
  5
279
  8
TEAM-DET1
 10
702.236634
 20
21.035157
 30
0.0
  0
VERTEX
  5
27A
  8
TEAM-DET1
 10
702.087708
 20
20.033203
 30
0.0
  0
VERTEX
  5
27B
  8
TEAM-DET1
 10
701.94635
 20
18.953125
 30
0.0
  0
VERTEX
  5
27C
  8
TEAM-DET1
 10
701.81305
 20
17.798828
 30
0.0
  0
VERTEX
  5
27D
  8
TEAM-DET1
 10
701.688538
 20
16.572266
 30
0.0
  0
VERTEX
  5
27E
  8
TEAM-DET1
 10
701.573059
 20
15.283203
 30
0.0
  0
VERTEX
  5
27F
  8
TEAM-DET1
 10
701.467102
 20
13.931641
 30
0.0
  0
VERTEX
  5
280
  8
TEAM-DET1
 10
701.371155
 20
12.525391
 30
0.0
  0
VERTEX
  5
281
  8
TEAM-DET1
 10
701.285706
 20
11.070313
 30
0.0
  0
VERTEX
  5
282
  8
TEAM-DET1
 10
701.210755
 20
9.570313
 30
0.0
  0
VERTEX
  5
283
  8
TEAM-DET1
 10
701.147034
 20
8.035157
 30
0.0
  0
VERTEX
  5
284
  8
TEAM-DET1
 10
701.0943
 20
6.466797
 30
0.0
  0
VERTEX
  5
285
  8
TEAM-DET1
 10
701.053284
 20
4.871094
 30
0.0
  0
VERTEX
  5
286
  8
TEAM-DET1
 10
701.023743
 20
3.257813
 30
0.0
  0
VERTEX
  5
287
  8
TEAM-DET1
 10
701.005921
 20
1.632813
 30
0.0
  0
VERTEX
  5
288
  8
TEAM-DET1
 10
701.000061
 20
0.0
 30
0.0
  0
VERTEX
  5
289
  8
TEAM-DET1
 10
701.005921
 20
-1.632812
 30
0.0
  0
VERTEX
  5
28A
  8
TEAM-DET1
 10
701.023743
 20
-3.257812
 30
0.0
  0
VERTEX
  5
28B
  8
TEAM-DET1
 10
701.053284
 20
-4.871093
 30
0.0
  0
VERTEX
  5
28C
  8
TEAM-DET1
 10
701.0943
 20
-6.466797
 30
0.0
  0
VERTEX
  5
28D
  8
TEAM-DET1
 10
701.147034
 20
-8.035156
 30
0.0
  0
VERTEX
  5
28E
  8
TEAM-DET1
 10
701.210755
 20
-9.570312
 30
0.0
  0
VERTEX
  5
28F
  8
TEAM-DET1
 10
701.285706
 20
-11.070312
 30
0.0
  0
VERTEX
  5
290
  8
TEAM-DET1
 10
701.371155
 20
-12.52539
 30
0.0
  0
VERTEX
  5
291
  8
TEAM-DET1
 10
701.467102
 20
-13.93164
 30
0.0
  0
VERTEX
  5
292
  8
TEAM-DET1
 10
701.573059
 20
-15.283203
 30
0.0
  0
VERTEX
  5
293
  8
TEAM-DET1
 10
701.688538
 20
-16.572265
 30
0.0
  0
VERTEX
  5
294
  8
TEAM-DET1
 10
701.81305
 20
-17.798828
 30
0.0
  0
VERTEX
  5
295
  8
TEAM-DET1
 10
701.94635
 20
-18.953125
 30
0.0
  0
VERTEX
  5
296
  8
TEAM-DET1
 10
702.087708
 20
-20.033203
 30
0.0
  0
VERTEX
  5
297
  8
TEAM-DET1
 10
702.236634
 20
-21.035156
 30
0.0
  0
VERTEX
  5
298
  8
TEAM-DET1
 10
702.39264
 20
-21.953125
 30
0.0
  0
VERTEX
  5
299
  8
TEAM-DET1
 10
702.554749
 20
-22.783203
 30
0.0
  0
VERTEX
  5
29A
  8
TEAM-DET1
 10
702.722718
 20
-23.52539
 30
0.0
  0
VERTEX
  5
29B
  8
TEAM-DET1
 10
702.895569
 20
-24.173828
 30
0.0
  0
VERTEX
  5
29C
  8
TEAM-DET1
 10
703.073059
 20
-24.726562
 30
0.0
  0
VERTEX
  5
29D
  8
TEAM-DET1
 10
703.253968
 20
-25.183593
 30
0.0
  0
VERTEX
  5
29E
  8
TEAM-DET1
 10
703.43805
 20
-25.539062
 30
0.0
  0
SEQEND
  5
29F
  8
TEAM-DET1
  0
ARC
  5
86
  8
TEAM-DET1
 10
628.542054
 20
208.576172
 30
0.0
 40
80.0
 50
0.800153
 51
73.625595
  0
ARC
  5
87
  8
TEAM-DET1
 10
634.180237
 20
227.763672
 30
0.0
 40
60.0
 50
73.625793
 51
89.59597
  0
ARC
  5
88
  8
TEAM-BODY
 10
777.000061
 20
327.0
 30
0.0
 40
23.0
 50
0.0
 51
90.0
  0
LINE
  5
89
  8
TEAM-AXE
 10
704.000061
 20
26.0
 30
0.0
 11
704.000061
 21
-26.0
 31
0.0
  0
ARC
  5
8A
  8
TEAM-BODY
 10
542.999085
 20
97.494141
 30
0.0
 40
50.000835
 50
0.0
 51
89.998878
  0
ARC
  5
8B
  8
TEAM-DET1
 10
577.179505
 20
115.771485
 30
0.0
 40
96.579033
 50
57.375713
 51
89.669914
  0
ARC
  5
8C
  8
TEAM-DET1
 10
573.878724
 20
113.169922
 30
0.0
 40
100.732841
 50
3.772064
 51
45.248524
  0
ARC
  5
8D
  8
TEAM-DET1
 10
739.359192
 20
306.228516
 30
0.0
 40
5.0
 50
1.186264
 51
89.529999
  0
ARC
  5
8E
  8
TEAM-BODY
 10
777.000061
 20
327.0
 30
0.0
 40
17.0
 50
0.0
 51
90.0
  0
POLYLINE
  5
8F
  8
TEAM-DET1
 66
     1
 10
0.0
 20
0.0
 30
0.0
  0
VERTEX
  5
2A0
  8
TEAM-DET1
 10
629.24762
 20
197.111328
 30
0.0
  0
VERTEX
  5
2A1
  8
TEAM-DET1
 10
637.342591
 20
191.310547
 30
0.0
  0
VERTEX
  5
2A2
  8
TEAM-DET1
 10
644.797181
 20
184.707032
 30
0.0
  0
SEQEND
  5
2A3
  8
TEAM-DET1
  0
LINE
  5
90
  8
TEAM-DET1
 10
674.393372
 20
119.796875
 30
0.0
 11
674.652405
 21
113.320313
 31
0.0
  0
LINE
  5
91
  8
TEAM-BODY
 10
593.000061
 20
97.494141
 30
0.0
 11
592.998597
 21
-97.49414
 31
0.0
  0
ARC
  5
92
  8
TEAM-DET1
 10
628.542054
 20
-208.576172
 30
0.0
 40
80.0
 50
286.37439
 51
359.199829
  0
ARC
  5
93
  8
TEAM-DET1
 10
634.180237
 20
-227.763672
 30
0.0
 40
60.0
 50
270.404022
 51
286.374207
  0
ARC
  5
94
  8
TEAM-BODY
 10
777.000061
 20
-327.0
 30
0.0
 40
23.0
 50
270.0
 51
0.0
  0
ARC
  5
95
  8
TEAM-DET1
 10
573.878968
 20
-113.169922
 30
0.0
 40
100.731895
 50
314.750885
 51
356.227875
  0
ARC
  5
96
  8
TEAM-DET1
 10
577.178772
 20
-115.771484
 30
0.0
 40
96.579025
 50
270.330078
 51
302.625275
  0
ARC
  5
97
  8
TEAM-DET1
 10
739.359192
 20
-306.228515
 30
0.0
 40
5.0
 50
270.470001
 51
358.813721
  0
ARC
  5
98
  8
TEAM-BODY
 10
777.000061
 20
-327.0
 30
0.0
 40
17.0
 50
270.0
 51
0.0
  0
POLYLINE
  5
99
  8
TEAM-DET1
 66
     1
 10
0.0
 20
0.0
 30
0.0
  0
VERTEX
  5
2A4
  8
TEAM-DET1
 10
644.796692
 20
-184.707031
 30
0.0
  0
VERTEX
  5
2A5
  8
TEAM-DET1
 10
637.342102
 20
-191.310547
 30
0.0
  0
VERTEX
  5
2A6
  8
TEAM-DET1
 10
629.247132
 20
-197.113281
 30
0.0
  0
SEQEND
  5
2A7
  8
TEAM-DET1
  0
LINE
  5
9A
  8
TEAM-DET1
 10
674.651673
 20
-113.320312
 30
0.0
 11
674.39264
 21
-119.796875
 31
0.0
  0
ARC
  5
9B
  8
TEAM-DET1
 10
-14289.998718
 20
0.0
 30
0.0
 40
15000.0
 50
359.198029
 51
0.801966
  0
LINE
  5
9C
  8
TEAM-BODY
 10
800.000061
 20
327.0
 30
0.0
 11
800.000061
 21
-327.0
 31
0.0
  0
ARC
  5
9D
  8
TEAM-BODY
 10
542.999085
 20
-97.49414
 30
0.0
 40
49.999634
 50
270.001099
 51
0.0
  0
ARC
  5
9E
  8
TEAM-DET1
 10
-14290.072937
 20
0.0
 30
0.0
 40
15037.552734
 50
358.832733
 51
1.167261
  0
POLYLINE
  5
9F
  8
TEAM-DET1
 66
     1
 10
0.0
 20
0.0
 30
0.0
  0
VERTEX
  5
2A8
  8
TEAM-DET1
 10
674.76764
 20
113.320313
 30
0.0
  0
VERTEX
  5
2A9
  8
TEAM-DET1
 10
675.289856
 20
0.0
 30
0.0
  0
VERTEX
  5
2AA
  8
TEAM-DET1
 10
674.767151
 20
-113.320312
 30
0.0
  0
SEQEND
  5
2AB
  8
TEAM-DET1
  0
LINE
  5
A0
  8
TEAM-BODY
 10
794.000061
 20
327.0
 30
0.0
 11
794.000061
 21
-327.0
 31
0.0
  0
ENDSEC
  0
EOF
