  0
SECTION
  2
HEADER
  9
$ACADVER
  1
AC1009
  9
$INSBASE
 10
0.0
 20
0.0
 30
0.0
  9
$EXTMIN
 10
-851.295185
 20
-7.120007
 30
-0.001526
  9
$EXTMAX
 10
956.18069
 20
648.569477
 30
0.0
  9
$LIMMIN
 10
-849.999903
 20
-0.001771
  9
$LIMMAX
 10
956.18069
 20
648.569477
  9
$ORTHOMODE
 70
     1
  9
$REGENMODE
 70
     1
  9
$FILLMODE
 70
     1
  9
$QTEXTMODE
 70
     0
  9
$MIRRTEXT
 70
     0
  9
$DRAGMODE
 70
     2
  9
$LTSCALE
 40
50.0
  9
$OSMODE
 70
     7
  9
$ATTMODE
 70
     1
  9
$TEXTSIZE
 40
200.0
  9
$TRACEWID
 40
1.0
  9
$TEXTSTYLE
  7
STANDARD
  9
$CLAYER
  8
TEAM-MAS
  9
$CELTYPE
  6
BYLAYER
  9
$CECOLOR
 62
   256
  9
$DIMSCALE
 40
0.0
  9
$DIMASZ
 40
20.0
  9
$DIMEXO
 40
10.0
  9
$DIMDLI
 40
1.0
  9
$DIMRND
 40
0.0
  9
$DIMDLE
 40
0.0
  9
$DIMEXE
 40
1.0
  9
$DIMTP
 40
0.0
  9
$DIMTM
 40
0.0
  9
$DIMTXT
 40
35.0
  9
$DIMCEN
 40
1.0
  9
$DIMTSZ
 40
0.0
  9
$DIMTOL
 70
     0
  9
$DIMLIM
 70
     0
  9
$DIMTIH
 70
     0
  9
$DIMTOH
 70
     0
  9
$DIMSE1
 70
     0
  9
$DIMSE2
 70
     0
  9
$DIMTAD
 70
     0
  9
$DIMZIN
 70
     0
  9
$DIMBLK
  1

  9
$DIMASO
 70
     1
  9
$DIMSHO
 70
     0
  9
$DIMPOST
  1

  9
$DIMAPOST
  1

  9
$DIMALT
 70
     0
  9
$DIMALTD
 70
     2
  9
$DIMALTF
 40
25.4
  9
$DIMLFAC
 40
1.0
  9
$DIMTOFL
 70
     0
  9
$DIMTVP
 40
0.0
  9
$DIMTIX
 70
     0
  9
$DIMSOXD
 70
     0
  9
$DIMSAH
 70
     0
  9
$DIMBLK1
  1

  9
$DIMBLK2
  1

  9
$DIMSTYLE
  2
TEAM
  9
$DIMCLRD
 70
     9
  9
$DIMCLRE
 70
     9
  9
$DIMCLRT
 70
    11
  9
$DIMTFAC
 40
1.0
  9
$DIMGAP
 40
7.0
  9
$LUNITS
 70
     2
  9
$LUPREC
 70
     1
  9
$SKETCHINC
 40
1.0
  9
$FILLETRAD
 40
5.0
  9
$AUNITS
 70
     0
  9
$AUPREC
 70
     0
  9
$MENU
  1
ROPLANS
  9
$ELEVATION
 40
0.0
  9
$PELEVATION
 40
0.0
  9
$THICKNESS
 40
0.0
  9
$LIMCHECK
 70
     0
  9
$BLIPMODE
 70
     1
  9
$CHAMFERA
 40
0.0
  9
$CHAMFERB
 40
0.0
  9
$SKPOLY
 70
     0
  9
$TDCREATE
 40
2450392.957851
  9
$TDUPDATE
 40
2455944.698999
  9
$TDINDWG
 40
3.037655
  9
$TDUSRTIMER
 40
3.037655
  9
$USRTIMER
 70
     1
  9
$ANGBASE
 50
0.0
  9
$ANGDIR
 70
     0
  9
$PDMODE
 70
     0
  9
$PDSIZE
 40
0.0
  9
$PLINEWID
 40
0.0
  9
$COORDS
 70
     2
  9
$SPLFRAME
 70
     0
  9
$SPLINETYPE
 70
     6
  9
$SPLINESEGS
 70
     8
  9
$ATTDIA
 70
     0
  9
$ATTREQ
 70
     0
  9
$HANDLING
 70
     1
  9
$HANDSEED
  5
157
  9
$SURFTAB1
 70
    24
  9
$SURFTAB2
 70
    24
  9
$SURFTYPE
 70
     6
  9
$SURFU
 70
     6
  9
$SURFV
 70
     6
  9
$UCSNAME
  2

  9
$UCSORG
 10
0.0
 20
0.0
 30
0.0
  9
$UCSXDIR
 10
1.0
 20
0.0
 30
0.0
  9
$UCSYDIR
 10
0.0
 20
1.0
 30
0.0
  9
$PUCSNAME
  2

  9
$PUCSORG
 10
0.0
 20
0.0
 30
0.0
  9
$PUCSXDIR
 10
1.0
 20
0.0
 30
0.0
  9
$PUCSYDIR
 10
0.0
 20
1.0
 30
0.0
  9
$USERI1
 70
     0
  9
$USERI2
 70
     0
  9
$USERI3
 70
     0
  9
$USERI4
 70
     0
  9
$USERI5
 70
     0
  9
$USERR1
 40
0.0
  9
$USERR2
 40
0.0
  9
$USERR3
 40
0.0
  9
$USERR4
 40
0.0
  9
$USERR5
 40
0.0
  9
$WORLDVIEW
 70
     1
  9
$SHADEDGE
 70
     0
  9
$SHADEDIF
 70
    70
  9
$TILEMODE
 70
     1
  9
$MAXACTVP
 70
    16
  9
$PLIMCHECK
 70
     0
  9
$PEXTMIN
 10
-0.805942
 20
0.005011
 30
0.0
  9
$PEXTMAX
 10
20.250094
 20
11.356329
 30
0.0
  9
$PLIMMIN
 10
0.0
 20
0.0
  9
$PLIMMAX
 10
12.0
 20
9.0
  9
$UNITMODE
 70
     0
  9
$VISRETAIN
 70
     0
  9
$PLINEGEN
 70
     0
  9
$PSLTSCALE
 70
     0
  0
ENDSEC
  0
SECTION
  2
TABLES
  0
TABLE
  2
VPORT
 70
     2
  0
VPORT
  2
*ACTIVE
 70
     0
 10
0.0
 20
0.0
 11
1.0
 21
1.0
 12
52.442752
 22
320.724735
 13
0.0
 23
0.0
 14
1.0
 24
1.0
 15
20.0
 25
20.0
 16
0.0
 26
0.0
 36
1.0
 17
0.0
 27
0.0
 37
0.0
 40
952.548084
 41
1.903766
 42
50.0
 43
0.0
 44
0.0
 50
0.0
 51
0.0
 71
     0
 72
   100
 73
     1
 74
     1
 75
     0
 76
     0
 77
     0
 78
     0
  0
ENDTAB
  0
TABLE
  2
LTYPE
 70
     3
  0
LTYPE
  2
CONTINUOUS
 70
     0
  3
Solid Line
 72
    65
 73
     0
 40
0.0
  0
LTYPE
  2
31
 70
     0
  3

 72
    65
 73
     4
 40
2.1
 49
1.5
 49
-0.3
 49
0.0
 49
-0.3
  0
LTYPE
  2
22
 70
     0
  3

 72
    65
 73
     2
 40
1.4
 49
1.2
 49
-0.2
  0
ENDTAB
  0
TABLE
  2
LAYER
 70
    10
  0
LAYER
  2
0
 70
     0
 62
     7
  6
CONTINUOUS
  0
LAYER
  2
DEFPOINTS
 70
     0
 62
     7
  6
CONTINUOUS
  0
LAYER
  2
TEAM-BODY
 70
     0
 62
     2
  6
CONTINUOUS
  0
LAYER
  2
TEAM-AXE
 70
     0
 62
    10
  6
31
  0
LAYER
  2
TEAM-MAS
 70
     0
 62
     9
  6
CONTINUOUS
  0
LAYER
  2
TEAM-TXT
 70
     0
 62
    11
  6
CONTINUOUS
  0
LAYER
  2
TEAM-DET1
 70
     0
 62
     4
  6
CONTINUOUS
  0
LAYER
  2
TEAM-HIDE
 70
     0
 62
     8
  6
22
  0
LAYER
  2
TEAM-DET3
 70
     0
 62
    14
  6
CONTINUOUS
  0
LAYER
  2
TEAM-INSP
 70
     0
 62
     5
  6
CONTINUOUS
  0
ENDTAB
  0
TABLE
  2
STYLE
 70
     2
  0
STYLE
  2
STANDARD
 70
     0
 40
0.0
 41
1.0
 50
0.0
 71
     0
 42
200.0
  3
txt
  4

  0
STYLE
  2
TEAM
 70
     0
 40
0.0
 41
0.8
 50
15.0
 71
     0
 42
7.0
  3
ROMANS.shx
  4

  0
ENDTAB
  0
TABLE
  2
VIEW
 70
     0
  0
ENDTAB
  0
TABLE
  2
UCS
 70
     0
  0
ENDTAB
  0
TABLE
  2
APPID
 70
     1
  0
APPID
  2
ACAD
 70
     0
  0
ENDTAB
  0
TABLE
  2
DIMSTYLE
 70
     1
  0
DIMSTYLE
  2
TEAM
 70
     0
  3

  4

  5

  6

  7

 40
0.0
 41
20.0
 42
10.0
 43
1.0
 44
1.0
 45
0.0
 46
0.0
 47
0.0
 48
0.0
140
35.0
141
1.0
142
0.0
143
25.4
144
1.0
145
0.0
146
1.0
147
7.0
 71
     0
 72
     0
 73
     0
 74
     0
 75
     0
 76
     0
 77
     0
 78
     0
170
     0
171
     2
172
     0
173
     0
174
     0
175
     0
176
     9
177
     9
178
    11
  0
ENDTAB
  0
ENDSEC
  0
SECTION
  2
BLOCKS
  0
BLOCK
  8
0
  2
$MODEL_SPACE
 70
     0
 10
0.0
 20
0.0
 30
0.0
  3
$MODEL_SPACE
  1

  0
ENDBLK
  5
14A
  8
0
  0
BLOCK
 67
     1
  8
0
  2
$PAPER_SPACE
 70
     0
 10
0.0
 20
0.0
 30
0.0
  3
$PAPER_SPACE
  1

  0
ENDBLK
  5
148
 67
     1
  8
0
  0
BLOCK
  8
0
  2
*D0
 70
     1
 10
0.0
 20
0.0
 30
0.0
  3
*D0
  1

  0
LINE
  5
40
  8
0
  6
BYBLOCK
 62
     9
 10
11150.000097
 20
384594.0
 30
0.0
 11
11150.000097
 21
384632.049467
 31
0.0
  0
LINE
  5
41
  8
0
  6
BYBLOCK
 62
     9
 10
12850.000391
 20
384594.0
 30
0.0
 11
12850.000391
 21
384632.049467
 31
0.0
  0
LINE
  5
42
  8
0
  6
BYBLOCK
 62
     9
 10
11170.000097
 20
384631.049467
 30
0.0
 11
11940.500244
 21
384631.049467
 31
0.0
  0
LINE
  5
43
  8
0
  6
BYBLOCK
 62
     9
 10
12830.000391
 20
384631.049467
 30
0.0
 11
12059.500244
 21
384631.049467
 31
0.0
  0
SOLID
  5
44
  8
0
  6
BYBLOCK
 62
     9
 10
11170.000097
 20
384634.3828
 30
0.0
 11
11170.000097
 21
384627.716134
 31
0.0
 12
11150.000097
 22
384631.049467
 32
0.0
 13
11150.000097
 23
384631.049467
 33
0.0
  0
SOLID
  5
45
  8
0
  6
BYBLOCK
 62
     9
 10
12830.000391
 20
384634.3828
 30
0.0
 11
12830.000391
 21
384627.716134
 31
0.0
 12
12850.000391
 22
384631.049467
 32
0.0
 13
12850.000391
 23
384631.049467
 33
0.0
  0
TEXT
  5
46
  8
0
  6
BYBLOCK
 62
    11
 10
11947.500244
 20
384613.549467
 30
0.0
 40
35.0
  1
1700
  0
POINT
  5
47
  8
DEFPOINTS
  6
BYBLOCK
 62
     0
 10
11150.000097
 20
384584.0
 30
0.0
  0
POINT
  5
48
  8
DEFPOINTS
  6
BYBLOCK
 62
     0
 10
12850.000391
 20
384584.0
 30
0.0
  0
POINT
  5
49
  8
DEFPOINTS
  6
BYBLOCK
 62
     0
 10
12850.000391
 20
384631.049467
 30
0.0
  0
ENDBLK
  5
4B
  8
0
  0
BLOCK
  8
0
  2
*D1
 70
     1
 10
0.0
 20
0.0
 30
0.0
  3
*D1
  1

  0
LINE
  5
B4
  8
0
  6
BYBLOCK
 62
     9
 10
12854.000391
 20
384600.0
 30
0.0
 11
12939.625567
 21
384600.0
 31
0.0
  0
LINE
  5
B5
  8
0
  6
BYBLOCK
 62
     9
 10
12854.000391
 20
384000.0
 30
0.0
 11
12939.625567
 21
384000.0
 31
0.0
  0
LINE
  5
B6
  8
0
  6
BYBLOCK
 62
     9
 10
12938.625567
 20
384580.0
 30
0.0
 11
12938.625567
 21
384423.666667
 31
0.0
  0
LINE
  5
B7
  8
0
  6
BYBLOCK
 62
     9
 10
12938.625567
 20
384020.0
 30
0.0
 11
12938.625567
 21
384176.333333
 31
0.0
  0
SOLID
  5
B8
  8
0
  6
BYBLOCK
 62
     9
 10
12935.292234
 20
384580.0
 30
0.0
 11
12941.958901
 21
384580.0
 31
0.0
 12
12938.625567
 22
384600.0
 32
0.0
 13
12938.625567
 23
384600.0
 33
0.0
  0
SOLID
  5
B9
  8
0
  6
BYBLOCK
 62
     9
 10
12935.292234
 20
384020.0
 30
0.0
 11
12941.958901
 21
384020.0
 31
0.0
 12
12938.625567
 22
384000.0
 32
0.0
 13
12938.625567
 23
384000.0
 33
0.0
  0
TEXT
  5
BA
  8
0
  6
BYBLOCK
 62
    11
 10
12956.125567
 20
384183.333333
 30
0.0
 40
35.0
  1
555-565
 50
90.0
  0
POINT
  5
BB
  8
DEFPOINTS
  6
BYBLOCK
 62
     0
 10
12844.000391
 20
384600.0
 30
0.0
  0
POINT
  5
BC
  8
DEFPOINTS
  6
BYBLOCK
 62
     0
 10
12844.000391
 20
384000.0
 30
0.0
  0
POINT
  5
BD
  8
DEFPOINTS
  6
BYBLOCK
 62
     0
 10
12938.625567
 20
384000.0
 30
0.0
  0
ENDBLK
  5
BF
  8
0
  0
BLOCK
  8
0
  2
*D2
 70
     1
 10
0.0
 20
0.0
 30
0.0
  3
*D2
  1

  0
LINE
  5
31
  8
0
  6
BYBLOCK
 62
     9
 10
12306.000391
 20
384169.998878
 30
0.0
 11
12306.000391
 21
384127.092761
 31
0.0
  0
LINE
  5
32
  8
0
  6
BYBLOCK
 62
     9
 10
12254.000391
 20
384169.99961
 30
0.0
 11
12254.000391
 21
384127.092761
 31
0.0
  0
LINE
  5
33
  8
0
  6
BYBLOCK
 62
     9
 10
12326.000391
 20
384128.092761
 30
0.0
 11
12346.000391
 21
384128.092761
 31
0.0
  0
LINE
  5
34
  8
0
  6
BYBLOCK
 62
     9
 10
12234.000391
 20
384128.092761
 30
0.0
 11
12214.000391
 21
384128.092761
 31
0.0
  0
TEXT
  5
35
  8
0
  6
BYBLOCK
 62
    11
 10
12360.339928
 20
384110.592761
 30
0.0
 40
35.0
  1
52
  0
LINE
  5
36
  8
0
  6
BYBLOCK
 62
     9
 10
12306.000391
 20
384128.092761
 30
0.0
 11
12254.000391
 21
384128.092761
 31
0.0
  0
SOLID
  5
37
  8
0
  6
BYBLOCK
 62
     9
 10
12326.000391
 20
384131.426094
 30
0.0
 11
12326.000391
 21
384124.759428
 31
0.0
 12
12306.000391
 22
384128.092761
 32
0.0
 13
12306.000391
 23
384128.092761
 33
0.0
  0
SOLID
  5
38
  8
0
  6
BYBLOCK
 62
     9
 10
12234.000391
 20
384131.426094
 30
0.0
 11
12234.000391
 21
384124.759428
 31
0.0
 12
12254.000391
 22
384128.092761
 32
0.0
 13
12254.000391
 23
384128.092761
 33
0.0
  0
POINT
  5
39
  8
DEFPOINTS
  6
BYBLOCK
 62
     0
 10
12306.000391
 20
384179.998878
 30
0.0
  0
POINT
  5
3A
  8
DEFPOINTS
  6
BYBLOCK
 62
     0
 10
12254.000391
 20
384179.99961
 30
0.0
  0
POINT
  5
3B
  8
DEFPOINTS
  6
BYBLOCK
 62
     0
 10
12254.000391
 20
384128.092761
 30
0.0
  0
ENDBLK
  5
3D
  8
0
  0
BLOCK
  8
0
  2
*D3
 70
     1
 10
0.0
 20
0.0
 30
0.0
  3
*D3
  1

  0
LINE
  5
22
  8
0
  6
BYBLOCK
 62
     9
 10
12854.000391
 20
384600.0
 30
0.0
 11
12891.152495
 21
384600.0
 31
0.0
  0
LINE
  5
23
  8
0
  6
BYBLOCK
 62
     9
 10
12316.000391
 20
384179.998878
 30
0.0
 11
12891.152495
 21
384179.998878
 31
0.0
  0
LINE
  5
24
  8
0
  6
BYBLOCK
 62
     9
 10
12890.152495
 20
384580.0
 30
0.0
 11
12890.152495
 21
384440.749439
 31
0.0
  0
LINE
  5
25
  8
0
  6
BYBLOCK
 62
     9
 10
12890.152495
 20
384199.998878
 30
0.0
 11
12890.152495
 21
384339.249439
 31
0.0
  0
SOLID
  5
26
  8
0
  6
BYBLOCK
 62
     9
 10
12886.819162
 20
384580.0
 30
0.0
 11
12893.485828
 21
384580.0
 31
0.0
 12
12890.152495
 22
384600.0
 32
0.0
 13
12890.152495
 23
384600.0
 33
0.0
  0
SOLID
  5
27
  8
0
  6
BYBLOCK
 62
     9
 10
12886.819162
 20
384199.998878
 30
0.0
 11
12893.485828
 21
384199.998878
 31
0.0
 12
12890.152495
 22
384179.998878
 32
0.0
 13
12890.152495
 23
384179.998878
 33
0.0
  0
TEXT
  5
28
  8
0
  6
BYBLOCK
 62
    11
 10
12907.652495
 20
384346.249439
 30
0.0
 40
35.0
  1
420
 50
90.0
  0
POINT
  5
29
  8
DEFPOINTS
  6
BYBLOCK
 62
     0
 10
12844.000391
 20
384600.0
 30
0.0
  0
POINT
  5
2B
  8
DEFPOINTS
  6
BYBLOCK
 62
     0
 10
12306.000391
 20
384179.998878
 30
0.0
  0
POINT
  5
2C
  8
DEFPOINTS
  6
BYBLOCK
 62
     0
 10
12890.152495
 20
384179.998878
 30
0.0
  0
ENDBLK
  5
2E
  8
0
  0
ENDSEC
  0
SECTION
  2
ENTITIES
  0
DIMENSION
  5
20
  8
TEAM-MAS
  2
*D3
 10
890.152495
 20
179.998878
 30
0.0
 11
890.152495
 21
389.999439
 31
0.0
 12
-12000.0
 22
-384000.0
 32
0.0
 13
844.000391
 23
600.0
 33
0.0
 14
306.000391
 24
179.998878
 34
0.0
 50
90.0
1001
ACAD
1000
DSTYLE
1002
{
1070
    40
1040
1.0
1002
}
  0
DIMENSION
  5
2F
  8
TEAM-MAS
  2
*D2
 10
254.000391
 20
128.092761
 30
0.0
 11
389.506595
 21
128.092761
 31
0.0
 12
-12000.0
 22
-384000.0
 32
0.0
 70
   128
 13
306.000391
 23
179.998878
 33
0.0
 14
254.000391
 24
179.99961
 34
0.0
1001
ACAD
1000
DSTYLE
1002
{
1070
    40
1040
1.0
1002
}
  0
DIMENSION
  5
3E
  8
TEAM-MAS
  2
*D0
 10
850.000391
 20
631.049467
 30
0.0
 11
0.000244
 21
631.049467
 31
0.0
 12
-12000.0
 22
-384000.0
 32
0.0
 13
-849.999903
 23
584.0
 33
0.0
 14
850.000391
 24
584.0
 34
0.0
1001
ACAD
1000
DSTYLE
1002
{
1070
    40
1040
1.0
1002
}
  0
LINE
  5
4C
  8
TEAM-BODY
 10
358.594385
 20
189.058594
 30
0.0
 11
641.568018
 21
189.658203
 31
0.0
  0
LINE
  5
4E
  8
TEAM-HIDE
 10
-257.108458
 20
-0.00046
 30
0.0
 11
521.376207
 21
0.00046
 31
0.0
  0
LINE
  5
51
  8
TEAM-DET1
 10
-843.999903
 20
568.0
 30
0.0
 11
844.000391
 21
568.0
 31
0.0
  0
LINE
  5
53
  8
TEAM-BODY
 10
-844.000391
 20
600.0
 30
0.0
 11
844.000391
 21
600.0
 31
0.0
  0
POLYLINE
  5
54
  8
TEAM-HIDE
 66
     1
 10
0.0
 20
0.0
 30
0.0
  0
VERTEX
  5
150
  8
TEAM-HIDE
 10
696.149805
 20
576.316407
 30
0.0
  0
VERTEX
  5
151
  8
TEAM-HIDE
 10
353.342676
 20
576.316407
 30
0.0
  0
VERTEX
  5
152
  8
TEAM-HIDE
 10
-39.390295
 20
576.316407
 30
0.0
  0
VERTEX
  5
153
  8
TEAM-HIDE
 10
-432.021887
 20
576.316407
 30
0.0
  0
VERTEX
  5
154
  8
TEAM-HIDE
 10
-641.68447
 20
576.316407
 30
0.0
  0
SEQEND
  5
155
  8
TEAM-HIDE
  0
LINE
  5
55
  8
TEAM-AXE
 10
280.000391
 20
482.5
 30
0.0
 11
280.000391
 21
587.5
 31
0.0
  0
ARC
  5
58
  8
TEAM-DET3
 10
-333.457338
 20
220.370871
 30
0.0
 40
3.0
 50
90.0
 51
130.527954
  0
ARC
  5
5A
  8
TEAM-DET3
 10
-338.457338
 20
223.990251
 30
0.0
 40
3.0
 50
270.0
 51
310.511505
  0
ARC
  5
5B
  8
TEAM-DET3
 10
-333.457338
 20
242.530291
 30
0.0
 40
3.0
 50
90.0
 51
130.527954
  0
ARC
  5
5C
  8
TEAM-DET3
 10
-338.457338
 20
246.149691
 30
0.0
 40
3.0
 50
270.0
 51
310.495087
  0
ARC
  5
5D
  8
TEAM-DET3
 10
-338.457338
 20
248.530051
 30
0.0
 40
3.0
 50
270.0
 51
310.495087
  0
ARC
  5
5E
  8
TEAM-DET3
 10
-333.457338
 20
244.909451
 30
0.0
 40
3.0
 50
90.0
 51
130.515305
  0
ARC
  5
5F
  8
TEAM-DET3
 10
-322.457578
 20
228.371371
 30
0.0
 40
5.0
 50
270.0
 51
0.0
  0
ARC
  5
60
  8
TEAM-DET3
 10
-322.457578
 20
242.909931
 30
0.0
 40
5.0
 50
0.0
 51
90.0
  0
ARC
  5
61
  8
TEAM-DET3
 10
-322.457578
 20
240.529571
 30
0.0
 40
5.0
 50
0.0
 51
90.0
  0
ARC
  5
62
  8
TEAM-DET3
 10
-406.457818
 20
223.990251
 30
0.0
 40
3.0
 50
229.48848
 51
270.0
  0
ARC
  5
63
  8
TEAM-DET3
 10
-406.457818
 20
246.149691
 30
0.0
 40
3.0
 50
229.504883
 51
270.0
  0
ARC
  5
64
  8
TEAM-DET3
 10
-406.457818
 20
248.530051
 30
0.0
 40
3.0
 50
229.504883
 51
270.0
  0
LINE
  5
65
  8
TEAM-DET3
 10
-406.457818
 20
222.536391
 30
0.0
 11
-406.457818
 21
241.603791
 31
0.0
  0
LINE
  5
66
  8
TEAM-DET3
 10
-338.457338
 20
222.536391
 30
0.0
 11
-338.457338
 21
241.603791
 31
0.0
  0
LINE
  5
67
  8
TEAM-DET3
 10
-333.457338
 20
224.916771
 30
0.0
 11
-333.457338
 21
243.984151
 31
0.0
  0
LINE
  5
68
  8
TEAM-DET3
 10
-322.457578
 20
245.529571
 30
0.0
 11
-333.457338
 21
245.529571
 31
0.0
  0
LINE
  5
69
  8
TEAM-DET3
 10
-322.457578
 20
247.909931
 30
0.0
 11
-333.457338
 21
247.909931
 31
0.0
  0
LINE
  5
6A
  8
TEAM-DET3
 10
-322.457578
 20
223.371371
 30
0.0
 11
-333.457338
 21
223.371371
 31
0.0
  0
LINE
  5
6B
  8
TEAM-DET3
 10
-317.457578
 20
228.371371
 30
0.0
 11
-317.457578
 21
242.909931
 31
0.0
  0
LINE
  5
6C
  8
TEAM-DET3
 10
-406.457818
 20
245.529571
 30
0.0
 11
-338.457338
 21
245.529571
 31
0.0
  0
LINE
  5
6D
  8
TEAM-DET3
 10
-406.457818
 20
243.149191
 30
0.0
 11
-338.457338
 21
243.149191
 31
0.0
  0
LINE
  5
6E
  8
TEAM-AXE
 10
227.500391
 20
535.0
 30
0.0
 11
332.500391
 21
535.0
 31
0.0
  0
CIRCLE
  5
6F
  8
TEAM-DET1
 10
280.000391
 20
535.0
 30
0.0
 40
26.0
  0
ARC
  5
70
  8
TEAM-DET1
 10
320.882959
 20
179.38086
 30
0.0
 40
9.000057
 50
95.579437
 51
151.085632
  0
LINE
  5
71
  8
TEAM-AXE
 10
280.000391
 20
202.460923
 30
0.0
 11
280.000391
 21
167.860967
 31
0.0
  0
ARC
  5
72
  8
TEAM-DET1
 10
306.427869
 20
187.633421
 30
0.0
 40
7.646501
 50
266.795204
 51
329.324484
  0
CIRCLE
  5
73
  8
TEAM-INSP
 10
0.0
 20
0.0
 30
0.0
 40
7.1
  0
ARC
  5
75
  8
TEAM-DET1
 10
253.572916
 20
187.633421
 30
0.0
 40
7.646615
 50
210.674567
 51
273.204716
  0
ARC
  5
76
  8
TEAM-DET1
 10
239.117823
 20
179.38086
 30
0.0
 40
8.999938
 50
28.915113
 51
84.442215
  0
LINE
  5
77
  8
TEAM-DET3
 10
-387.807918
 20
10.80034
 30
0.0
 11
-387.807918
 21
-0.00046
 31
0.0
  0
LINE
  5
78
  8
TEAM-DET3
 10
-357.108458
 20
10.80034
 30
0.0
 11
-357.108458
 21
-0.00046
 31
0.0
  0
LINE
  5
79
  8
TEAM-DET3
 10
-377.457578
 20
13.9998
 30
0.0
 11
-367.457578
 21
13.9998
 31
0.0
  0
LINE
  5
7A
  8
TEAM-DET3
 10
-357.108458
 20
10.80034
 30
0.0
 11
-387.807918
 21
10.80034
 31
0.0
  0
LINE
  5
7B
  8
TEAM-DET3
 10
-357.108458
 20
-0.00046
 30
0.0
 11
-387.807918
 21
-0.00046
 31
0.0
  0
LINE
  5
7C
  8
TEAM-DET3
 10
-377.457578
 20
10.80034
 30
0.0
 11
-377.457578
 21
46.6066
 31
0.0
  0
LINE
  5
7D
  8
TEAM-DET3
 10
-359.208078
 20
46.6066
 30
0.0
 11
-385.707098
 21
46.6066
 31
0.0
  0
LINE
  5
7E
  8
TEAM-DET3
 10
-367.457578
 20
46.6066
 30
0.0
 11
-367.457578
 21
10.80034
 31
0.0
  0
LINE
  5
7F
  8
TEAM-DET3
 10
-354.457098
 20
51.35758
 30
0.0
 11
-354.457098
 21
79.53508
 31
0.0
  0
LINE
  5
80
  8
TEAM-DET3
 10
-390.458078
 20
51.35758
 30
0.0
 11
-390.458078
 21
79.53508
 31
0.0
  0
ARC
  5
81
  8
TEAM-DET3
 10
-359.208078
 20
51.35758
 30
0.0
 40
4.75
 50
270.0
 51
0.0
  0
ARC
  5
82
  8
TEAM-DET3
 10
-385.707098
 20
51.35758
 30
0.0
 40
4.75
 50
180.0
 51
270.0
  0
LINE
  5
83
  8
TEAM-DET3
 10
-367.457578
 20
13.9998
 30
0.0
 11
-372.790838
 21
10.80034
 31
0.0
  0
LINE
  5
84
  8
TEAM-DET3
 10
-372.124338
 20
10.80034
 30
0.0
 11
-377.457578
 21
13.9998
 31
0.0
  0
LINE
  5
85
  8
TEAM-DET3
 10
-368.457638
 20
19.32816
 30
0.0
 11
-367.457578
 21
13.9998
 31
0.0
  0
LINE
  5
86
  8
TEAM-DET3
 10
-376.457518
 20
19.3367
 30
0.0
 11
-377.457578
 21
13.9998
 31
0.0
  0
LINE
  5
87
  8
TEAM-DET3
 10
-376.457518
 20
19.3367
 30
0.0
 11
-376.457518
 21
46.6066
 31
0.0
  0
LINE
  5
88
  8
TEAM-DET3
 10
-368.457638
 20
46.6066
 30
0.0
 11
-368.457638
 21
19.32816
 31
0.0
  0
LINE
  5
89
  8
TEAM-AXE
 10
-372.457578
 20
211.82878
 30
0.0
 11
-372.457578
 21
-5.3514
 31
0.0
  0
LINE
  5
8A
  8
TEAM-AXE
 10
-361.877738
 20
199.740991
 30
0.0
 11
-383.037418
 21
199.740991
 31
0.0
  0
ARC
  5
8B
  8
TEAM-DET3
 10
-372.457578
 20
199.740991
 30
0.0
 40
8.0
 50
22.401295
 51
155.597656
  0
ARC
  5
8C
  8
TEAM-DET3
 10
-372.457578
 20
199.740991
 30
0.0
 40
8.0
 50
0.0
 51
22.401295
  0
ARC
  5
8D
  8
TEAM-DET3
 10
-372.457578
 20
199.740991
 30
0.0
 40
8.0
 50
155.597656
 51
180.0
  0
LINE
  5
8E
  8
TEAM-DET3
 10
-406.457818
 20
190.176791
 30
0.0
 11
-406.457818
 21
203.512351
 31
0.0
  0
LINE
  5
8F
  8
TEAM-DET3
 10
-338.457338
 20
190.176791
 30
0.0
 11
-338.457338
 21
202.325531
 31
0.0
  0
LINE
  5
90
  8
TEAM-DET3
 10
-364.457098
 20
176.058131
 30
0.0
 11
-364.457098
 21
199.740991
 31
0.0
  0
LINE
  5
91
  8
TEAM-DET3
 10
-380.458078
 20
176.058131
 30
0.0
 11
-380.458078
 21
199.740991
 31
0.0
  0
LINE
  5
92
  8
TEAM-DET3
 10
-364.457098
 20
176.058131
 30
0.0
 11
-380.458078
 21
176.058131
 31
0.0
  0
LINE
  5
93
  8
TEAM-DET3
 10
-338.457338
 20
190.176791
 30
0.0
 11
-354.457098
 21
79.53508
 31
0.0
  0
LINE
  5
94
  8
TEAM-DET3
 10
-406.457818
 20
190.176791
 30
0.0
 11
-390.458078
 21
79.53508
 31
0.0
  0
ARC
  5
95
  8
TEAM-BODY
 10
279.989893
 20
3191.029175
 30
0.0
 40
3002.999512
 50
268.5
 51
271.499908
  0
LINE
  5
96
  8
TEAM-DET1
 10
306.000391
 20
179.99961
 30
0.0
 11
254.000391
 21
179.99961
 31
0.0
  0
LINE
  5
97
  8
TEAM-AXE
 10
0.000085
 20
199.830591
 30
0.0
 11
0.000085
 21
600.0
 31
0.0
  0
LINE
  5
98
  8
TEAM-DET3
 10
-338.457338
 20
202.325531
 30
0.0
 11
-338.457338
 21
220.990071
 31
0.0
  0
LINE
  5
99
  8
TEAM-DET3
 10
-406.457818
 20
203.512351
 30
0.0
 11
-406.457818
 21
220.990991
 31
0.0
  0
ARC
  5
9A
  8
TEAM-BODY
 10
6720.152734
 20
4655.462769
 30
0.0
 40
8503.0
 50
208.902985
 51
210.998093
  0
ARC
  5
9B
  8
TEAM-BODY
 10
-808.624655
 20
498.841797
 30
0.0
 40
96.999878
 50
28.903021
 51
45.477135
  0
ARC
  5
9C
  8
TEAM-BODY
 10
-844.000391
 20
574.0
 30
0.0
 40
5.999504
 50
180.0
 51
270.004669
  0
LINE
  5
9D
  8
TEAM-BODY
 10
-849.999903
 20
594.0
 30
0.0
 11
-849.999903
 21
574.0
 31
0.0
  0
ARC
  5
9E
  8
TEAM-BODY
 10
-486.229407
 20
312.746094
 30
0.0
 40
88.00013
 50
223.886093
 51
232.305222
  0
ARC
  5
9F
  8
TEAM-BODY
 10
-450.193518
 20
347.408203
 30
0.0
 40
137.999878
 50
210.998505
 51
223.88649
  0
ARC
  5
A0
  8
TEAM-BODY
 10
-843.999531
 20
593.999636
 30
0.0
 40
6.000364
 50
90.008215
 51
179.996521
  0
LINE
  5
A1
  8
TEAM-DET3
 10
-422.457578
 20
245.529571
 30
0.0
 11
-411.457818
 21
245.529571
 31
0.0
  0
LINE
  5
A2
  8
TEAM-DET3
 10
-422.457578
 20
247.909931
 30
0.0
 11
-411.457818
 21
247.909931
 31
0.0
  0
LINE
  5
A3
  8
TEAM-DET3
 10
-422.457578
 20
223.371371
 30
0.0
 11
-411.457818
 21
223.371371
 31
0.0
  0
ARC
  5
A4
  8
TEAM-DET3
 10
-422.457578
 20
228.371371
 30
0.0
 40
5.0
 50
180.0
 51
270.0
  0
ARC
  5
A5
  8
TEAM-DET3
 10
-422.457578
 20
242.909931
 30
0.0
 40
5.0
 50
90.0
 51
180.0
  0
ARC
  5
A6
  8
TEAM-DET3
 10
-422.457578
 20
240.529571
 30
0.0
 40
5.0
 50
90.0
 51
180.0
  0
LINE
  5
A7
  8
TEAM-DET3
 10
-427.457578
 20
228.371371
 30
0.0
 11
-427.457578
 21
242.909931
 31
0.0
  0
ARC
  5
A8
  8
TEAM-DET3
 10
-411.457818
 20
220.370871
 30
0.0
 40
3.0
 50
49.472038
 51
90.0
  0
ARC
  5
A9
  8
TEAM-DET3
 10
-411.457818
 20
242.530291
 30
0.0
 40
3.0
 50
49.472038
 51
90.0
  0
ARC
  5
AA
  8
TEAM-DET3
 10
-411.457818
 20
244.909451
 30
0.0
 40
3.0
 50
49.484684
 51
90.0
  0
LINE
  5
AB
  8
TEAM-DET3
 10
-411.457818
 20
224.916771
 30
0.0
 11
-411.457818
 21
243.984151
 31
0.0
  0
ARC
  5
AC
  8
TEAM-BODY
 10
-433.019093
 20
399.056636
 30
0.0
 40
189.132842
 50
235.539541
 51
268.650738
  0
TEXT
  5
AD
  8
TEAM-TXT
 10
-623.835054
 20
481.912962
 30
0.0
 40
30.0
  1
team 111453
 41
0.8
 51
15.0
  7
TEAM
  0
LINE
  5
B0
  8
TEAM-BODY
 10
-437.472571
 20
209.976563
 30
0.0
 11
201.380518
 21
189.058594
 31
0.0
  0
LINE
  5
B1
  8
TEAM-HIDE
 10
-287.807918
 20
-0.00046
 30
0.0
 11
-849.999903
 21
-0.001771
 31
0.0
  0
DIMENSION
  5
B2
  8
TEAM-MAS
  2
*D1
 10
938.625567
 20
0.0
 30
0.0
 11
938.625567
 21
300.0
 31
0.0
 12
-12000.0
 22
-384000.0
 32
0.0
  1
555-565
 13
844.000391
 23
600.0
 33
0.0
 14
844.000391
 24
0.0
 34
0.0
 50
90.0
1001
ACAD
1000
DSTYLE
1002
{
1070
    40
1040
1.0
1002
}
  0
LINE
  5
C0
  8
TEAM-HIDE
 10
552.075667
 20
0.00046
 30
0.0
 11
844.000391
 21
0.0
 31
0.0
  0
LINE
  5
C1
  8
TEAM-DET3
 10
570.725567
 20
226.288997
 30
0.0
 11
502.725087
 21
226.288997
 31
0.0
  0
LINE
  5
C2
  8
TEAM-DET3
 10
570.725567
 20
228.669357
 30
0.0
 11
502.725087
 21
228.669357
 31
0.0
  0
LINE
  5
C3
  8
TEAM-DET3
 10
586.725327
 20
231.049737
 30
0.0
 11
575.725567
 21
231.049737
 31
0.0
  0
LINE
  5
C4
  8
TEAM-DET3
 10
586.725327
 20
228.669357
 30
0.0
 11
575.725567
 21
228.669357
 31
0.0
  0
LINE
  5
C5
  8
TEAM-DET3
 10
486.725327
 20
231.049737
 30
0.0
 11
497.725087
 21
231.049737
 31
0.0
  0
LINE
  5
C6
  8
TEAM-DET3
 10
486.725327
 20
228.669357
 30
0.0
 11
497.725087
 21
228.669357
 31
0.0
  0
ARC
  5
C7
  8
TEAM-DET3
 10
586.725327
 20
223.669357
 30
0.0
 40
5.0
 50
0.0
 51
90.0
  0
ARC
  5
C8
  8
TEAM-DET3
 10
586.725327
 20
226.049737
 30
0.0
 40
5.0
 50
0.0
 51
90.0
  0
ARC
  5
C9
  8
TEAM-DET3
 10
575.725567
 20
228.049237
 30
0.0
 40
3.0
 50
90.0
 51
130.51973
  0
ARC
  5
CA
  8
TEAM-DET3
 10
570.725567
 20
231.669857
 30
0.0
 40
3.0
 50
270.0
 51
310.498871
  0
ARC
  5
CB
  8
TEAM-DET3
 10
570.725567
 20
229.289477
 30
0.0
 40
3.0
 50
270.0
 51
310.498871
  0
ARC
  5
CC
  8
TEAM-DET3
 10
575.725567
 20
225.670097
 30
0.0
 40
3.0
 50
90.0
 51
130.527954
  0
ARC
  5
CD
  8
TEAM-DET3
 10
486.725327
 20
223.669357
 30
0.0
 40
5.0
 50
90.0
 51
180.0
  0
ARC
  5
CE
  8
TEAM-DET3
 10
486.725327
 20
226.049737
 30
0.0
 40
5.0
 50
90.0
 51
180.0
  0
ARC
  5
CF
  8
TEAM-DET3
 10
497.725087
 20
228.049237
 30
0.0
 40
3.0
 50
49.501122
 51
90.0
  0
ARC
  5
D0
  8
TEAM-DET3
 10
502.725087
 20
231.669857
 30
0.0
 40
3.0
 50
229.501129
 51
270.0
  0
ARC
  5
D1
  8
TEAM-DET3
 10
502.725087
 20
229.289477
 30
0.0
 40
3.0
 50
229.501129
 51
270.0
  0
ARC
  5
D2
  8
TEAM-DET3
 10
497.725087
 20
225.670097
 30
0.0
 40
3.0
 50
49.472038
 51
90.0
  0
LINE
  5
D3
  8
TEAM-AXE
 10
536.725327
 20
204.2363
 30
0.0
 11
536.725327
 21
-5.35018
 31
0.0
  0
LINE
  5
D4
  8
TEAM-DET3
 10
540.785987
 20
19.01352
 30
0.0
 11
540.785987
 21
39.01414
 31
0.0
  0
LINE
  5
D5
  8
TEAM-DET3
 10
532.665867
 20
39.01414
 30
0.0
 11
532.665867
 21
19.01352
 31
0.0
  0
LINE
  5
D6
  8
TEAM-DET3
 10
540.785987
 20
19.01352
 30
0.0
 11
541.725327
 21
14.0007
 31
0.0
  0
LINE
  5
D7
  8
TEAM-DET3
 10
532.665867
 20
19.01352
 30
0.0
 11
531.725327
 21
14.0007
 31
0.0
  0
LINE
  5
D8
  8
TEAM-DET3
 10
536.392067
 20
10.80124
 30
0.0
 11
541.725327
 21
14.0007
 31
0.0
  0
LINE
  5
D9
  8
TEAM-DET3
 10
531.725327
 20
14.0007
 30
0.0
 11
537.058567
 21
10.80124
 31
0.0
  0
ARC
  5
DA
  8
TEAM-DET3
 10
549.974827
 20
43.76512
 30
0.0
 40
4.75
 50
270.0
 51
0.0
  0
ARC
  5
DB
  8
TEAM-DET3
 10
523.475807
 20
43.76512
 30
0.0
 40
4.75
 50
180.0
 51
270.0
  0
LINE
  5
DC
  8
TEAM-DET3
 10
554.725807
 20
43.76512
 30
0.0
 11
554.725807
 21
71.9426
 31
0.0
  0
LINE
  5
DD
  8
TEAM-DET3
 10
518.724827
 20
43.76512
 30
0.0
 11
518.724827
 21
71.9426
 31
0.0
  0
LINE
  5
DE
  8
TEAM-DET3
 10
531.725327
 20
39.01414
 30
0.0
 11
531.725327
 21
10.80124
 31
0.0
  0
LINE
  5
DF
  8
TEAM-DET3
 10
523.475807
 20
39.01414
 30
0.0
 11
549.974827
 21
39.01414
 31
0.0
  0
LINE
  5
E0
  8
TEAM-DET3
 10
541.725327
 20
10.80124
 30
0.0
 11
541.725327
 21
39.01414
 31
0.0
  0
LINE
  5
E1
  8
TEAM-DET3
 10
521.376207
 20
0.00046
 30
0.0
 11
552.075667
 21
0.00046
 31
0.0
  0
LINE
  5
E2
  8
TEAM-DET3
 10
521.376207
 20
10.80124
 30
0.0
 11
552.075667
 21
10.80124
 31
0.0
  0
LINE
  5
E3
  8
TEAM-DET3
 10
541.725327
 20
14.0007
 30
0.0
 11
531.725327
 21
14.0007
 31
0.0
  0
LINE
  5
E4
  8
TEAM-DET3
 10
521.376207
 20
10.80124
 30
0.0
 11
521.376207
 21
0.00046
 31
0.0
  0
LINE
  5
E5
  8
TEAM-DET3
 10
552.075667
 20
10.80124
 30
0.0
 11
552.075667
 21
0.00046
 31
0.0
  0
LINE
  5
E6
  8
TEAM-DET3
 10
528.724827
 20
159.197917
 30
0.0
 11
544.725807
 21
159.197917
 31
0.0
  0
LINE
  5
E7
  8
TEAM-DET3
 10
544.725807
 20
159.197917
 30
0.0
 11
544.725807
 21
182.880797
 31
0.0
  0
LINE
  5
E8
  8
TEAM-DET3
 10
528.724827
 20
159.197917
 30
0.0
 11
528.724827
 21
182.880797
 31
0.0
  0
LINE
  5
E9
  8
TEAM-DET3
 10
502.725087
 20
173.316577
 30
0.0
 11
502.725087
 21
183.423697
 31
0.0
  0
LINE
  5
EA
  8
TEAM-DET3
 10
570.725567
 20
173.316577
 30
0.0
 11
570.725567
 21
185.204097
 31
0.0
  0
ARC
  5
EB
  8
TEAM-DET3
 10
536.725327
 20
182.880797
 30
0.0
 40
8.0
 50
0.0
 51
11.818751
  0
ARC
  5
EC
  8
TEAM-DET3
 10
536.725327
 20
182.880797
 30
0.0
 40
8.0
 50
171.18338
 51
180.0
  0
LINE
  5
ED
  8
TEAM-DET3
 10
586.725327
 20
206.511157
 30
0.0
 11
575.725567
 21
206.511157
 31
0.0
  0
LINE
  5
EE
  8
TEAM-DET3
 10
570.725567
 20
185.204097
 30
0.0
 11
570.725567
 21
204.130797
 31
0.0
  0
LINE
  5
EF
  8
TEAM-DET3
 10
486.725327
 20
206.511157
 30
0.0
 11
497.725087
 21
206.511157
 31
0.0
  0
LINE
  5
F0
  8
TEAM-DET3
 10
502.725087
 20
183.423697
 30
0.0
 11
502.725087
 21
204.130177
 31
0.0
  0
ARC
  5
F1
  8
TEAM-DET3
 10
586.725327
 20
211.511157
 30
0.0
 40
5.0
 50
270.0
 51
0.0
  0
ARC
  5
F2
  8
TEAM-DET3
 10
570.725567
 20
207.130057
 30
0.0
 40
3.0
 50
270.0
 51
310.498871
  0
ARC
  5
F3
  8
TEAM-DET3
 10
575.725567
 20
203.510677
 30
0.0
 40
3.0
 50
90.0
 51
130.527954
  0
ARC
  5
F4
  8
TEAM-DET3
 10
486.725327
 20
211.511157
 30
0.0
 40
5.0
 50
180.0
 51
270.0
  0
ARC
  5
F5
  8
TEAM-DET3
 10
502.725087
 20
207.130057
 30
0.0
 40
3.0
 50
229.480255
 51
270.0
  0
ARC
  5
F6
  8
TEAM-DET3
 10
497.725087
 20
203.510677
 30
0.0
 40
3.0
 50
49.472038
 51
90.0
  0
ARC
  5
F7
  8
TEAM-DET3
 10
536.725327
 20
182.880797
 30
0.0
 40
8.0
 50
11.818751
 51
171.18338
  0
LINE
  5
F8
  8
TEAM-AXE
 10
526.145487
 20
182.880797
 30
0.0
 11
547.305167
 21
182.880797
 31
0.0
  0
LINE
  5
F9
  8
TEAM-DET3
 10
502.725087
 20
173.316577
 30
0.0
 11
518.724827
 21
71.9426
 31
0.0
  0
LINE
  5
FA
  8
TEAM-DET3
 10
570.725567
 20
173.316577
 30
0.0
 11
554.725807
 21
71.9426
 31
0.0
  0
LINE
  5
FB
  8
TEAM-DET3
 10
591.725327
 20
211.511157
 30
0.0
 11
591.725327
 21
226.049737
 31
0.0
  0
LINE
  5
FC
  8
TEAM-DET3
 10
481.725327
 20
211.511157
 30
0.0
 11
481.725327
 21
226.049737
 31
0.0
  0
LINE
  5
FD
  8
TEAM-DET3
 10
497.725087
 20
208.056577
 30
0.0
 11
497.725087
 21
227.123957
 31
0.0
  0
LINE
  5
FE
  8
TEAM-DET3
 10
502.725087
 20
205.676197
 30
0.0
 11
502.725087
 21
224.743577
 31
0.0
  0
LINE
  5
FF
  8
TEAM-DET3
 10
570.725567
 20
205.676197
 30
0.0
 11
570.725567
 21
224.743577
 31
0.0
  0
LINE
  5
100
  8
TEAM-DET3
 10
575.725567
 20
208.056577
 30
0.0
 11
575.725567
 21
227.123957
 31
0.0
  0
ARC
  5
101
  8
TEAM-BODY
 10
527.026269
 20
306.298828
 30
0.0
 40
203.000412
 50
343.565216
 51
352.530792
  0
ARC
  5
102
  8
TEAM-BODY
 10
844.000879
 20
574.0
 30
0.0
 40
5.999504
 50
269.995331
 51
0.0
  0
ARC
  5
103
  8
TEAM-BODY
 10
844.000879
 20
594.0
 30
0.0
 40
5.999504
 50
0.0
 51
90.004662
  0
LINE
  5
104
  8
TEAM-BODY
 10
850.000391
 20
574.0
 30
0.0
 11
850.000391
 21
594.0
 31
0.0
  0
ARC
  5
105
  8
TEAM-BODY
 10
13713.883716
 20
-4451.011173
 30
0.0
 40
13816.10789
 50
160.112543
 51
160.201469
  0
ARC
  5
106
  8
TEAM-BODY
 10
-6413.580176
 20
1216.236206
 30
0.0
 40
7203.0
 50
352.530914
 51
354.836663
  0
ARC
  5
107
  8
TEAM-BODY
 10
638.217432
 20
317.615235
 30
0.0
 40
127.999977
 50
271.499969
 51
290.177032
  0
ARC
  5
108
  8
TEAM-BODY
 10
664.321381
 20
248.114034
 30
0.0
 40
53.761715
 50
289.612219
 51
338.826044
  0
ENDSEC
  0
EOF
