  0
SECTION
  2
HEADER
  9
$ACADVER
  1
AC1009
  9
$INSBASE
 10
0.0
 20
0.0
 30
0.0
  9
$EXTMIN
 10
-927.74556
 20
-457.486195
 30
0.0
  9
$EXTMAX
 10
927.732495
 20
381.257084
 30
0.0
  9
$LIMMIN
 10
-927.74556
 20
-457.486195
  9
$LIMMAX
 10
927.732495
 20
381.257084
  9
$ORTHOMODE
 70
     1
  9
$REGENMODE
 70
     1
  9
$FILLMODE
 70
     1
  9
$QTEXTMODE
 70
     0
  9
$MIRRTEXT
 70
     0
  9
$DRAGMODE
 70
     2
  9
$LTSCALE
 40
50.0
  9
$OSMODE
 70
     7
  9
$ATTMODE
 70
     1
  9
$TEXTSIZE
 40
200.0
  9
$TRACEWID
 40
1.0
  9
$TEXTSTYLE
  7
STANDARD
  9
$CLAYER
  8
TEAM-MAS
  9
$CELTYPE
  6
BYLAYER
  9
$CECOLOR
 62
   256
  9
$DIMSCALE
 40
0.0
  9
$DIMASZ
 40
20.0
  9
$DIMEXO
 40
10.0
  9
$DIMDLI
 40
1.0
  9
$DIMRND
 40
0.0
  9
$DIMDLE
 40
0.0
  9
$DIMEXE
 40
1.0
  9
$DIMTP
 40
0.0
  9
$DIMTM
 40
0.0
  9
$DIMTXT
 40
35.0
  9
$DIMCEN
 40
1.0
  9
$DIMTSZ
 40
0.0
  9
$DIMTOL
 70
     0
  9
$DIMLIM
 70
     0
  9
$DIMTIH
 70
     0
  9
$DIMTOH
 70
     0
  9
$DIMSE1
 70
     0
  9
$DIMSE2
 70
     0
  9
$DIMTAD
 70
     0
  9
$DIMZIN
 70
     0
  9
$DIMBLK
  1

  9
$DIMASO
 70
     1
  9
$DIMSHO
 70
     0
  9
$DIMPOST
  1

  9
$DIMAPOST
  1

  9
$DIMALT
 70
     0
  9
$DIMALTD
 70
     2
  9
$DIMALTF
 40
25.4
  9
$DIMLFAC
 40
1.0
  9
$DIMTOFL
 70
     0
  9
$DIMTVP
 40
0.0
  9
$DIMTIX
 70
     0
  9
$DIMSOXD
 70
     0
  9
$DIMSAH
 70
     0
  9
$DIMBLK1
  1

  9
$DIMBLK2
  1

  9
$DIMSTYLE
  2
TEAM
  9
$DIMCLRD
 70
     9
  9
$DIMCLRE
 70
     9
  9
$DIMCLRT
 70
    11
  9
$DIMTFAC
 40
1.0
  9
$DIMGAP
 40
7.0
  9
$LUNITS
 70
     2
  9
$LUPREC
 70
     1
  9
$SKETCHINC
 40
1.0
  9
$FILLETRAD
 40
10.0
  9
$AUNITS
 70
     0
  9
$AUPREC
 70
     0
  9
$MENU
  1
ROPLANS
  9
$ELEVATION
 40
0.0
  9
$PELEVATION
 40
0.0
  9
$THICKNESS
 40
0.0
  9
$LIMCHECK
 70
     0
  9
$BLIPMODE
 70
     1
  9
$CHAMFERA
 40
0.0
  9
$CHAMFERB
 40
0.0
  9
$SKPOLY
 70
     0
  9
$TDCREATE
 40
2450392.957851
  9
$TDUPDATE
 40
2455955.923321
  9
$TDINDWG
 40
2.217917
  9
$TDUSRTIMER
 40
2.217917
  9
$USRTIMER
 70
     1
  9
$ANGBASE
 50
0.0
  9
$ANGDIR
 70
     0
  9
$PDMODE
 70
     0
  9
$PDSIZE
 40
0.0
  9
$PLINEWID
 40
0.0
  9
$COORDS
 70
     2
  9
$SPLFRAME
 70
     0
  9
$SPLINETYPE
 70
     6
  9
$SPLINESEGS
 70
     8
  9
$ATTDIA
 70
     0
  9
$ATTREQ
 70
     0
  9
$HANDLING
 70
     1
  9
$HANDSEED
  5
1F5
  9
$SURFTAB1
 70
    24
  9
$SURFTAB2
 70
    24
  9
$SURFTYPE
 70
     6
  9
$SURFU
 70
     6
  9
$SURFV
 70
     6
  9
$UCSNAME
  2

  9
$UCSORG
 10
0.0
 20
0.0
 30
0.0
  9
$UCSXDIR
 10
1.0
 20
0.0
 30
0.0
  9
$UCSYDIR
 10
0.0
 20
1.0
 30
0.0
  9
$PUCSNAME
  2

  9
$PUCSORG
 10
0.0
 20
0.0
 30
0.0
  9
$PUCSXDIR
 10
1.0
 20
0.0
 30
0.0
  9
$PUCSYDIR
 10
0.0
 20
1.0
 30
0.0
  9
$USERI1
 70
     0
  9
$USERI2
 70
     0
  9
$USERI3
 70
     0
  9
$USERI4
 70
     0
  9
$USERI5
 70
     0
  9
$USERR1
 40
0.0
  9
$USERR2
 40
0.0
  9
$USERR3
 40
0.0
  9
$USERR4
 40
0.0
  9
$USERR5
 40
0.0
  9
$WORLDVIEW
 70
     1
  9
$SHADEDGE
 70
     0
  9
$SHADEDIF
 70
    70
  9
$TILEMODE
 70
     1
  9
$MAXACTVP
 70
    16
  9
$PLIMCHECK
 70
     0
  9
$PEXTMIN
 10
-0.805942
 20
0.005011
 30
0.0
  9
$PEXTMAX
 10
20.250094
 20
11.356329
 30
0.0
  9
$PLIMMIN
 10
0.0
 20
0.0
  9
$PLIMMAX
 10
12.0
 20
9.0
  9
$UNITMODE
 70
     0
  9
$VISRETAIN
 70
     0
  9
$PLINEGEN
 70
     0
  9
$PSLTSCALE
 70
     0
  0
ENDSEC
  0
SECTION
  2
TABLES
  0
TABLE
  2
VPORT
 70
     2
  0
VPORT
  2
*ACTIVE
 70
     0
 10
0.0
 20
0.0
 11
1.0
 21
1.0
 12
-0.006533
 22
-38.114555
 13
0.0
 23
0.0
 14
1.0
 24
1.0
 15
50.0
 25
50.0
 16
0.0
 26
0.0
 36
1.0
 17
0.0
 27
0.0
 37
0.0
 40
977.845453
 41
1.903766
 42
50.0
 43
0.0
 44
0.0
 50
0.0
 51
0.0
 71
     0
 72
   100
 73
     1
 74
     1
 75
     0
 76
     0
 77
     0
 78
     0
  0
ENDTAB
  0
TABLE
  2
LTYPE
 70
     2
  0
LTYPE
  2
CONTINUOUS
 70
     0
  3
Solid Line
 72
    65
 73
     0
 40
0.0
  0
LTYPE
  2
31
 70
     0
  3

 72
    65
 73
     4
 40
2.1
 49
1.5
 49
-0.3
 49
0.0
 49
-0.3
  0
ENDTAB
  0
TABLE
  2
LAYER
 70
     8
  0
LAYER
  2
0
 70
     0
 62
     7
  6
CONTINUOUS
  0
LAYER
  2
DEFPOINTS
 70
     0
 62
     7
  6
CONTINUOUS
  0
LAYER
  2
TEAM-BODY
 70
     0
 62
     2
  6
CONTINUOUS
  0
LAYER
  2
TEAM-AXE
 70
     0
 62
    10
  6
31
  0
LAYER
  2
TEAM-MAS
 70
     0
 62
     9
  6
CONTINUOUS
  0
LAYER
  2
TEAM-TXT
 70
     0
 62
    11
  6
CONTINUOUS
  0
LAYER
  2
TEAM-DET1
 70
     0
 62
     4
  6
CONTINUOUS
  0
LAYER
  2
TEAM-INSP
 70
     0
 62
     5
  6
CONTINUOUS
  0
ENDTAB
  0
TABLE
  2
STYLE
 70
     2
  0
STYLE
  2
STANDARD
 70
     0
 40
0.0
 41
1.0
 50
0.0
 71
     0
 42
200.0
  3
txt
  4

  0
STYLE
  2
TEAM
 70
     0
 40
0.0
 41
0.8
 50
15.0
 71
     0
 42
7.0
  3
ROMANS.shx
  4

  0
ENDTAB
  0
TABLE
  2
VIEW
 70
     0
  0
ENDTAB
  0
TABLE
  2
UCS
 70
     0
  0
ENDTAB
  0
TABLE
  2
APPID
 70
     1
  0
APPID
  2
ACAD
 70
     0
  0
ENDTAB
  0
TABLE
  2
DIMSTYLE
 70
     1
  0
DIMSTYLE
  2
TEAM
 70
     0
  3

  4

  5

  6

  7

 40
0.0
 41
20.0
 42
10.0
 43
1.0
 44
1.0
 45
0.0
 46
0.0
 47
0.0
 48
0.0
140
35.0
141
1.0
142
0.0
143
25.4
144
1.0
145
0.0
146
1.0
147
7.0
 71
     0
 72
     0
 73
     0
 74
     0
 75
     0
 76
     0
 77
     0
 78
     0
170
     0
171
     2
172
     0
173
     0
174
     0
175
     0
176
     9
177
     9
178
    11
  0
ENDTAB
  0
ENDSEC
  0
SECTION
  2
BLOCKS
  0
BLOCK
  8
0
  2
$MODEL_SPACE
 70
     0
 10
0.0
 20
0.0
 30
0.0
  3
$MODEL_SPACE
  1

  0
ENDBLK
  5
1CD
  8
0
  0
BLOCK
 67
     1
  8
0
  2
$PAPER_SPACE
 70
     0
 10
0.0
 20
0.0
 30
0.0
  3
$PAPER_SPACE
  1

  0
ENDBLK
  5
1CB
 67
     1
  8
0
  0
BLOCK
  8
0
  2
*D0
 70
     1
 10
0.0
 20
0.0
 30
0.0
  3
*D0
  1

  0
LINE
  5
22
  8
0
  6
BYBLOCK
 62
     9
 10
3150.0
 20
19990.0
 30
0.0
 11
3150.0
 21
19559.075505
 31
0.0
  0
LINE
  5
23
  8
0
  6
BYBLOCK
 62
     9
 10
4850.0
 20
19990.0
 30
0.0
 11
4850.0
 21
19559.075505
 31
0.0
  0
LINE
  5
24
  8
0
  6
BYBLOCK
 62
     9
 10
3170.0
 20
19560.075505
 30
0.0
 11
3940.5
 21
19560.075505
 31
0.0
  0
LINE
  5
25
  8
0
  6
BYBLOCK
 62
     9
 10
4830.0
 20
19560.075505
 30
0.0
 11
4059.5
 21
19560.075505
 31
0.0
  0
SOLID
  5
26
  8
0
  6
BYBLOCK
 62
     9
 10
3170.0
 20
19563.408839
 30
0.0
 11
3170.0
 21
19556.742172
 31
0.0
 12
3150.0
 22
19560.075505
 32
0.0
 13
3150.0
 23
19560.075505
 33
0.0
  0
SOLID
  5
27
  8
0
  6
BYBLOCK
 62
     9
 10
4830.0
 20
19563.408839
 30
0.0
 11
4830.0
 21
19556.742172
 31
0.0
 12
4850.0
 22
19560.075505
 32
0.0
 13
4850.0
 23
19560.075505
 33
0.0
  0
TEXT
  5
28
  8
0
  6
BYBLOCK
 62
    11
 10
3947.5
 20
19542.575505
 30
0.0
 40
35.0
  1
1700
  0
POINT
  5
29
  8
DEFPOINTS
  6
BYBLOCK
 62
     0
 10
3150.0
 20
20000.0
 30
0.0
  0
POINT
  5
2B
  8
DEFPOINTS
  6
BYBLOCK
 62
     0
 10
4850.0
 20
20000.0
 30
0.0
  0
POINT
  5
2C
  8
DEFPOINTS
  6
BYBLOCK
 62
     0
 10
4850.0
 20
19560.075505
 30
0.0
  0
ENDBLK
  5
2E
  8
0
  0
BLOCK
  8
0
  2
*D1
 70
     1
 10
0.0
 20
0.0
 30
0.0
  3
*D1
  1

  0
LINE
  5
4A
  8
0
  6
BYBLOCK
 62
     9
 10
4850.0
 20
19990.0
 30
0.0
 11
4850.0
 21
19591.437872
 31
0.0
  0
LINE
  5
4B
  8
0
  6
BYBLOCK
 62
     9
 10
4000.0
 20
19950.0
 30
0.0
 11
4000.0
 21
19591.437872
 31
0.0
  0
LINE
  5
4C
  8
0
  6
BYBLOCK
 62
     9
 10
4830.0
 20
19592.437872
 30
0.0
 11
4475.75
 21
19592.437872
 31
0.0
  0
LINE
  5
4D
  8
0
  6
BYBLOCK
 62
     9
 10
4020.0
 20
19592.437872
 30
0.0
 11
4374.25
 21
19592.437872
 31
0.0
  0
SOLID
  5
4E
  8
0
  6
BYBLOCK
 62
     9
 10
4830.0
 20
19595.771206
 30
0.0
 11
4830.0
 21
19589.104539
 31
0.0
 12
4850.0
 22
19592.437872
 32
0.0
 13
4850.0
 23
19592.437872
 33
0.0
  0
SOLID
  5
4F
  8
0
  6
BYBLOCK
 62
     9
 10
4020.0
 20
19595.771206
 30
0.0
 11
4020.0
 21
19589.104539
 31
0.0
 12
4000.0
 22
19592.437872
 32
0.0
 13
4000.0
 23
19592.437872
 33
0.0
  0
TEXT
  5
50
  8
0
  6
BYBLOCK
 62
    11
 10
4381.25
 20
19574.937872
 30
0.0
 40
35.0
  1
850
  0
POINT
  5
51
  8
DEFPOINTS
  6
BYBLOCK
 62
     0
 10
4850.0
 20
20000.0
 30
0.0
  0
POINT
  5
52
  8
DEFPOINTS
  6
BYBLOCK
 62
     0
 10
4000.0
 20
19960.0
 30
0.0
  0
POINT
  5
53
  8
DEFPOINTS
  6
BYBLOCK
 62
     0
 10
4000.0
 20
19592.437872
 30
0.0
  0
ENDBLK
  5
55
  8
0
  0
BLOCK
  8
0
  2
*D2
 70
     1
 10
0.0
 20
0.0
 30
0.0
  3
*D2
  1

  0
LINE
  5
3C
  8
0
  6
BYBLOCK
 62
     9
 10
4485.0
 20
19625.0
 30
0.0
 11
4886.95649
 21
19625.0
 31
0.0
  0
LINE
  5
3D
  8
0
  6
BYBLOCK
 62
     9
 10
4830.0
 20
20375.0
 30
0.0
 11
4886.95649
 21
20375.0
 31
0.0
  0
LINE
  5
3E
  8
0
  6
BYBLOCK
 62
     9
 10
4885.95649
 20
19645.0
 30
0.0
 11
4885.95649
 21
19949.25
 31
0.0
  0
LINE
  5
3F
  8
0
  6
BYBLOCK
 62
     9
 10
4885.95649
 20
20355.0
 30
0.0
 11
4885.95649
 21
20050.75
 31
0.0
  0
SOLID
  5
40
  8
0
  6
BYBLOCK
 62
     9
 10
4882.623157
 20
19645.0
 30
0.0
 11
4889.289824
 21
19645.0
 31
0.0
 12
4885.95649
 22
19625.0
 32
0.0
 13
4885.95649
 23
19625.0
 33
0.0
  0
SOLID
  5
41
  8
0
  6
BYBLOCK
 62
     9
 10
4882.623157
 20
20355.0
 30
0.0
 11
4889.289824
 21
20355.0
 31
0.0
 12
4885.95649
 22
20375.0
 32
0.0
 13
4885.95649
 23
20375.0
 33
0.0
  0
TEXT
  5
42
  8
0
  6
BYBLOCK
 62
    11
 10
4903.45649
 20
19956.25
 30
0.0
 40
35.0
  1
750
 50
90.0
  0
POINT
  5
43
  8
DEFPOINTS
  6
BYBLOCK
 62
     0
 10
4475.0
 20
19625.0
 30
0.0
  0
POINT
  5
44
  8
DEFPOINTS
  6
BYBLOCK
 62
     0
 10
4820.0
 20
20375.0
 30
0.0
  0
POINT
  5
45
  8
DEFPOINTS
  6
BYBLOCK
 62
     0
 10
4885.95649
 20
20375.0
 30
0.0
  0
ENDBLK
  5
47
  8
0
  0
ENDSEC
  0
SECTION
  2
ENTITIES
  0
DIMENSION
  5
20
  8
TEAM-MAS
  2
*D0
 10
850.0
 20
-439.924495
 30
0.0
 11
0.0
 21
-439.924495
 31
0.0
 12
-4000.0
 22
-20000.0
 32
0.0
 13
-850.0
 23
0.0
 33
0.0
 14
850.0
 24
0.0
 34
0.0
  0
POLYLINE
  5
2F
  8
TEAM-BODY
 66
     1
 10
0.0
 20
0.0
 30
0.0
  0
VERTEX
  5
1D3
  8
TEAM-BODY
 10
-850.0
 20
0.0
 30
0.0
 42
0.414214
  0
VERTEX
  5
1D4
  8
TEAM-BODY
 10
-475.0
 20
-375.0
 30
0.0
  0
VERTEX
  5
1D5
  8
TEAM-BODY
 10
475.0
 20
-375.0
 30
0.0
 42
0.414214
  0
VERTEX
  5
1D6
  8
TEAM-BODY
 10
850.0
 20
0.0
 30
0.0
  0
VERTEX
  5
1D7
  8
TEAM-BODY
 10
850.0
 20
0.0
 30
0.0
  0
SEQEND
  5
1D8
  8
TEAM-BODY
  0
POLYLINE
  5
31
  8
TEAM-DET1
 66
     1
 10
0.0
 20
0.0
 30
0.0
  0
VERTEX
  5
1D9
  8
TEAM-DET1
 10
-790.0
 20
0.0
 30
0.0
 42
0.414214
  0
VERTEX
  5
1DA
  8
TEAM-DET1
 10
-475.0
 20
-315.0
 30
0.0
  0
VERTEX
  5
1DB
  8
TEAM-DET1
 10
475.0
 20
-315.0
 30
0.0
 42
0.414214
  0
VERTEX
  5
1DC
  8
TEAM-DET1
 10
790.0
 20
0.0
 30
0.0
  0
SEQEND
  5
1DD
  8
TEAM-DET1
  0
POLYLINE
  5
33
  8
TEAM-BODY
 66
     1
 10
0.0
 20
0.0
 30
0.0
  0
VERTEX
  5
1DE
  8
TEAM-BODY
 10
-565.0
 20
0.0
 30
0.0
 42
0.414214
  0
VERTEX
  5
1DF
  8
TEAM-BODY
 10
-310.0
 20
-255.0
 30
0.0
  0
VERTEX
  5
1E0
  8
TEAM-BODY
 10
310.0
 20
-255.0
 30
0.0
 42
0.414214
  0
VERTEX
  5
1E1
  8
TEAM-BODY
 10
565.0
 20
0.0
 30
0.0
  0
SEQEND
  5
1E2
  8
TEAM-BODY
  0
POLYLINE
  5
34
  8
TEAM-BODY
 66
     1
 10
0.0
 20
0.0
 30
0.0
  0
VERTEX
  5
1E3
  8
TEAM-BODY
 10
-850.0
 20
0.0
 30
0.0
  0
VERTEX
  5
1E4
  8
TEAM-BODY
 10
-850.0
 20
345.0
 30
0.0
 42
-0.414214
  0
VERTEX
  5
1E5
  8
TEAM-BODY
 10
-820.0
 20
375.0
 30
0.0
  0
VERTEX
  5
1E6
  8
TEAM-BODY
 10
820.0
 20
375.0
 30
0.0
 42
-0.414214
  0
VERTEX
  5
1E7
  8
TEAM-BODY
 10
850.0
 20
345.0
 30
0.0
  0
VERTEX
  5
1E8
  8
TEAM-BODY
 10
850.0
 20
0.0
 30
0.0
  0
SEQEND
  5
1E9
  8
TEAM-BODY
  0
POLYLINE
  5
35
  8
TEAM-DET1
 66
     1
 10
0.0
 20
0.0
 30
0.0
  0
VERTEX
  5
1EA
  8
TEAM-DET1
 10
-790.0
 20
0.0
 30
0.0
 42
-0.414214
  0
VERTEX
  5
1EB
  8
TEAM-DET1
 10
-475.0
 20
315.0
 30
0.0
  0
VERTEX
  5
1EC
  8
TEAM-DET1
 10
475.0
 20
315.0
 30
0.0
 42
-0.414214
  0
VERTEX
  5
1ED
  8
TEAM-DET1
 10
790.0
 20
0.0
 30
0.0
  0
SEQEND
  5
1EE
  8
TEAM-DET1
  0
POLYLINE
  5
36
  8
TEAM-BODY
 66
     1
 10
0.0
 20
0.0
 30
0.0
  0
VERTEX
  5
1EF
  8
TEAM-BODY
 10
-565.0
 20
0.0
 30
0.0
 42
-0.414214
  0
VERTEX
  5
1F0
  8
TEAM-BODY
 10
-310.0
 20
255.0
 30
0.0
  0
VERTEX
  5
1F1
  8
TEAM-BODY
 10
310.0
 20
255.0
 30
0.0
 42
-0.414214
  0
VERTEX
  5
1F2
  8
TEAM-BODY
 10
565.0
 20
0.0
 30
0.0
  0
SEQEND
  5
1F3
  8
TEAM-BODY
  0
TEXT
  5
37
  8
TEAM-TXT
 10
-824.660117
 20
321.244156
 30
0.0
 40
30.0
  1
team 111505
 41
0.7
 51
15.0
  7
TEAM
  0
DIMENSION
  5
3A
  8
TEAM-MAS
  2
*D2
 10
885.95649
 20
375.0
 30
0.0
 11
885.95649
 21
0.0
 31
0.0
 12
-4000.0
 22
-20000.0
 32
0.0
 13
475.0
 23
-375.0
 33
0.0
 14
820.0
 24
375.0
 34
0.0
 50
90.0
  0
DIMENSION
  5
48
  8
TEAM-MAS
  2
*D1
 10
0.0
 20
-407.562128
 30
0.0
 11
425.0
 21
-407.562128
 31
0.0
 12
-4000.0
 22
-20000.0
 32
0.0
 13
850.0
 23
0.0
 33
0.0
 14
0.0
 24
-40.0
 34
0.0
1001
ACAD
1000
DSTYLE
1002
{
1070
    40
1040
1.0
1002
}
  0
ARC
  5
56
  8
TEAM-DET1
 10
0.264143
 20
-382.945738
 30
0.0
 40
84.130824
 50
89.999944
 51
97.007555
  0
ARC
  5
57
  8
TEAM-DET1
 10
0.264143
 20
-229.521547
 30
0.0
 40
84.130824
 50
262.992445
 51
270.000056
  0
LINE
  5
58
  8
TEAM-AXE
 10
30.0
 20
-306.233641
 30
0.0
 11
-30.0
 21
-306.233641
 31
0.0
  0
ARC
  5
5B
  8
TEAM-DET1
 10
-4.433583
 20
-344.727936
 30
0.0
 40
45.625383
 50
97.007486
 51
106.528231
  0
ARC
  5
5C
  8
TEAM-DET1
 10
-4.433583
 20
-267.739349
 30
0.0
 40
45.625383
 50
253.471769
 51
262.992514
  0
ARC
  5
5D
  8
TEAM-DET1
 10
-22.003304
 20
-306.233644
 30
0.0
 40
2.732471
 50
125.618467
 51
179.999963
  0
ARC
  5
5E
  8
TEAM-DET1
 10
-22.003304
 20
-306.233641
 30
0.0
 40
2.732471
 50
180.000037
 51
234.381533
  0
ARC
  5
5F
  8
TEAM-DET1
 10
-11.510485
 20
-320.879909
 30
0.0
 40
20.749472
 50
106.528202
 51
125.618426
  0
ARC
  5
60
  8
TEAM-DET1
 10
-11.510485
 20
-291.587376
 30
0.0
 40
20.749472
 50
234.381574
 51
253.471798
  0
ARC
  5
61
  8
TEAM-DET1
 10
4.962032
 20
-344.727936
 30
0.0
 40
45.625383
 50
73.471769
 51
82.992514
  0
ARC
  5
62
  8
TEAM-DET1
 10
4.962032
 20
-267.739349
 30
0.0
 40
45.625383
 50
277.007486
 51
286.528231
  0
ARC
  5
63
  8
TEAM-DET1
 10
0.264306
 20
-382.945738
 30
0.0
 40
84.130824
 50
82.992445
 51
90.000056
  0
ARC
  5
64
  8
TEAM-DET1
 10
0.264306
 20
-229.521547
 30
0.0
 40
84.130824
 50
269.999944
 51
277.007555
  0
ARC
  5
65
  8
TEAM-DET1
 10
22.531753
 20
-306.233644
 30
0.0
 40
2.732471
 50
0.000037
 51
54.381533
  0
ARC
  5
66
  8
TEAM-DET1
 10
12.038934
 20
-320.879909
 30
0.0
 40
20.749472
 50
54.381574
 51
73.471798
  0
ARC
  5
67
  8
TEAM-DET1
 10
12.038934
 20
-291.587376
 30
0.0
 40
20.749472
 50
286.528202
 51
305.618426
  0
ARC
  5
68
  8
TEAM-DET1
 10
22.531753
 20
-306.233641
 30
0.0
 40
2.732471
 50
305.618467
 51
359.999963
  0
LINE
  5
69
  8
TEAM-AXE
 10
0.0
 20
-326.233641
 30
0.0
 11
0.0
 21
-286.233641
 31
0.0
  0
CIRCLE
  5
6A
  8
TEAM-DET1
 10
0.0
 20
0.0
 30
0.0
 40
35.0
  0
CIRCLE
  5
6B
  8
TEAM-BODY
 10
0.0
 20
0.0
 30
0.0
 40
26.0
  0
LINE
  5
6C
  8
TEAM-AXE
 10
0.0
 20
-40.0
 30
0.0
 11
0.0
 21
40.0
 31
0.0
  0
LINE
  5
6D
  8
TEAM-AXE
 10
-40.0
 20
0.0
 30
0.0
 11
40.0
 21
0.0
 31
0.0
  0
CIRCLE
  5
6E
  8
TEAM-INSP
 10
0.0
 20
0.0
 30
0.0
 40
10.0
  0
ENDSEC
  0
EOF
