  0
SECTION
  2
HEADER
  9
$ACADVER
  1
AC1009
  9
$INSBASE
 10
0.0
 20
0.0
 30
0.0
  9
$EXTMIN
 10
-376.8733
 20
-10.048132
 30
0.0
  9
$EXTMAX
 10
467.830812
 20
645.110637
 30
0.0
  9
$LIMMIN
 10
-376.8733
 20
-10.048132
  9
$LIMMAX
 10
467.830812
 20
645.110637
  9
$ORTHOMODE
 70
     1
  9
$REGENMODE
 70
     1
  9
$FILLMODE
 70
     1
  9
$QTEXTMODE
 70
     0
  9
$MIRRTEXT
 70
     0
  9
$DRAGMODE
 70
     2
  9
$LTSCALE
 40
50.0
  9
$OSMODE
 70
     7
  9
$ATTMODE
 70
     1
  9
$TEXTSIZE
 40
200.0
  9
$TRACEWID
 40
1.0
  9
$TEXTSTYLE
  7
STANDARD
  9
$CLAYER
  8
TEAM-MAS
  9
$CELTYPE
  6
BYLAYER
  9
$CECOLOR
 62
   256
  9
$DIMSCALE
 40
0.0
  9
$DIMASZ
 40
20.0
  9
$DIMEXO
 40
10.0
  9
$DIMDLI
 40
1.0
  9
$DIMRND
 40
0.0
  9
$DIMDLE
 40
0.0
  9
$DIMEXE
 40
1.0
  9
$DIMTP
 40
0.0
  9
$DIMTM
 40
0.0
  9
$DIMTXT
 40
35.0
  9
$DIMCEN
 40
1.0
  9
$DIMTSZ
 40
0.0
  9
$DIMTOL
 70
     0
  9
$DIMLIM
 70
     0
  9
$DIMTIH
 70
     0
  9
$DIMTOH
 70
     0
  9
$DIMSE1
 70
     0
  9
$DIMSE2
 70
     0
  9
$DIMTAD
 70
     0
  9
$DIMZIN
 70
     0
  9
$DIMBLK
  1

  9
$DIMASO
 70
     1
  9
$DIMSHO
 70
     0
  9
$DIMPOST
  1

  9
$DIMAPOST
  1

  9
$DIMALT
 70
     0
  9
$DIMALTD
 70
     2
  9
$DIMALTF
 40
25.4
  9
$DIMLFAC
 40
1.0
  9
$DIMTOFL
 70
     0
  9
$DIMTVP
 40
0.0
  9
$DIMTIX
 70
     0
  9
$DIMSOXD
 70
     0
  9
$DIMSAH
 70
     0
  9
$DIMBLK1
  1

  9
$DIMBLK2
  1

  9
$DIMSTYLE
  2
TEAM
  9
$DIMCLRD
 70
     9
  9
$DIMCLRE
 70
     9
  9
$DIMCLRT
 70
    11
  9
$DIMTFAC
 40
1.0
  9
$DIMGAP
 40
7.0
  9
$LUNITS
 70
     2
  9
$LUPREC
 70
     1
  9
$SKETCHINC
 40
1.0
  9
$FILLETRAD
 40
10.0
  9
$AUNITS
 70
     0
  9
$AUPREC
 70
     0
  9
$MENU
  1
ROPLANS
  9
$ELEVATION
 40
0.0
  9
$PELEVATION
 40
0.0
  9
$THICKNESS
 40
0.0
  9
$LIMCHECK
 70
     0
  9
$BLIPMODE
 70
     1
  9
$CHAMFERA
 40
0.0
  9
$CHAMFERB
 40
0.0
  9
$SKPOLY
 70
     0
  9
$TDCREATE
 40
2450392.957851
  9
$TDUPDATE
 40
2455955.923321
  9
$TDINDWG
 40
2.217917
  9
$TDUSRTIMER
 40
2.217917
  9
$USRTIMER
 70
     1
  9
$ANGBASE
 50
0.0
  9
$ANGDIR
 70
     0
  9
$PDMODE
 70
     0
  9
$PDSIZE
 40
0.0
  9
$PLINEWID
 40
0.0
  9
$COORDS
 70
     2
  9
$SPLFRAME
 70
     0
  9
$SPLINETYPE
 70
     6
  9
$SPLINESEGS
 70
     8
  9
$ATTDIA
 70
     0
  9
$ATTREQ
 70
     0
  9
$HANDLING
 70
     1
  9
$HANDSEED
  5
2AA
  9
$SURFTAB1
 70
    24
  9
$SURFTAB2
 70
    24
  9
$SURFTYPE
 70
     6
  9
$SURFU
 70
     6
  9
$SURFV
 70
     6
  9
$UCSNAME
  2

  9
$UCSORG
 10
0.0
 20
0.0
 30
0.0
  9
$UCSXDIR
 10
1.0
 20
0.0
 30
0.0
  9
$UCSYDIR
 10
0.0
 20
1.0
 30
0.0
  9
$PUCSNAME
  2

  9
$PUCSORG
 10
0.0
 20
0.0
 30
0.0
  9
$PUCSXDIR
 10
1.0
 20
0.0
 30
0.0
  9
$PUCSYDIR
 10
0.0
 20
1.0
 30
0.0
  9
$USERI1
 70
     0
  9
$USERI2
 70
     0
  9
$USERI3
 70
     0
  9
$USERI4
 70
     0
  9
$USERI5
 70
     0
  9
$USERR1
 40
0.0
  9
$USERR2
 40
0.0
  9
$USERR3
 40
0.0
  9
$USERR4
 40
0.0
  9
$USERR5
 40
0.0
  9
$WORLDVIEW
 70
     1
  9
$SHADEDGE
 70
     0
  9
$SHADEDIF
 70
    70
  9
$TILEMODE
 70
     1
  9
$MAXACTVP
 70
    16
  9
$PLIMCHECK
 70
     0
  9
$PEXTMIN
 10
-0.805942
 20
0.005011
 30
0.0
  9
$PEXTMAX
 10
20.250094
 20
11.356329
 30
0.0
  9
$PLIMMIN
 10
0.0
 20
0.0
  9
$PLIMMAX
 10
12.0
 20
9.0
  9
$UNITMODE
 70
     0
  9
$VISRETAIN
 70
     0
  9
$PLINEGEN
 70
     0
  9
$PSLTSCALE
 70
     0
  0
ENDSEC
  0
SECTION
  2
TABLES
  0
TABLE
  2
VPORT
 70
     2
  0
VPORT
  2
*ACTIVE
 70
     0
 10
0.0
 20
0.0
 11
1.0
 21
1.0
 12
45.478756
 22
317.531252
 13
0.0
 23
0.0
 14
1.0
 24
1.0
 15
50.0
 25
50.0
 16
0.0
 26
0.0
 36
1.0
 17
0.0
 27
0.0
 37
0.0
 40
659.266348
 41
1.903766
 42
50.0
 43
0.0
 44
0.0
 50
0.0
 51
0.0
 71
     0
 72
   100
 73
     1
 74
     1
 75
     0
 76
     0
 77
     0
 78
     0
  0
ENDTAB
  0
TABLE
  2
LTYPE
 70
     3
  0
LTYPE
  2
CONTINUOUS
 70
     0
  3
Solid Line
 72
    65
 73
     0
 40
0.0
  0
LTYPE
  2
31
 70
     0
  3

 72
    65
 73
     4
 40
2.1
 49
1.5
 49
-0.3
 49
0.0
 49
-0.3
  0
LTYPE
  2
22
 70
     0
  3

 72
    65
 73
     2
 40
1.4
 49
1.2
 49
-0.2
  0
ENDTAB
  0
TABLE
  2
LAYER
 70
    11
  0
LAYER
  2
0
 70
     0
 62
     7
  6
CONTINUOUS
  0
LAYER
  2
DEFPOINTS
 70
     0
 62
     7
  6
CONTINUOUS
  0
LAYER
  2
TEAM-BODY
 70
     0
 62
     2
  6
CONTINUOUS
  0
LAYER
  2
TEAM-AXE
 70
     0
 62
    10
  6
31
  0
LAYER
  2
TEAM-MAS
 70
     0
 62
     9
  6
CONTINUOUS
  0
LAYER
  2
TEAM-TXT
 70
     0
 62
    11
  6
CONTINUOUS
  0
LAYER
  2
TEAM-DET1
 70
     0
 62
     4
  6
CONTINUOUS
  0
LAYER
  2
TEAM-HIDE
 70
     0
 62
     8
  6
22
  0
LAYER
  2
TEAM-KAN
 70
     0
 62
     6
  6
CONTINUOUS
  0
LAYER
  2
TEAM-DET3
 70
     0
 62
    14
  6
CONTINUOUS
  0
LAYER
  2
TEAM-INSP
 70
     0
 62
     5
  6
CONTINUOUS
  0
ENDTAB
  0
TABLE
  2
STYLE
 70
     2
  0
STYLE
  2
STANDARD
 70
     0
 40
0.0
 41
1.0
 50
0.0
 71
     0
 42
200.0
  3
txt
  4

  0
STYLE
  2
TEAM
 70
     0
 40
0.0
 41
0.8
 50
15.0
 71
     0
 42
7.0
  3
ROMANS.shx
  4

  0
ENDTAB
  0
TABLE
  2
VIEW
 70
     0
  0
ENDTAB
  0
TABLE
  2
UCS
 70
     0
  0
ENDTAB
  0
TABLE
  2
APPID
 70
     1
  0
APPID
  2
ACAD
 70
     0
  0
ENDTAB
  0
TABLE
  2
DIMSTYLE
 70
     1
  0
DIMSTYLE
  2
TEAM
 70
     0
  3

  4

  5

  6

  7

 40
0.0
 41
20.0
 42
10.0
 43
1.0
 44
1.0
 45
0.0
 46
0.0
 47
0.0
 48
0.0
140
35.0
141
1.0
142
0.0
143
25.4
144
1.0
145
0.0
146
1.0
147
7.0
 71
     0
 72
     0
 73
     0
 74
     0
 75
     0
 76
     0
 77
     0
 78
     0
170
     0
171
     2
172
     0
173
     0
174
     0
175
     0
176
     9
177
     9
178
    11
  0
ENDTAB
  0
ENDSEC
  0
SECTION
  2
BLOCKS
  0
BLOCK
  8
0
  2
$MODEL_SPACE
 70
     0
 10
0.0
 20
0.0
 30
0.0
  3
$MODEL_SPACE
  1

  0
ENDBLK
  5
287
  8
0
  0
BLOCK
 67
     1
  8
0
  2
$PAPER_SPACE
 70
     0
 10
0.0
 20
0.0
 30
0.0
  3
$PAPER_SPACE
  1

  0
ENDBLK
  5
285
 67
     1
  8
0
  0
BLOCK
  8
0
  2
*D0
 70
     1
 10
0.0
 20
0.0
 30
0.0
  3
*D0
  1

  0
LINE
  5
3F
  8
0
  6
BYBLOCK
 62
     9
 10
8035.0
 20
24125.0
 30
0.0
 11
8406.725877
 21
24125.0
 31
0.0
  0
LINE
  5
40
  8
0
  6
BYBLOCK
 62
     9
 10
8375.758443
 20
24595.0
 30
0.0
 11
8406.725877
 21
24595.0
 31
0.0
  0
LINE
  5
41
  8
0
  6
BYBLOCK
 62
     9
 10
8405.725877
 20
24145.0
 30
0.0
 11
8405.725877
 21
24309.25
 31
0.0
  0
LINE
  5
42
  8
0
  6
BYBLOCK
 62
     9
 10
8405.725877
 20
24575.0
 30
0.0
 11
8405.725877
 21
24410.75
 31
0.0
  0
SOLID
  5
43
  8
0
  6
BYBLOCK
 62
     9
 10
8402.392543
 20
24145.0
 30
0.0
 11
8409.05921
 21
24145.0
 31
0.0
 12
8405.725877
 22
24125.0
 32
0.0
 13
8405.725877
 23
24125.0
 33
0.0
  0
SOLID
  5
44
  8
0
  6
BYBLOCK
 62
     9
 10
8402.392543
 20
24575.0
 30
0.0
 11
8409.05921
 21
24575.0
 31
0.0
 12
8405.725877
 22
24595.0
 32
0.0
 13
8405.725877
 23
24595.0
 33
0.0
  0
TEXT
  5
45
  8
0
  6
BYBLOCK
 62
    11
 10
8423.225877
 20
24316.25
 30
0.0
 40
35.0
  1
470
 50
90.0
  0
POINT
  5
46
  8
DEFPOINTS
  6
BYBLOCK
 62
     0
 10
8025.0
 20
24125.0
 30
0.0
  0
POINT
  5
47
  8
DEFPOINTS
  6
BYBLOCK
 62
     0
 10
8365.758443
 20
24595.0
 30
0.0
  0
POINT
  5
48
  8
DEFPOINTS
  6
BYBLOCK
 62
     0
 10
8405.725877
 20
24595.0
 30
0.0
  0
ENDBLK
  5
4A
  8
0
  0
BLOCK
  8
0
  2
*D1
 70
     1
 10
0.0
 20
0.0
 30
0.0
  3
*D1
  1

  0
LINE
  5
31
  8
0
  6
BYBLOCK
 62
     9
 10
8010.0
 20
24000.0
 30
0.0
 11
8451.317725
 21
24000.0
 31
0.0
  0
LINE
  5
32
  8
0
  6
BYBLOCK
 62
     9
 10
8375.758443
 20
24595.0
 30
0.0
 11
8451.317725
 21
24595.0
 31
0.0
  0
LINE
  5
33
  8
0
  6
BYBLOCK
 62
     9
 10
8450.317725
 20
24020.0
 30
0.0
 11
8450.317725
 21
24164.25
 31
0.0
  0
LINE
  5
34
  8
0
  6
BYBLOCK
 62
     9
 10
8450.317725
 20
24575.0
 30
0.0
 11
8450.317725
 21
24405.75
 31
0.0
  0
TEXT
  5
35
  8
0
  6
BYBLOCK
 62
    11
 10
8467.817725
 20
24171.25
 30
0.0
 40
35.0
  1
595-630
 50
90.0
  0
SOLID
  5
36
  8
0
  6
BYBLOCK
 62
     9
 10
8446.984392
 20
24020.0
 30
0.0
 11
8453.651059
 21
24020.0
 31
0.0
 12
8450.317725
 22
24000.0
 32
0.0
 13
8450.317725
 23
24000.0
 33
0.0
  0
SOLID
  5
37
  8
0
  6
BYBLOCK
 62
     9
 10
8446.984392
 20
24575.0
 30
0.0
 11
8453.651059
 21
24575.0
 31
0.0
 12
8450.317725
 22
24595.0
 32
0.0
 13
8450.317725
 23
24595.0
 33
0.0
  0
POINT
  5
38
  8
DEFPOINTS
  6
BYBLOCK
 62
     0
 10
8000.0
 20
24000.0
 30
0.0
  0
POINT
  5
39
  8
DEFPOINTS
  6
BYBLOCK
 62
     0
 10
8365.758443
 20
24595.0
 30
0.0
  0
POINT
  5
3A
  8
DEFPOINTS
  6
BYBLOCK
 62
     0
 10
8450.317725
 20
24595.0
 30
0.0
  0
ENDBLK
  5
3C
  8
0
  0
BLOCK
  8
0
  2
*D2
 70
     1
 10
0.0
 20
0.0
 30
0.0
  3
*D2
  1

  0
LINE
  5
22
  8
0
  6
BYBLOCK
 62
     9
 10
7625.0
 20
24597.096929
 30
0.0
 11
7625.0
 21
24628.589015
 31
0.0
  0
LINE
  5
23
  8
0
  6
BYBLOCK
 62
     9
 10
8375.0
 20
24597.096929
 30
0.0
 11
8375.0
 21
24628.589015
 31
0.0
  0
LINE
  5
24
  8
0
  6
BYBLOCK
 62
     9
 10
7645.0
 20
24627.589015
 30
0.0
 11
7949.25
 21
24627.589015
 31
0.0
  0
LINE
  5
25
  8
0
  6
BYBLOCK
 62
     9
 10
8355.0
 20
24627.589015
 30
0.0
 11
8050.75
 21
24627.589015
 31
0.0
  0
SOLID
  5
26
  8
0
  6
BYBLOCK
 62
     9
 10
7645.0
 20
24630.922348
 30
0.0
 11
7645.0
 21
24624.255682
 31
0.0
 12
7625.0
 22
24627.589015
 32
0.0
 13
7625.0
 23
24627.589015
 33
0.0
  0
SOLID
  5
27
  8
0
  6
BYBLOCK
 62
     9
 10
8355.0
 20
24630.922348
 30
0.0
 11
8355.0
 21
24624.255682
 31
0.0
 12
8375.0
 22
24627.589015
 32
0.0
 13
8375.0
 23
24627.589015
 33
0.0
  0
TEXT
  5
28
  8
0
  6
BYBLOCK
 62
    11
 10
7956.25
 20
24610.089015
 30
0.0
 40
35.0
  1
750
  0
POINT
  5
29
  8
DEFPOINTS
  6
BYBLOCK
 62
     0
 10
7625.0
 20
24587.096929
 30
0.0
  0
POINT
  5
2B
  8
DEFPOINTS
  6
BYBLOCK
 62
     0
 10
8375.0
 20
24587.096929
 30
0.0
  0
POINT
  5
2C
  8
DEFPOINTS
  6
BYBLOCK
 62
     0
 10
8375.0
 20
24627.589015
 30
0.0
  0
ENDBLK
  5
2E
  8
0
  0
ENDSEC
  0
SECTION
  2
ENTITIES
  0
DIMENSION
  5
20
  8
TEAM-MAS
  2
*D2
 10
375.0
 20
627.589015
 30
0.0
 11
0.0
 21
627.589015
 31
0.0
 12
-8000.0
 22
-24000.0
 32
0.0
 13
-375.0
 23
587.096929
 33
0.0
 14
375.0
 24
587.096929
 34
0.0
  0
DIMENSION
  5
2F
  8
TEAM-MAS
  2
*D1
 10
450.317725
 20
595.0
 30
0.0
 11
450.317725
 21
285.0
 31
0.0
 12
-8000.0
 22
-24000.0
 32
0.0
 70
   128
  1
<>-630
 13
0.0
 23
0.0
 33
0.0
 14
365.758443
 24
595.0
 34
0.0
 50
90.0
  0
DIMENSION
  5
3D
  8
TEAM-MAS
  2
*D0
 10
405.725877
 20
595.0
 30
0.0
 11
405.725877
 21
360.0
 31
0.0
 12
-8000.0
 22
-24000.0
 32
0.0
 13
25.0
 23
125.0
 33
0.0
 14
365.758443
 24
595.0
 34
0.0
 50
90.0
  0
LINE
  5
4B
  8
TEAM-DET1
 10
359.0
 20
545.0
 30
0.0
 11
303.163253
 21
545.0
 31
0.0
  0
ARC
  5
4D
  8
TEAM-DET3
 10
105.19044
 20
114.26938
 30
0.0
 40
6.0
 50
198.233093
 51
265.004517
  0
ARC
  5
4F
  8
TEAM-DET3
 10
107.5354
 20
113.31112
 30
0.0
 40
10.75002
 50
193.200653
 51
265.00351
  0
LINE
  5
50
  8
TEAM-DET3
 10
88.71826
 20
119.76528
 30
0.0
 11
69.06738
 21
118.73624
 31
0.0
  0
LINE
  5
51
  8
TEAM-DET3
 10
88.86232
 20
117.01932
 30
0.0
 11
69.21144
 21
115.99026
 31
0.0
  0
LINE
  5
52
  8
TEAM-DET3
 10
89.01978
 20
114.02402
 30
0.0
 11
69.3689
 21
112.99374
 31
0.0
  0
ARC
  5
53
  8
TEAM-DET3
 10
69.63014
 20
108.00106
 30
0.0
 40
8.0
 50
93.000031
 51
141.09613
  0
ARC
  5
54
  8
TEAM-DET3
 10
69.63014
 20
108.00106
 30
0.0
 40
10.75
 50
93.00074
 51
141.094543
  0
ARC
  5
55
  8
TEAM-DET3
 10
69.63014
 20
108.00106
 30
0.0
 40
4.99998
 50
99.131165
 51
141.090042
  0
ARC
  5
56
  8
TEAM-DET3
 10
89.28102
 20
109.03012
 30
0.0
 40
5.00008
 50
21.767641
 51
92.994774
  0
ARC
  5
57
  8
TEAM-DET3
 10
89.28102
 20
109.03012
 30
0.0
 40
8.0
 50
13.194468
 51
93.000031
  0
ARC
  5
58
  8
TEAM-DET3
 10
89.28102
 20
109.03012
 30
0.0
 40
10.75
 50
18.224586
 51
93.00074
  0
ARC
  5
59
  8
TEAM-DET3
 10
101.35376
 20
113.8519
 30
0.0
 40
8.0
 50
201.773804
 51
257.450317
  0
LINE
  5
5A
  8
TEAM-AXE
 10
191.77368
 20
4.91196
 30
0.0
 11
191.77368
 21
72.91244
 31
0.0
  0
LINE
  5
5D
  8
TEAM-DET3
 10
196.02356
 20
32.91274
 30
0.0
 11
196.02296
 21
18.00094
 31
0.0
  0
LINE
  5
5E
  8
TEAM-DET3
 10
187.5232
 20
18.00094
 30
0.0
 11
187.5238
 21
32.91244
 31
0.0
  0
LINE
  5
5F
  8
TEAM-DET3
 10
187.5232
 20
82.6622
 30
0.0
 11
187.5232
 21
40.91294
 31
0.0
  0
LINE
  5
60
  8
TEAM-DET3
 10
196.02418
 20
82.6622
 30
0.0
 11
196.02296
 21
40.91294
 31
0.0
  0
LINE
  5
61
  8
TEAM-DET3
 10
187.5232
 20
18.00094
 30
0.0
 11
186.77368
 21
14.0007
 31
0.0
  0
LINE
  5
62
  8
TEAM-DET3
 10
196.02296
 20
18.00094
 30
0.0
 11
196.77368
 21
14.0007
 31
0.0
  0
LINE
  5
63
  8
TEAM-DET3
 10
192.10632
 20
10.80124
 30
0.0
 11
186.77368
 21
14.0007
 31
0.0
  0
LINE
  5
64
  8
TEAM-DET3
 10
196.77368
 20
14.0007
 30
0.0
 11
191.44104
 21
10.80124
 31
0.0
  0
ARC
  5
65
  8
TEAM-DET3
 10
178.47412
 20
38.66196
 30
0.0
 40
5.75002
 50
190.001297
 51
270.0
  0
ARC
  5
66
  8
TEAM-DET3
 10
205.07324
 20
38.66196
 30
0.0
 40
5.75002
 50
270.0
 51
357.006378
  0
LINE
  5
67
  8
TEAM-DET3
 10
196.7749
 20
32.91244
 30
0.0
 11
196.77368
 21
10.80124
 31
0.0
  0
LINE
  5
68
  8
TEAM-DET3
 10
186.77368
 20
40.91294
 30
0.0
 11
186.77368
 21
81.91268
 31
0.0
  0
LINE
  5
69
  8
TEAM-DET3
 10
180.36134
 20
40.91294
 30
0.0
 11
176.54542
 21
36.3646
 31
0.0
  0
LINE
  5
6A
  8
TEAM-DET3
 10
202.93824
 20
40.91294
 30
0.0
 11
207.13868
 21
36.48666
 31
0.0
  0
LINE
  5
6B
  8
TEAM-DET3
 10
180.36134
 20
40.91294
 30
0.0
 11
202.93824
 21
40.91294
 31
0.0
  0
LINE
  5
6C
  8
TEAM-DET3
 10
186.77368
 20
10.80124
 30
0.0
 11
186.7749
 21
32.91244
 31
0.0
  0
LINE
  5
6D
  8
TEAM-DET3
 10
207.12464
 20
0.00046
 30
0.0
 11
176.42396
 21
0.00016
 31
0.0
  0
LINE
  5
6E
  8
TEAM-DET3
 10
196.77368
 20
81.91268
 30
0.0
 11
196.77368
 21
40.91294
 31
0.0
  0
LINE
  5
6F
  8
TEAM-DET3
 10
196.77368
 20
81.91268
 30
0.0
 11
186.77368
 21
81.91268
 31
0.0
  0
LINE
  5
70
  8
TEAM-DET3
 10
195.77394
 20
82.91244
 30
0.0
 11
187.77344
 21
82.91244
 31
0.0
  0
LINE
  5
71
  8
TEAM-DET3
 10
207.12402
 20
10.80124
 30
0.0
 11
176.42334
 21
10.80124
 31
0.0
  0
LINE
  5
72
  8
TEAM-DET3
 10
186.77368
 20
14.0007
 30
0.0
 11
196.77368
 21
14.0007
 31
0.0
  0
LINE
  5
73
  8
TEAM-DET3
 10
207.12402
 20
10.80124
 30
0.0
 11
207.12464
 21
0.00046
 31
0.0
  0
LINE
  5
74
  8
TEAM-DET3
 10
176.42334
 20
10.80124
 30
0.0
 11
176.42396
 21
0.00016
 31
0.0
  0
LINE
  5
75
  8
TEAM-DET3
 10
205.07324
 20
32.91244
 30
0.0
 11
178.47412
 21
32.91244
 31
0.0
  0
LINE
  5
76
  8
TEAM-DET3
 10
231.4673
 20
168.75454
 30
0.0
 11
228.71216
 21
173.51498
 31
0.0
  0
LINE
  5
77
  8
TEAM-DET3
 10
187.73132
 20
133.1213
 30
0.0
 11
180.11292
 21
129.35056
 31
0.0
  0
LINE
  5
78
  8
TEAM-DET3
 10
167.90222
 20
125.53708
 30
0.0
 11
186.84388
 21
134.9139
 31
0.0
  0
LINE
  5
79
  8
TEAM-DET3
 10
185.32654
 20
135.61276
 30
0.0
 11
190.29968
 21
138.07492
 31
0.0
  0
LINE
  5
7A
  8
TEAM-DET3
 10
184.38782
 20
135.93014
 30
0.0
 11
189.98962
 21
138.70236
 31
0.0
  0
LINE
  5
7B
  8
TEAM-DET3
 10
184.0979
 20
136.5176
 30
0.0
 11
185.27528
 21
134.13816
 31
0.0
  0
LINE
  5
7C
  8
TEAM-DET3
 10
179.65942
 20
134.21384
 30
0.0
 11
180.79408
 21
131.91892
 31
0.0
  0
LINE
  5
7D
  8
TEAM-DET3
 10
217.90406
 20
146.59604
 30
0.0
 11
210.81544
 21
38.36166
 31
0.0
  0
LINE
  5
7E
  8
TEAM-DET3
 10
172.8119
 20
37.66342
 30
0.0
 11
157.1875
 21
99.27304
 31
0.0
  0
LINE
  5
7F
  8
TEAM-DET3
 10
180.36134
 20
40.91294
 30
0.0
 11
165.47608
 21
98.33218
 31
0.0
  0
LINE
  5
80
  8
TEAM-DET3
 10
215.15748
 20
146.74008
 30
0.0
 11
214.4629
 21
133.48934
 31
0.0
  0
LINE
  5
81
  8
TEAM-DET3
 10
104.66798
 20
108.2922
 30
0.0
 11
158.2959
 21
104.91268
 31
0.0
  0
LINE
  5
82
  8
TEAM-DET3
 10
144.81324
 20
100.57064
 30
0.0
 11
106.59912
 21
102.6019
 31
0.0
  0
LINE
  5
83
  8
TEAM-DET3
 10
209.45314
 20
138.2269
 30
0.0
 11
202.93824
 21
40.91294
 31
0.0
  0
LINE
  5
84
  8
TEAM-DET3
 10
166.27992
 20
126.9653
 30
0.0
 11
179.90662
 21
133.71212
 31
0.0
  0
LINE
  5
85
  8
TEAM-DET3
 10
143.3728
 20
108.32578
 30
0.0
 11
135.90088
 21
108.97884
 31
0.0
  0
LINE
  5
86
  8
TEAM-DET3
 10
144.3213
 20
106.83774
 30
0.0
 11
133.5376
 21
107.78134
 31
0.0
  0
LINE
  5
87
  8
TEAM-DET3
 10
215.15748
 20
146.74008
 30
0.0
 11
212.4109
 21
146.8829
 31
0.0
  0
LINE
  5
88
  8
TEAM-DET3
 10
207.39258
 20
98.91294
 30
0.0
 11
165.35156
 21
98.91294
 31
0.0
  0
LINE
  5
89
  8
TEAM-DET3
 10
193.77442
 20
98.91294
 30
0.0
 11
193.77442
 21
96.16268
 31
0.0
  0
LINE
  5
8A
  8
TEAM-DET3
 10
179.77418
 20
101.66318
 30
0.0
 11
179.77418
 21
98.91294
 31
0.0
  0
LINE
  5
8B
  8
TEAM-DET3
 10
207.53784
 20
101.66318
 30
0.0
 11
179.77418
 21
101.66318
 31
0.0
  0
LINE
  5
8C
  8
TEAM-DET3
 10
193.77442
 20
96.16268
 30
0.0
 11
165.85938
 21
96.16268
 31
0.0
  0
LINE
  5
8D
  8
TEAM-DET3
 10
157.23512
 20
96.61924
 30
0.0
 11
151.2915
 21
102.06722
 31
0.0
  0
LINE
  5
8E
  8
TEAM-DET3
 10
217.20948
 20
133.3453
 30
0.0
 11
214.4629
 21
133.48934
 31
0.0
  0
LINE
  5
8F
  8
TEAM-DET3
 10
149.36036
 20
108.8644
 30
0.0
 11
162.96388
 21
124.41648
 31
0.0
  0
LINE
  5
90
  8
TEAM-DET3
 10
163.4906
 20
123.95566
 30
0.0
 11
149.8871
 21
108.4036
 31
0.0
  0
ARC
  5
91
  8
TEAM-DET3
 10
245.11598
 20
145.16904
 30
0.0
 40
30.0
 50
120.059204
 51
176.998108
  0
ARC
  5
92
  8
TEAM-DET3
 10
245.11598
 20
145.16904
 30
0.0
 40
27.25002
 50
120.057503
 51
176.998138
  0
ARC
  5
93
  8
TEAM-DET3
 10
153.2483
 20
98.57846
 30
0.0
 40
4.0
 50
9.999877
 51
120.570152
  0
ARC
  5
94
  8
TEAM-DET3
 10
144.84376
 20
112.8143
 30
0.0
 40
6.0
 50
265.004517
 51
318.829407
  0
ARC
  5
95
  8
TEAM-DET3
 10
144.84376
 20
112.8143
 30
0.0
 40
6.69984
 50
265.003784
 51
318.828308
  0
ARC
  5
96
  8
TEAM-DET3
 10
245.11598
 20
145.16904
 30
0.0
 40
32.75012
 50
120.057968
 51
177.000214
  0
ARC
  5
97
  8
TEAM-DET3
 10
219.4397
 20
137.70322
 30
0.0
 40
10.0
 50
115.35524
 51
176.998047
  0
ARC
  5
98
  8
TEAM-DET3
 10
171.01746
 20
117.3718
 30
0.0
 40
10.0
 50
116.282761
 51
138.823273
  0
ARC
  5
99
  8
TEAM-DET3
 10
171.01746
 20
117.3718
 30
0.0
 40
10.70006
 50
116.283684
 51
138.822983
  0
ARC
  5
9A
  8
TEAM-DET3
 10
157.59766
 20
96.94272
 30
0.0
 40
8.0
 50
10.002029
 51
84.992958
  0
ARC
  5
9B
  8
TEAM-DET3
 10
145.74952
 20
111.27988
 30
0.0
 40
10.75002
 50
265.003326
 51
300.552307
  0
LINE
  5
9C
  8
TEAM-DET3
 10
180.19226
 20
138.77072
 30
0.0
 11
184.18274
 21
130.71042
 31
0.0
  0
LINE
  5
9D
  8
TEAM-HIDE
 10
207.12464
 20
0.00046
 30
0.0
 11
375.00062
 21
0.00076
 31
0.0
  0
TEXT
  5
A0
  8
TEAM-TXT
 10
-273.647445
 20
521.991315
 30
0.0
 40
30.0
  1
team 111506
 41
0.7
 51
15.0
  7
TEAM
  0
LINE
  5
A3
  8
TEAM-DET1
 10
-359.0
 20
545.0
 30
0.0
 11
-302.148818
 21
545.0
 31
0.0
  0
CIRCLE
  5
A4
  8
TEAM-INSP
 10
0.0
 20
0.0
 30
0.0
 40
10.0
  0
LINE
  5
A6
  8
TEAM-DET3
 10
55.5713
 20
106.81576
 30
0.0
 11
30.98542
 21
108.96664
 31
0.0
  0
LINE
  5
A7
  8
TEAM-DET3
 10
30.00032
 20
101.01742
 30
0.0
 11
30.00032
 21
95.01766
 31
0.0
  0
ARC
  5
A8
  8
TEAM-DET3
 10
25.41658
 20
105.75132
 30
0.0
 40
6.43004
 50
353.437592
 51
58.209358
  0
ARC
  5
A9
  8
TEAM-DET3
 10
25.41658
 20
90.28256
 30
0.0
 40
6.43004
 50
301.790649
 51
6.562411
  0
LINE
  5
AA
  8
TEAM-DET3
 10
-14.45342
 20
109.96396
 30
0.0
 11
-14.45404
 21
101.01742
 31
0.0
  0
LINE
  5
AB
  8
TEAM-DET3
 10
-17.20428
 20
92.01718
 30
0.0
 11
-17.20428
 21
109.96396
 31
0.0
  0
LINE
  5
AC
  8
TEAM-DET3
 10
-14.45404
 20
101.5167
 30
0.0
 11
-17.20428
 21
101.5167
 31
0.0
  0
LINE
  5
AD
  8
TEAM-DET3
 10
-14.45404
 20
94.51718
 30
0.0
 11
-17.20428
 21
94.51718
 31
0.0
  0
LINE
  5
AE
  8
TEAM-DET3
 10
-17.20428
 20
92.01718
 30
0.0
 11
-14.45404
 21
92.01718
 31
0.0
  0
LINE
  5
AF
  8
TEAM-DET3
 10
-18.8034
 20
104.0167
 30
0.0
 11
-18.8034
 21
92.01718
 31
0.0
  0
LINE
  5
B0
  8
TEAM-DET3
 10
-23.8034
 20
102.01718
 30
0.0
 11
-23.8034
 21
94.0167
 31
0.0
  0
LINE
  5
B1
  8
TEAM-DET3
 10
-31.80388
 20
105.01644
 30
0.0
 11
-23.8034
 21
102.01718
 31
0.0
  0
LINE
  5
B2
  8
TEAM-DET3
 10
-28.8034
 20
111.2167
 30
0.0
 11
-18.8034
 21
104.0167
 31
0.0
  0
LINE
  5
B3
  8
TEAM-DET3
 10
-23.8034
 20
102.01718
 30
0.0
 11
-18.8034
 21
104.0167
 31
0.0
  0
LINE
  5
B4
  8
TEAM-DET3
 10
-23.8034
 20
94.0167
 30
0.0
 11
-18.8034
 21
92.01718
 31
0.0
  0
LINE
  5
B5
  8
TEAM-DET3
 10
-31.80388
 20
91.01742
 30
0.0
 11
-23.8034
 21
94.0167
 31
0.0
  0
LINE
  5
B6
  8
TEAM-DET3
 10
-28.8034
 20
84.81748
 30
0.0
 11
-18.8034
 21
92.01718
 31
0.0
  0
LINE
  5
B7
  8
TEAM-DET3
 10
-30.0003
 20
101.01742
 30
0.0
 11
-23.8034
 21
101.01742
 31
0.0
  0
LINE
  5
B8
  8
TEAM-DET3
 10
-29.99968
 20
95.01766
 30
0.0
 11
-23.8034
 21
95.01644
 31
0.0
  0
LINE
  5
B9
  8
TEAM-DET3
 10
-18.20404
 20
104.26694
 30
0.0
 11
-18.20404
 21
91.76694
 31
0.0
  0
LINE
  5
BA
  8
TEAM-DET3
 10
-14.45404
 20
95.01644
 30
0.0
 11
-14.45404
 21
92.01718
 31
0.0
  0
LINE
  5
BB
  8
TEAM-DET3
 10
-55.83342
 20
109.80404
 30
0.0
 11
-20.41106
 21
112.9028
 31
0.0
  0
LINE
  5
BC
  8
TEAM-DET3
 10
-56.07268
 20
112.5433
 30
0.0
 11
-20.65032
 21
115.64236
 31
0.0
  0
LINE
  5
BD
  8
TEAM-DET3
 10
-55.57098
 20
106.81576
 30
0.0
 11
-30.9848
 21
108.96664
 31
0.0
  0
LINE
  5
BE
  8
TEAM-DET3
 10
-26.25336
 20
109.38046
 30
0.0
 11
-17.2116
 21
110.17148
 31
0.0
  0
LINE
  5
BF
  8
TEAM-DET3
 10
-88.71764
 20
119.76528
 30
0.0
 11
-69.06676
 21
118.73624
 31
0.0
  0
LINE
  5
C0
  8
TEAM-DET3
 10
-88.86168
 20
117.01932
 30
0.0
 11
-69.21082
 21
115.99026
 31
0.0
  0
LINE
  5
C1
  8
TEAM-DET3
 10
-89.01916
 20
114.02402
 30
0.0
 11
-69.36828
 21
112.99374
 31
0.0
  0
LINE
  5
C2
  8
TEAM-DET3
 10
14.45404
 20
109.96396
 30
0.0
 11
14.45466
 21
101.01742
 31
0.0
  0
LINE
  5
C3
  8
TEAM-DET3
 10
17.2049
 20
92.01718
 30
0.0
 11
17.2049
 21
109.96396
 31
0.0
  0
LINE
  5
C4
  8
TEAM-DET3
 10
14.45466
 20
101.5167
 30
0.0
 11
17.2049
 21
101.5167
 31
0.0
  0
LINE
  5
C5
  8
TEAM-DET3
 10
14.45466
 20
94.51718
 30
0.0
 11
17.2049
 21
94.51718
 31
0.0
  0
LINE
  5
C6
  8
TEAM-DET3
 10
17.2049
 20
92.01718
 30
0.0
 11
14.45466
 21
92.01718
 31
0.0
  0
LINE
  5
C7
  8
TEAM-DET3
 10
18.80402
 20
104.0167
 30
0.0
 11
18.80402
 21
92.01718
 31
0.0
  0
LINE
  5
C8
  8
TEAM-DET3
 10
23.80402
 20
102.01718
 30
0.0
 11
23.80402
 21
94.0167
 31
0.0
  0
LINE
  5
C9
  8
TEAM-DET3
 10
23.80402
 20
102.01718
 30
0.0
 11
18.80402
 21
104.0167
 31
0.0
  0
LINE
  5
CA
  8
TEAM-DET3
 10
23.80402
 20
94.0167
 30
0.0
 11
18.80402
 21
92.01718
 31
0.0
  0
LINE
  5
CB
  8
TEAM-DET3
 10
18.20466
 20
104.26694
 30
0.0
 11
18.20466
 21
91.76694
 31
0.0
  0
LINE
  5
CC
  8
TEAM-DET3
 10
17.2049
 20
95.01644
 30
0.0
 11
-17.20428
 21
95.01644
 31
0.0
  0
LINE
  5
CD
  8
TEAM-DET3
 10
17.2049
 20
101.01742
 30
0.0
 11
-17.20428
 21
101.01742
 31
0.0
  0
LINE
  5
CE
  8
TEAM-DET3
 10
14.45466
 20
95.01644
 30
0.0
 11
14.45466
 21
92.01718
 31
0.0
  0
LINE
  5
CF
  8
TEAM-DET3
 10
26.25398
 20
109.38046
 30
0.0
 11
17.21222
 21
110.17148
 31
0.0
  0
LINE
  5
D0
  8
TEAM-DET3
 10
-30.0003
 20
101.01742
 30
0.0
 11
-29.99968
 21
95.01766
 31
0.0
  0
ARC
  5
D1
  8
TEAM-DET3
 10
-20.1535
 20
109.96396
 30
0.0
 40
5.7
 50
0.0
 51
95.000305
  0
ARC
  5
D2
  8
TEAM-DET3
 10
-25.41594
 20
105.75132
 30
0.0
 40
6.43004
 50
121.790627
 51
186.562393
  0
ARC
  5
D3
  8
TEAM-DET3
 10
-25.41594
 20
90.28256
 30
0.0
 40
6.43004
 50
173.437576
 51
238.209351
  0
ARC
  5
D4
  8
TEAM-DET3
 10
-20.1535
 20
109.96396
 30
0.0
 40
2.95
 50
0.0
 51
95.008759
  0
ARC
  5
D5
  8
TEAM-DET3
 10
-105.18982
 20
114.26938
 30
0.0
 40
6.0
 50
274.995483
 51
341.765045
  0
ARC
  5
D6
  8
TEAM-DET3
 10
-56.59514
 20
118.51986
 30
0.0
 40
11.75004
 50
218.902206
 51
275.000397
  0
ARC
  5
D7
  8
TEAM-DET3
 10
-56.59514
 20
118.51986
 30
0.0
 40
6.0
 50
218.896927
 51
274.995483
  0
ARC
  5
D8
  8
TEAM-DET3
 10
-56.59514
 20
118.51986
 30
0.0
 40
8.75
 50
218.901062
 51
274.994141
  0
ARC
  5
D9
  8
TEAM-DET3
 10
-69.62952
 20
108.00106
 30
0.0
 40
8.0
 50
38.90694
 51
86.999962
  0
ARC
  5
DA
  8
TEAM-DET3
 10
-89.2804
 20
109.03012
 30
0.0
 40
8.0
 50
86.999962
 51
166.807159
  0
ARC
  5
DB
  8
TEAM-DET3
 10
-69.62952
 20
108.00106
 30
0.0
 40
10.75
 50
38.908752
 51
86.999268
  0
ARC
  5
DC
  8
TEAM-DET3
 10
-89.2804
 20
109.03012
 30
0.0
 40
10.75
 50
86.999268
 51
161.776443
  0
ARC
  5
DD
  8
TEAM-DET3
 10
-69.62952
 20
108.00106
 30
0.0
 40
4.99998
 50
38.907764
 51
80.868835
  0
ARC
  5
DE
  8
TEAM-DET3
 10
-89.2804
 20
109.03012
 30
0.0
 40
5.00008
 50
87.005226
 51
158.232346
  0
ARC
  5
DF
  8
TEAM-DET3
 10
-107.53478
 20
113.31112
 30
0.0
 40
10.75002
 50
274.99649
 51
346.797729
  0
ARC
  5
E0
  8
TEAM-DET3
 10
-101.35314
 20
113.8519
 30
0.0
 40
8.0
 50
282.549683
 51
338.226166
  0
ARC
  5
E1
  8
TEAM-DET3
 10
20.15412
 20
109.96396
 30
0.0
 40
5.7
 50
84.999695
 51
180.0
  0
ARC
  5
E2
  8
TEAM-DET3
 10
20.15412
 20
109.96396
 30
0.0
 40
2.95
 50
84.991234
 51
180.0
  0
LINE
  5
E3
  8
TEAM-DET3
 10
-30.0003
 20
100.51724
 30
0.0
 11
-23.8034
 21
100.51694
 31
0.0
  0
LINE
  5
E4
  8
TEAM-DET3
 10
-29.99968
 20
95.51724
 30
0.0
 11
-23.8034
 21
95.51694
 31
0.0
  0
LINE
  5
E5
  8
TEAM-DET3
 10
17.2049
 20
95.51694
 30
0.0
 11
-17.20428
 21
95.51694
 31
0.0
  0
LINE
  5
E6
  8
TEAM-DET3
 10
17.2049
 20
100.51694
 30
0.0
 11
-17.20428
 21
100.51694
 31
0.0
  0
LINE
  5
E7
  8
TEAM-AXE
 10
41.983013
 20
98.01786
 30
0.0
 11
-42.864933
 21
98.01754
 31
0.0
  0
LINE
  5
E8
  8
TEAM-DET3
 10
55.83374
 20
109.80404
 30
0.0
 11
20.41168
 21
112.9028
 31
0.0
  0
LINE
  5
E9
  8
TEAM-DET3
 10
56.073
 20
112.5433
 30
0.0
 11
20.65094
 21
115.64236
 31
0.0
  0
LINE
  5
EA
  8
TEAM-DET3
 10
31.8045
 20
105.01644
 30
0.0
 11
23.80402
 21
102.01718
 31
0.0
  0
LINE
  5
EB
  8
TEAM-DET3
 10
28.80402
 20
111.2167
 30
0.0
 11
18.80402
 21
104.0167
 31
0.0
  0
LINE
  5
EC
  8
TEAM-DET3
 10
31.8045
 20
91.01742
 30
0.0
 11
23.80402
 21
94.0167
 31
0.0
  0
LINE
  5
ED
  8
TEAM-DET3
 10
28.80402
 20
84.81748
 30
0.0
 11
18.80402
 21
92.01718
 31
0.0
  0
LINE
  5
EE
  8
TEAM-DET3
 10
30.00032
 20
101.01742
 30
0.0
 11
23.80402
 21
101.01742
 31
0.0
  0
LINE
  5
EF
  8
TEAM-DET3
 10
30.00032
 20
95.01766
 30
0.0
 11
23.80402
 21
95.01644
 31
0.0
  0
LINE
  5
F0
  8
TEAM-DET3
 10
30.00032
 20
100.51724
 30
0.0
 11
23.80402
 21
100.51694
 31
0.0
  0
LINE
  5
F1
  8
TEAM-DET3
 10
30.00032
 20
95.51724
 30
0.0
 11
23.80402
 21
95.51694
 31
0.0
  0
LINE
  5
F2
  8
TEAM-KAN
 10
-25.0
 20
125.0
 30
0.0
 11
25.0
 21
125.0
 31
0.0
  0
LINE
  5
F4
  8
TEAM-AXE
 10
-191.77306
 20
4.91196
 30
0.0
 11
-191.77306
 21
72.91244
 31
0.0
  0
LINE
  5
F5
  8
TEAM-HIDE
 10
-374.99938
 20
-0.00046
 30
0.0
 11
-207.1234
 21
-0.00016
 31
0.0
  0
LINE
  5
F6
  8
TEAM-DET3
 10
-187.52258
 20
82.6622
 30
0.0
 11
-187.52258
 21
40.91294
 31
0.0
  0
LINE
  5
F7
  8
TEAM-DET3
 10
-196.02356
 20
82.6622
 30
0.0
 11
-196.02234
 21
40.91294
 31
0.0
  0
LINE
  5
F8
  8
TEAM-DET3
 10
-187.52258
 20
18.00034
 30
0.0
 11
-186.77306
 21
14.0001
 31
0.0
  0
LINE
  5
F9
  8
TEAM-DET3
 10
-196.02234
 20
18.00034
 30
0.0
 11
-196.77306
 21
14.0001
 31
0.0
  0
LINE
  5
FA
  8
TEAM-DET3
 10
-192.1057
 20
10.80062
 30
0.0
 11
-186.77306
 21
14.0001
 31
0.0
  0
LINE
  5
FB
  8
TEAM-DET3
 10
-196.77306
 20
14.0001
 30
0.0
 11
-191.44042
 21
10.80062
 31
0.0
  0
ARC
  5
FC
  8
TEAM-DET3
 10
-178.4735
 20
38.66196
 30
0.0
 40
5.75002
 50
270.0
 51
349.999237
  0
ARC
  5
FD
  8
TEAM-DET3
 10
-205.07262
 20
38.66196
 30
0.0
 40
5.75002
 50
182.993607
 51
270.0
  0
LINE
  5
FE
  8
TEAM-DET3
 10
-186.77306
 20
40.91294
 30
0.0
 11
-186.77306
 21
81.91268
 31
0.0
  0
LINE
  5
FF
  8
TEAM-DET3
 10
-196.7749
 20
32.91244
 30
0.0
 11
-196.77306
 21
15.71274
 31
0.0
  0
LINE
  5
100
  8
TEAM-DET3
 10
-180.36072
 20
40.91294
 30
0.0
 11
-176.5448
 21
36.3646
 31
0.0
  0
LINE
  5
101
  8
TEAM-DET3
 10
-202.93762
 20
40.91294
 30
0.0
 11
-207.13806
 21
36.48666
 31
0.0
  0
LINE
  5
102
  8
TEAM-DET3
 10
-180.36072
 20
40.91294
 30
0.0
 11
-202.93762
 21
40.91294
 31
0.0
  0
LINE
  5
103
  8
TEAM-DET3
 10
-186.77306
 20
15.71274
 30
0.0
 11
-186.7749
 21
32.91244
 31
0.0
  0
LINE
  5
104
  8
TEAM-DET3
 10
-207.1234
 20
-0.00016
 30
0.0
 11
-176.42272
 21
-0.00016
 31
0.0
  0
LINE
  5
105
  8
TEAM-DET3
 10
-196.77306
 20
81.91268
 30
0.0
 11
-196.77306
 21
40.91294
 31
0.0
  0
LINE
  5
106
  8
TEAM-DET3
 10
-196.77306
 20
81.91268
 30
0.0
 11
-186.77306
 21
81.91268
 31
0.0
  0
LINE
  5
107
  8
TEAM-DET3
 10
-195.77332
 20
82.91244
 30
0.0
 11
-187.77282
 21
82.91244
 31
0.0
  0
LINE
  5
108
  8
TEAM-DET3
 10
-207.1234
 20
10.80062
 30
0.0
 11
-176.42272
 21
10.80062
 31
0.0
  0
LINE
  5
109
  8
TEAM-DET3
 10
-186.77306
 20
14.0001
 30
0.0
 11
-196.77306
 21
14.0001
 31
0.0
  0
LINE
  5
10A
  8
TEAM-DET3
 10
-207.1234
 20
10.80062
 30
0.0
 11
-207.1234
 21
-0.00016
 31
0.0
  0
LINE
  5
10B
  8
TEAM-DET3
 10
-176.42272
 20
10.80062
 30
0.0
 11
-176.42272
 21
-0.00016
 31
0.0
  0
LINE
  5
10C
  8
TEAM-DET3
 10
-205.07262
 20
32.91244
 30
0.0
 11
-178.4735
 21
32.91244
 31
0.0
  0
LINE
  5
10D
  8
TEAM-DET3
 10
-104.66736
 20
108.2922
 30
0.0
 11
-158.29528
 21
104.91268
 31
0.0
  0
LINE
  5
10E
  8
TEAM-DET3
 10
-144.81262
 20
100.57064
 30
0.0
 11
-106.5985
 21
102.6019
 31
0.0
  0
LINE
  5
10F
  8
TEAM-DET3
 10
-143.37218
 20
108.32578
 30
0.0
 11
-135.90026
 21
108.97884
 31
0.0
  0
LINE
  5
110
  8
TEAM-DET3
 10
-144.32068
 20
106.83774
 30
0.0
 11
-133.53698
 21
107.78134
 31
0.0
  0
LINE
  5
111
  8
TEAM-DET3
 10
-172.81096
 20
37.66342
 30
0.0
 11
-157.18688
 21
99.27304
 31
0.0
  0
LINE
  5
112
  8
TEAM-DET3
 10
-162.96264
 20
124.41616
 30
0.0
 11
-149.35944
 21
108.8641
 31
0.0
  0
LINE
  5
113
  8
TEAM-DET3
 10
-163.48938
 20
123.95536
 30
0.0
 11
-149.88616
 21
108.40328
 31
0.0
  0
ARC
  5
114
  8
TEAM-DET3
 10
-157.59704
 20
96.94272
 30
0.0
 40
8.0
 50
95.007225
 51
165.745361
  0
LINE
  5
115
  8
TEAM-DET3
 10
-231.46666
 20
168.75454
 30
0.0
 11
-228.71154
 21
173.51498
 31
0.0
  0
LINE
  5
116
  8
TEAM-DET3
 10
-217.90282
 20
146.59604
 30
0.0
 11
-210.81482
 21
38.36166
 31
0.0
  0
LINE
  5
117
  8
TEAM-DET3
 10
-180.36072
 20
40.91294
 30
0.0
 11
-165.47606
 21
98.33188
 31
0.0
  0
LINE
  5
118
  8
TEAM-DET3
 10
-215.15686
 20
146.74008
 30
0.0
 11
-214.46228
 21
133.48934
 31
0.0
  0
LINE
  5
119
  8
TEAM-DET3
 10
-209.4525
 20
138.2269
 30
0.0
 11
-202.93762
 21
40.91294
 31
0.0
  0
LINE
  5
11A
  8
TEAM-DET3
 10
-215.15686
 20
146.74008
 30
0.0
 11
-212.41028
 21
146.8829
 31
0.0
  0
LINE
  5
11B
  8
TEAM-DET3
 10
-207.39196
 20
98.91294
 30
0.0
 11
-165.35094
 21
98.91262
 31
0.0
  0
LINE
  5
11C
  8
TEAM-DET3
 10
-193.7738
 20
98.91294
 30
0.0
 11
-193.7738
 21
96.16268
 31
0.0
  0
LINE
  5
11D
  8
TEAM-DET3
 10
-179.77356
 20
101.66318
 30
0.0
 11
-179.77356
 21
98.91294
 31
0.0
  0
LINE
  5
11E
  8
TEAM-DET3
 10
-207.53722
 20
101.66318
 30
0.0
 11
-179.77356
 21
101.66318
 31
0.0
  0
LINE
  5
11F
  8
TEAM-DET3
 10
-193.7738
 20
96.16268
 30
0.0
 11
-165.85876
 21
96.16268
 31
0.0
  0
LINE
  5
120
  8
TEAM-DET3
 10
-217.20886
 20
133.3453
 30
0.0
 11
-214.46228
 21
133.48934
 31
0.0
  0
LINE
  5
121
  8
TEAM-DET3
 10
-187.7301
 20
133.121
 30
0.0
 11
-180.11168
 21
129.35024
 31
0.0
  0
LINE
  5
122
  8
TEAM-DET3
 10
-167.901
 20
125.53678
 30
0.0
 11
-186.84264
 21
134.9136
 31
0.0
  0
LINE
  5
123
  8
TEAM-DET3
 10
-185.32532
 20
135.61246
 30
0.0
 11
-190.29846
 21
138.07462
 31
0.0
  0
LINE
  5
124
  8
TEAM-DET3
 10
-184.3866
 20
135.92984
 30
0.0
 11
-189.9884
 21
138.70206
 31
0.0
  0
LINE
  5
125
  8
TEAM-DET3
 10
-184.09668
 20
136.5173
 30
0.0
 11
-185.27404
 21
134.13784
 31
0.0
  0
LINE
  5
126
  8
TEAM-DET3
 10
-179.6582
 20
134.21354
 30
0.0
 11
-180.79284
 21
131.9186
 31
0.0
  0
LINE
  5
127
  8
TEAM-DET3
 10
-166.27868
 20
126.965
 30
0.0
 11
-179.9054
 21
133.71182
 31
0.0
  0
ARC
  5
128
  8
TEAM-DET3
 10
-245.11536
 20
145.16904
 30
0.0
 40
30.0
 50
3.001882
 51
59.940788
  0
ARC
  5
129
  8
TEAM-DET3
 10
-245.11536
 20
145.16904
 30
0.0
 40
27.25002
 50
3.001793
 51
59.94249
  0
ARC
  5
12A
  8
TEAM-DET3
 10
-245.11536
 20
145.16904
 30
0.0
 40
32.75012
 50
2.999767
 51
59.94175
  0
ARC
  5
12B
  8
TEAM-DET3
 10
-219.43908
 20
137.70322
 30
0.0
 40
10.0
 50
3.001943
 51
64.64476
  0
ARC
  5
12C
  8
TEAM-DET3
 10
-171.01624
 20
117.37148
 30
0.0
 40
10.0
 50
41.176712
 51
63.720371
  0
ARC
  5
12D
  8
TEAM-DET3
 10
-171.01624
 20
117.37148
 30
0.0
 40
10.70006
 50
41.177006
 51
63.719959
  0
LINE
  5
12E
  8
TEAM-DET3
 10
-180.19104
 20
138.77042
 30
0.0
 11
-184.18152
 21
130.71012
 31
0.0
  0
LINE
  5
12F
  8
TEAM-DET3
 10
-157.2345
 20
96.61924
 30
0.0
 11
-151.29088
 21
102.06722
 31
0.0
  0
ARC
  5
130
  8
TEAM-DET3
 10
-153.24768
 20
98.57846
 30
0.0
 40
4.0
 50
59.429832
 51
170.000122
  0
ARC
  5
131
  8
TEAM-DET3
 10
-144.84314
 20
112.8143
 30
0.0
 40
6.0
 50
221.174683
 51
274.995483
  0
ARC
  5
132
  8
TEAM-DET3
 10
-144.84314
 20
112.8143
 30
0.0
 40
6.69984
 50
221.175369
 51
274.996216
  0
ARC
  5
133
  8
TEAM-DET3
 10
-145.7489
 20
111.27988
 30
0.0
 40
10.75002
 50
239.446289
 51
274.99649
  0
POLYLINE
  5
134
  8
TEAM-BODY
 66
     1
 10
0.0
 20
0.0
 30
0.0
  0
VERTEX
  5
28D
  8
TEAM-BODY
 10
-359.0
 20
545.0
 30
0.0
  0
VERTEX
  5
28E
  8
TEAM-BODY
 10
-367.0
 20
545.0
 30
0.0
 42
-0.414214
  0
VERTEX
  5
28F
  8
TEAM-BODY
 10
-375.0
 20
553.0
 30
0.0
  0
VERTEX
  5
290
  8
TEAM-BODY
 10
-375.0
 20
587.096929
 30
0.0
 42
-0.460626
  0
VERTEX
  5
291
  8
TEAM-BODY
 10
-365.758443
 20
595.0
 30
0.0
  0
VERTEX
  5
292
  8
TEAM-BODY
 10
-335.012765
 20
595.0
 30
0.0
 42
-0.256433
  0
VERTEX
  5
293
  8
TEAM-BODY
 10
-303.846705
 20
553.969018
 30
0.0
  0
VERTEX
  5
294
  8
TEAM-BODY
 10
-239.499626
 20
214.058253
 30
0.0
 42
0.375544
  0
VERTEX
  5
295
  8
TEAM-BODY
 10
-164.403606
 20
140.214054
 30
0.0
  0
VERTEX
  5
296
  8
TEAM-BODY
 10
-40.0
 20
130.0
 30
0.0
 42
-0.232609
  0
VERTEX
  5
297
  8
TEAM-BODY
 10
-35.0
 20
127.5
 30
0.0
 42
0.241952
  0
VERTEX
  5
298
  8
TEAM-BODY
 10
-30.0
 20
125.0
 30
0.0
  0
VERTEX
  5
299
  8
TEAM-BODY
 10
-25.0
 20
125.0
 30
0.0
  0
SEQEND
  5
29A
  8
TEAM-BODY
  0
LINE
  5
136
  8
TEAM-DET1
 10
-335.012765
 20
595.0
 30
0.0
 11
335.012765
 21
595.0
 31
0.0
  0
ARC
  5
137
  8
TEAM-DET3
 10
56.59546
 20
118.51986
 30
0.0
 40
11.75004
 50
264.999542
 51
321.098724
  0
ARC
  5
138
  8
TEAM-DET3
 10
56.59546
 20
118.51986
 30
0.0
 40
6.0
 50
265.004517
 51
321.102631
  0
ARC
  5
139
  8
TEAM-DET3
 10
56.59546
 20
118.51986
 30
0.0
 40
8.75
 50
265.005829
 51
321.098633
  0
POLYLINE
  5
13A
  8
TEAM-BODY
 66
     1
 10
0.0
 20
0.0
 30
0.0
  0
VERTEX
  5
29B
  8
TEAM-BODY
 10
359.0
 20
545.0
 30
0.0
  0
VERTEX
  5
29C
  8
TEAM-BODY
 10
367.0
 20
545.0
 30
0.0
 42
0.414214
  0
VERTEX
  5
29D
  8
TEAM-BODY
 10
375.0
 20
553.0
 30
0.0
  0
VERTEX
  5
29E
  8
TEAM-BODY
 10
375.0
 20
587.096929
 30
0.0
 42
0.460626
  0
VERTEX
  5
29F
  8
TEAM-BODY
 10
365.758443
 20
595.0
 30
0.0
  0
VERTEX
  5
2A0
  8
TEAM-BODY
 10
335.012765
 20
595.0
 30
0.0
 42
0.259574
  0
VERTEX
  5
2A1
  8
TEAM-BODY
 10
304.888633
 20
553.969018
 30
0.0
  0
VERTEX
  5
2A2
  8
TEAM-BODY
 10
239.499626
 20
214.058253
 30
0.0
 42
-0.375544
  0
VERTEX
  5
2A3
  8
TEAM-BODY
 10
164.403606
 20
140.214054
 30
0.0
  0
VERTEX
  5
2A4
  8
TEAM-BODY
 10
40.0
 20
130.0
 30
0.0
 42
0.232609
  0
VERTEX
  5
2A5
  8
TEAM-BODY
 10
35.0
 20
127.5
 30
0.0
 42
-0.241952
  0
VERTEX
  5
2A6
  8
TEAM-BODY
 10
30.0
 20
125.0
 30
0.0
  0
VERTEX
  5
2A7
  8
TEAM-BODY
 10
25.0
 20
125.0
 30
0.0
  0
SEQEND
  5
2A8
  8
TEAM-BODY
  0
LINE
  5
13B
  8
TEAM-HIDE
 10
-176.42272
 20
-0.00016
 30
0.0
 11
176.42396
 21
0.00016
 31
0.0
  0
ENDSEC
  0
EOF
