  0
SECTION
  2
HEADER
  9
$ACADVER
  1
AC1009
  9
$INSBASE
 10
0.0
 20
0.0
 30
0.0
  9
$EXTMIN
 10
-902.094208
 20
-10.048012
 30
0.0
  9
$EXTMAX
 10
944.900003
 20
643.139367
 30
0.0
  9
$LIMMIN
 10
-902.094208
 20
-10.048012
  9
$LIMMAX
 10
944.900003
 20
643.139367
  9
$ORTHOMODE
 70
     1
  9
$REGENMODE
 70
     1
  9
$FILLMODE
 70
     1
  9
$QTEXTMODE
 70
     0
  9
$MIRRTEXT
 70
     0
  9
$DRAGMODE
 70
     2
  9
$LTSCALE
 40
50.0
  9
$OSMODE
 70
     7
  9
$ATTMODE
 70
     1
  9
$TEXTSIZE
 40
200.0
  9
$TRACEWID
 40
1.0
  9
$TEXTSTYLE
  7
STANDARD
  9
$CLAYER
  8
TEAM-MAS
  9
$CELTYPE
  6
BYLAYER
  9
$CECOLOR
 62
   256
  9
$DIMSCALE
 40
0.0
  9
$DIMASZ
 40
20.0
  9
$DIMEXO
 40
10.0
  9
$DIMDLI
 40
1.0
  9
$DIMRND
 40
0.0
  9
$DIMDLE
 40
0.0
  9
$DIMEXE
 40
1.0
  9
$DIMTP
 40
0.0
  9
$DIMTM
 40
0.0
  9
$DIMTXT
 40
35.0
  9
$DIMCEN
 40
1.0
  9
$DIMTSZ
 40
0.0
  9
$DIMTOL
 70
     0
  9
$DIMLIM
 70
     0
  9
$DIMTIH
 70
     0
  9
$DIMTOH
 70
     0
  9
$DIMSE1
 70
     0
  9
$DIMSE2
 70
     0
  9
$DIMTAD
 70
     0
  9
$DIMZIN
 70
     0
  9
$DIMBLK
  1

  9
$DIMASO
 70
     1
  9
$DIMSHO
 70
     0
  9
$DIMPOST
  1

  9
$DIMAPOST
  1

  9
$DIMALT
 70
     0
  9
$DIMALTD
 70
     2
  9
$DIMALTF
 40
25.4
  9
$DIMLFAC
 40
1.0
  9
$DIMTOFL
 70
     0
  9
$DIMTVP
 40
0.0
  9
$DIMTIX
 70
     0
  9
$DIMSOXD
 70
     0
  9
$DIMSAH
 70
     0
  9
$DIMBLK1
  1

  9
$DIMBLK2
  1

  9
$DIMSTYLE
  2
TEAM
  9
$DIMCLRD
 70
     9
  9
$DIMCLRE
 70
     9
  9
$DIMCLRT
 70
    11
  9
$DIMTFAC
 40
1.0
  9
$DIMGAP
 40
7.0
  9
$LUNITS
 70
     2
  9
$LUPREC
 70
     1
  9
$SKETCHINC
 40
1.0
  9
$FILLETRAD
 40
10.0
  9
$AUNITS
 70
     0
  9
$AUPREC
 70
     0
  9
$MENU
  1
ROPLANS
  9
$ELEVATION
 40
0.0
  9
$PELEVATION
 40
0.0
  9
$THICKNESS
 40
0.0
  9
$LIMCHECK
 70
     0
  9
$BLIPMODE
 70
     1
  9
$CHAMFERA
 40
0.0
  9
$CHAMFERB
 40
0.0
  9
$SKPOLY
 70
     0
  9
$TDCREATE
 40
2450392.957851
  9
$TDUPDATE
 40
2455955.923321
  9
$TDINDWG
 40
2.217917
  9
$TDUSRTIMER
 40
2.217917
  9
$USRTIMER
 70
     1
  9
$ANGBASE
 50
0.0
  9
$ANGDIR
 70
     0
  9
$PDMODE
 70
     0
  9
$PDSIZE
 40
0.0
  9
$PLINEWID
 40
0.0
  9
$COORDS
 70
     2
  9
$SPLFRAME
 70
     0
  9
$SPLINETYPE
 70
     6
  9
$SPLINESEGS
 70
     8
  9
$ATTDIA
 70
     0
  9
$ATTREQ
 70
     0
  9
$HANDLING
 70
     1
  9
$HANDSEED
  5
1A3
  9
$SURFTAB1
 70
    24
  9
$SURFTAB2
 70
    24
  9
$SURFTYPE
 70
     6
  9
$SURFU
 70
     6
  9
$SURFV
 70
     6
  9
$UCSNAME
  2

  9
$UCSORG
 10
0.0
 20
0.0
 30
0.0
  9
$UCSXDIR
 10
1.0
 20
0.0
 30
0.0
  9
$UCSYDIR
 10
0.0
 20
1.0
 30
0.0
  9
$PUCSNAME
  2

  9
$PUCSORG
 10
0.0
 20
0.0
 30
0.0
  9
$PUCSXDIR
 10
1.0
 20
0.0
 30
0.0
  9
$PUCSYDIR
 10
0.0
 20
1.0
 30
0.0
  9
$USERI1
 70
     0
  9
$USERI2
 70
     0
  9
$USERI3
 70
     0
  9
$USERI4
 70
     0
  9
$USERI5
 70
     0
  9
$USERR1
 40
0.0
  9
$USERR2
 40
0.0
  9
$USERR3
 40
0.0
  9
$USERR4
 40
0.0
  9
$USERR5
 40
0.0
  9
$WORLDVIEW
 70
     1
  9
$SHADEDGE
 70
     0
  9
$SHADEDIF
 70
    70
  9
$TILEMODE
 70
     1
  9
$MAXACTVP
 70
    16
  9
$PLIMCHECK
 70
     0
  9
$PEXTMIN
 10
-0.805942
 20
0.005011
 30
0.0
  9
$PEXTMAX
 10
20.250094
 20
11.356329
 30
0.0
  9
$PLIMMIN
 10
0.0
 20
0.0
  9
$PLIMMAX
 10
12.0
 20
9.0
  9
$UNITMODE
 70
     0
  9
$VISRETAIN
 70
     0
  9
$PLINEGEN
 70
     0
  9
$PSLTSCALE
 70
     0
  0
ENDSEC
  0
SECTION
  2
TABLES
  0
TABLE
  2
VPORT
 70
     2
  0
VPORT
  2
*ACTIVE
 70
     0
 10
0.0
 20
0.0
 11
1.0
 21
1.0
 12
21.402897
 22
316.545677
 13
0.0
 23
0.0
 14
1.0
 24
1.0
 15
50.0
 25
50.0
 16
0.0
 26
0.0
 36
1.0
 17
0.0
 27
0.0
 37
0.0
 40
973.374428
 41
1.903766
 42
50.0
 43
0.0
 44
0.0
 50
0.0
 51
0.0
 71
     0
 72
   100
 73
     1
 74
     1
 75
     0
 76
     0
 77
     0
 78
     0
  0
ENDTAB
  0
TABLE
  2
LTYPE
 70
     3
  0
LTYPE
  2
CONTINUOUS
 70
     0
  3
Solid Line
 72
    65
 73
     0
 40
0.0
  0
LTYPE
  2
31
 70
     0
  3

 72
    65
 73
     4
 40
2.1
 49
1.5
 49
-0.3
 49
0.0
 49
-0.3
  0
LTYPE
  2
22
 70
     0
  3

 72
    65
 73
     2
 40
1.4
 49
1.2
 49
-0.2
  0
ENDTAB
  0
TABLE
  2
LAYER
 70
    11
  0
LAYER
  2
0
 70
     0
 62
     7
  6
CONTINUOUS
  0
LAYER
  2
DEFPOINTS
 70
     0
 62
     7
  6
CONTINUOUS
  0
LAYER
  2
TEAM-BODY
 70
     0
 62
     2
  6
CONTINUOUS
  0
LAYER
  2
TEAM-AXE
 70
     0
 62
    10
  6
31
  0
LAYER
  2
TEAM-MAS
 70
     0
 62
     9
  6
CONTINUOUS
  0
LAYER
  2
TEAM-TXT
 70
     0
 62
    11
  6
CONTINUOUS
  0
LAYER
  2
TEAM-DET1
 70
     0
 62
     4
  6
CONTINUOUS
  0
LAYER
  2
TEAM-HIDE
 70
     0
 62
     8
  6
22
  0
LAYER
  2
TEAM-KAN
 70
     0
 62
     6
  6
CONTINUOUS
  0
LAYER
  2
TEAM-DET3
 70
     0
 62
    14
  6
CONTINUOUS
  0
LAYER
  2
TEAM-INSP
 70
     0
 62
     5
  6
CONTINUOUS
  0
ENDTAB
  0
TABLE
  2
STYLE
 70
     2
  0
STYLE
  2
STANDARD
 70
     0
 40
0.0
 41
1.0
 50
0.0
 71
     0
 42
200.0
  3
txt
  4

  0
STYLE
  2
TEAM
 70
     0
 40
0.0
 41
0.8
 50
15.0
 71
     0
 42
7.0
  3
ROMANS.shx
  4

  0
ENDTAB
  0
TABLE
  2
VIEW
 70
     0
  0
ENDTAB
  0
TABLE
  2
UCS
 70
     0
  0
ENDTAB
  0
TABLE
  2
APPID
 70
     1
  0
APPID
  2
ACAD
 70
     0
  0
ENDTAB
  0
TABLE
  2
DIMSTYLE
 70
     1
  0
DIMSTYLE
  2
TEAM
 70
     0
  3

  4

  5

  6

  7

 40
0.0
 41
20.0
 42
10.0
 43
1.0
 44
1.0
 45
0.0
 46
0.0
 47
0.0
 48
0.0
140
35.0
141
1.0
142
0.0
143
25.4
144
1.0
145
0.0
146
1.0
147
7.0
 71
     0
 72
     0
 73
     0
 74
     0
 75
     0
 76
     0
 77
     0
 78
     0
170
     0
171
     2
172
     0
173
     0
174
     0
175
     0
176
     9
177
     9
178
    11
  0
ENDTAB
  0
ENDSEC
  0
SECTION
  2
BLOCKS
  0
BLOCK
  8
0
  2
$MODEL_SPACE
 70
     0
 10
0.0
 20
0.0
 30
0.0
  3
$MODEL_SPACE
  1

  0
ENDBLK
  5
19C
  8
0
  0
BLOCK
 67
     1
  8
0
  2
$PAPER_SPACE
 70
     0
 10
0.0
 20
0.0
 30
0.0
  3
$PAPER_SPACE
  1

  0
ENDBLK
  5
19A
 67
     1
  8
0
  0
BLOCK
  8
0
  2
*D0
 70
     1
 10
0.0
 20
0.0
 30
0.0
  3
*D0
  1

  0
LINE
  5
31
  8
0
  6
BYBLOCK
 62
     9
 10
12900.0
 20
28595.0
 30
0.0
 11
12928.364286
 21
28595.0
 31
0.0
  0
LINE
  5
32
  8
0
  6
BYBLOCK
 62
     9
 10
12036.0
 20
28125.0
 30
0.0
 11
12928.364286
 21
28125.0
 31
0.0
  0
LINE
  5
33
  8
0
  6
BYBLOCK
 62
     9
 10
12927.364286
 20
28575.0
 30
0.0
 11
12927.364286
 21
28410.75
 31
0.0
  0
LINE
  5
34
  8
0
  6
BYBLOCK
 62
     9
 10
12927.364286
 20
28145.0
 30
0.0
 11
12927.364286
 21
28309.25
 31
0.0
  0
SOLID
  5
35
  8
0
  6
BYBLOCK
 62
     9
 10
12924.030953
 20
28575.0
 30
0.0
 11
12930.69762
 21
28575.0
 31
0.0
 12
12927.364286
 22
28595.0
 32
0.0
 13
12927.364286
 23
28595.0
 33
0.0
  0
SOLID
  5
36
  8
0
  6
BYBLOCK
 62
     9
 10
12924.030953
 20
28145.0
 30
0.0
 11
12930.69762
 21
28145.0
 31
0.0
 12
12927.364286
 22
28125.0
 32
0.0
 13
12927.364286
 23
28125.0
 33
0.0
  0
TEXT
  5
37
  8
0
  6
BYBLOCK
 62
    11
 10
12944.864286
 20
28316.25
 30
0.0
 40
35.0
  1
470
 50
90.0
  0
POINT
  5
38
  8
DEFPOINTS
  6
BYBLOCK
 62
     0
 10
12890.0
 20
28595.0
 30
0.0
  0
POINT
  5
39
  8
DEFPOINTS
  6
BYBLOCK
 62
     0
 10
12026.0
 20
28125.0
 30
0.0
  0
POINT
  5
3A
  8
DEFPOINTS
  6
BYBLOCK
 62
     0
 10
12927.364286
 20
28125.0
 30
0.0
  0
ENDBLK
  5
3C
  8
0
  0
BLOCK
  8
0
  2
*D1
 70
     1
 10
0.0
 20
0.0
 30
0.0
  3
*D1
  1

  0
LINE
  5
22
  8
0
  6
BYBLOCK
 62
     9
 10
12900.0
 20
28595.0
 30
0.0
 11
12900.0
 21
28626.599442
 31
0.0
  0
LINE
  5
23
  8
0
  6
BYBLOCK
 62
     9
 10
11100.0
 20
28595.0
 30
0.0
 11
11100.0
 21
28626.599442
 31
0.0
  0
LINE
  5
24
  8
0
  6
BYBLOCK
 62
     9
 10
12880.0
 20
28625.599442
 30
0.0
 11
12059.5
 21
28625.599442
 31
0.0
  0
LINE
  5
25
  8
0
  6
BYBLOCK
 62
     9
 10
11120.0
 20
28625.599442
 30
0.0
 11
11940.5
 21
28625.599442
 31
0.0
  0
SOLID
  5
26
  8
0
  6
BYBLOCK
 62
     9
 10
12880.0
 20
28628.932775
 30
0.0
 11
12880.0
 21
28622.266109
 31
0.0
 12
12900.0
 22
28625.599442
 32
0.0
 13
12900.0
 23
28625.599442
 33
0.0
  0
SOLID
  5
27
  8
0
  6
BYBLOCK
 62
     9
 10
11120.0
 20
28628.932775
 30
0.0
 11
11120.0
 21
28622.266109
 31
0.0
 12
11100.0
 22
28625.599442
 32
0.0
 13
11100.0
 23
28625.599442
 33
0.0
  0
TEXT
  5
28
  8
0
  6
BYBLOCK
 62
    11
 10
11947.5
 20
28608.099442
 30
0.0
 40
35.0
  1
1800
  0
POINT
  5
29
  8
DEFPOINTS
  6
BYBLOCK
 62
     0
 10
12900.0
 20
28585.0
 30
0.0
  0
POINT
  5
2B
  8
DEFPOINTS
  6
BYBLOCK
 62
     0
 10
11100.0
 20
28585.0
 30
0.0
  0
POINT
  5
2C
  8
DEFPOINTS
  6
BYBLOCK
 62
     0
 10
11100.0
 20
28625.599442
 30
0.0
  0
ENDBLK
  5
2E
  8
0
  0
BLOCK
  8
0
  2
*D2
 70
     1
 10
0.0
 20
0.0
 30
0.0
  3
*D2
  1

  0
LINE
  5
4A
  8
0
  6
BYBLOCK
 62
     9
 10
12026.0
 20
28115.0
 30
0.0
 11
12026.0
 21
28079.784918
 31
0.0
  0
LINE
  5
4B
  8
0
  6
BYBLOCK
 62
     9
 10
11974.0
 20
28115.0
 30
0.0
 11
11974.0
 21
28079.784918
 31
0.0
  0
LINE
  5
4C
  8
0
  6
BYBLOCK
 62
     9
 10
12046.0
 20
28080.784918
 30
0.0
 11
12066.0
 21
28080.784918
 31
0.0
  0
LINE
  5
4D
  8
0
  6
BYBLOCK
 62
     9
 10
11954.0
 20
28080.784918
 30
0.0
 11
11934.0
 21
28080.784918
 31
0.0
  0
TEXT
  5
4E
  8
0
  6
BYBLOCK
 62
    11
 10
12080.819025
 20
28063.284918
 30
0.0
 40
35.0
  1
52
  0
LINE
  5
4F
  8
0
  6
BYBLOCK
 62
     9
 10
12026.0
 20
28080.784918
 30
0.0
 11
11974.0
 21
28080.784918
 31
0.0
  0
SOLID
  5
50
  8
0
  6
BYBLOCK
 62
     9
 10
12046.0
 20
28084.118252
 30
0.0
 11
12046.0
 21
28077.451585
 31
0.0
 12
12026.0
 22
28080.784918
 32
0.0
 13
12026.0
 23
28080.784918
 33
0.0
  0
SOLID
  5
51
  8
0
  6
BYBLOCK
 62
     9
 10
11954.0
 20
28084.118252
 30
0.0
 11
11954.0
 21
28077.451585
 31
0.0
 12
11974.0
 22
28080.784918
 32
0.0
 13
11974.0
 23
28080.784918
 33
0.0
  0
POINT
  5
52
  8
DEFPOINTS
  6
BYBLOCK
 62
     0
 10
12026.0
 20
28125.0
 30
0.0
  0
POINT
  5
53
  8
DEFPOINTS
  6
BYBLOCK
 62
     0
 10
11974.0
 20
28125.0
 30
0.0
  0
POINT
  5
54
  8
DEFPOINTS
  6
BYBLOCK
 62
     0
 10
11974.0
 20
28080.784918
 30
0.0
  0
ENDBLK
  5
56
  8
0
  0
ENDSEC
  0
SECTION
  2
ENTITIES
  0
DIMENSION
  5
20
  8
TEAM-MAS
  2
*D1
 10
-900.0
 20
625.599442
 30
0.0
 11
0.0
 21
625.599442
 31
0.0
 12
-12000.0
 22
-28000.0
 32
0.0
 13
900.0
 23
585.0
 33
0.0
 14
-900.0
 24
585.0
 34
0.0
1001
ACAD
1000
DSTYLE
1002
{
1070
    40
1040
1.0
1002
}
  0
DIMENSION
  5
2F
  8
TEAM-MAS
  2
*D0
 10
927.364286
 20
125.0
 30
0.0
 11
927.364286
 21
360.0
 31
0.0
 12
-12000.0
 22
-28000.0
 32
0.0
 13
890.0
 23
595.0
 33
0.0
 14
26.0
 24
125.0
 34
0.0
 50
90.0
1001
ACAD
1000
DSTYLE
1002
{
1070
    40
1040
1.0
1002
}
  0
LINE
  5
3D
  8
TEAM-HIDE
 10
387.85034
 20
0.00046
 30
0.0
 11
817.5003
 21
0.00046
 31
0.0
  0
LINE
  5
40
  8
TEAM-BODY
 10
513.390944
 20
144.510746
 30
0.0
 11
43.460786
 21
129.977795
 31
0.0
  0
LINE
  5
42
  8
TEAM-DET3
 10
422.5
 20
155.0781
 30
0.0
 11
411.50024
 21
155.0781
 31
0.0
  0
LINE
  5
44
  8
TEAM-DET3
 10
422.5
 20
179.61668
 30
0.0
 11
411.50024
 21
179.61668
 31
0.0
  0
LINE
  5
45
  8
TEAM-DET3
 10
422.5
 20
177.2363
 30
0.0
 11
411.50024
 21
177.2363
 31
0.0
  0
LINE
  5
46
  8
TEAM-DET1
 10
815.745948
 20
595.0
 30
0.0
 11
0.0
 21
595.0
 31
0.0
  0
DIMENSION
  5
48
  8
TEAM-MAS
  2
*D2
 10
-26.0
 20
80.784918
 30
0.0
 11
109.985692
 21
80.784918
 31
0.0
 12
-12000.0
 22
-28000.0
 32
0.0
 70
   128
 13
26.0
 23
125.0
 33
0.0
 14
-26.0
 24
125.0
 34
0.0
1001
ACAD
1000
DSTYLE
1002
{
1070
    40
1040
1.0
1002
}
  0
ARC
  5
57
  8
TEAM-BODY
 10
-890.0
 20
555.0
 30
0.0
 40
10.0
 50
180.0
 51
270.0
  0
LINE
  5
58
  8
TEAM-DET3
 10
338.49976
 20
121.88352
 30
0.0
 11
338.49976
 21
131.99064
 31
0.0
  0
LINE
  5
59
  8
TEAM-DET3
 10
406.50024
 20
121.88352
 30
0.0
 11
406.50024
 21
133.77104
 31
0.0
  0
ARC
  5
5A
  8
TEAM-DET3
 10
372.5
 20
131.44774
 30
0.0
 40
8.0
 50
0.0
 51
11.818751
  0
ARC
  5
5B
  8
TEAM-DET3
 10
372.5
 20
131.44774
 30
0.0
 40
8.0
 50
171.18338
 51
180.0
  0
LINE
  5
5C
  8
TEAM-DET3
 10
406.50024
 20
174.85594
 30
0.0
 11
338.49976
 21
174.85594
 31
0.0
  0
LINE
  5
5D
  8
TEAM-DET3
 10
406.50024
 20
177.2363
 30
0.0
 11
338.49976
 21
177.2363
 31
0.0
  0
LINE
  5
5E
  8
TEAM-DET3
 10
406.50024
 20
133.77104
 30
0.0
 11
406.50024
 21
152.69774
 31
0.0
  0
LINE
  5
5F
  8
TEAM-DET3
 10
317.5
 20
160.0781
 30
0.0
 11
317.5
 21
174.61668
 31
0.0
  0
LINE
  5
60
  8
TEAM-DET3
 10
322.5
 20
155.0781
 30
0.0
 11
333.49976
 21
155.0781
 31
0.0
  0
LINE
  5
61
  8
TEAM-DET3
 10
322.5
 20
179.61668
 30
0.0
 11
333.49976
 21
179.61668
 31
0.0
  0
LINE
  5
62
  8
TEAM-DET3
 10
322.5
 20
177.2363
 30
0.0
 11
333.49976
 21
177.2363
 31
0.0
  0
LINE
  5
63
  8
TEAM-DET3
 10
338.49976
 20
131.99064
 30
0.0
 11
338.49976
 21
152.69712
 31
0.0
  0
LINE
  5
64
  8
TEAM-DET3
 10
333.49976
 20
156.62352
 30
0.0
 11
333.49976
 21
175.6909
 31
0.0
  0
LINE
  5
65
  8
TEAM-DET3
 10
338.49976
 20
154.24314
 30
0.0
 11
338.49976
 21
173.31052
 31
0.0
  0
LINE
  5
66
  8
TEAM-DET3
 10
406.50024
 20
154.24314
 30
0.0
 11
406.50024
 21
173.31052
 31
0.0
  0
LINE
  5
67
  8
TEAM-DET3
 10
411.50024
 20
156.62352
 30
0.0
 11
411.50024
 21
175.6909
 31
0.0
  0
ARC
  5
68
  8
TEAM-DET3
 10
411.50024
 20
176.61618
 30
0.0
 40
3.0
 50
90.0
 51
130.51973
  0
ARC
  5
69
  8
TEAM-DET3
 10
406.50024
 20
180.2368
 30
0.0
 40
3.0
 50
270.0
 51
310.498871
  0
ARC
  5
6A
  8
TEAM-DET3
 10
406.50024
 20
177.85642
 30
0.0
 40
3.0
 50
270.0
 51
310.498871
  0
ARC
  5
6B
  8
TEAM-DET3
 10
411.50024
 20
174.23704
 30
0.0
 40
3.0
 50
90.0
 51
130.527954
  0
ARC
  5
6C
  8
TEAM-DET3
 10
406.50024
 20
155.697
 30
0.0
 40
3.0
 50
270.0
 51
310.498871
  0
ARC
  5
6D
  8
TEAM-DET3
 10
411.50024
 20
152.07762
 30
0.0
 40
3.0
 50
90.0
 51
130.527954
  0
ARC
  5
6E
  8
TEAM-DET3
 10
322.5
 20
172.2363
 30
0.0
 40
5.0
 50
90.0
 51
180.0
  0
ARC
  5
6F
  8
TEAM-DET3
 10
322.5
 20
174.61668
 30
0.0
 40
5.0
 50
90.0
 51
180.0
  0
ARC
  5
70
  8
TEAM-DET3
 10
322.5
 20
160.0781
 30
0.0
 40
5.0
 50
180.0
 51
270.0
  0
ARC
  5
71
  8
TEAM-DET3
 10
333.49976
 20
176.61618
 30
0.0
 40
3.0
 50
49.501122
 51
90.0
  0
ARC
  5
72
  8
TEAM-DET3
 10
338.49976
 20
180.2368
 30
0.0
 40
3.0
 50
229.501129
 51
270.0
  0
ARC
  5
73
  8
TEAM-DET3
 10
338.49976
 20
177.85642
 30
0.0
 40
3.0
 50
229.501129
 51
270.0
  0
ARC
  5
74
  8
TEAM-DET3
 10
333.49976
 20
174.23704
 30
0.0
 40
3.0
 50
49.472038
 51
90.0
  0
ARC
  5
75
  8
TEAM-DET3
 10
338.49976
 20
155.697
 30
0.0
 40
3.0
 50
229.480255
 51
270.0
  0
ARC
  5
76
  8
TEAM-DET3
 10
333.49976
 20
152.07762
 30
0.0
 40
3.0
 50
49.472038
 51
90.0
  0
ARC
  5
77
  8
TEAM-DET3
 10
372.5
 20
131.44774
 30
0.0
 40
8.0
 50
11.818751
 51
171.18338
  0
LINE
  5
78
  8
TEAM-AXE
 10
361.92016
 20
131.44774
 30
0.0
 11
383.07984
 21
131.44774
 31
0.0
  0
TEXT
  5
7B
  8
TEAM-TXT
 10
-732.057548
 20
536.441444
 30
0.0
 40
30.0
  1
team 111507
 41
0.7
 51
15.0
  7
TEAM
  0
LINE
  5
7E
  8
TEAM-DET1
 10
-890.0
 20
545.0
 30
0.0
 11
-781.964059
 21
545.0
 31
0.0
  0
LINE
  5
7F
  8
TEAM-BODY
 10
-890.0
 20
595.0
 30
0.0
 11
-815.746109
 21
595.0
 31
0.0
  0
LINE
  5
80
  8
TEAM-BODY
 10
-900.0
 20
585.0
 30
0.0
 11
-900.0
 21
555.0
 31
0.0
  0
ARC
  5
81
  8
TEAM-BODY
 10
-815.746109
 20
585.0
 30
0.0
 40
10.0
 50
30.145053
 51
90.0
  0
ARC
  5
82
  8
TEAM-BODY
 10
-890.0
 20
585.0
 30
0.0
 40
10.0
 50
90.0
 51
180.0
  0
LINE
  5
83
  8
TEAM-BODY
 10
-807.09854
 20
590.021909
 30
0.0
 11
-578.583685
 21
180.696779
 31
0.0
  0
ARC
  5
84
  8
TEAM-BODY
 10
-511.63577
 20
224.49149
 30
0.0
 40
80.0
 50
213.191144
 51
268.742848
  0
LINE
  5
85
  8
TEAM-DET3
 10
-338.49976
 20
117.855812
 30
0.0
 11
-338.49976
 21
130.004552
 31
0.0
  0
ARC
  5
86
  8
TEAM-DET3
 10
-372.5
 20
127.420012
 30
0.0
 40
8.0
 50
155.597656
 51
180.0
  0
ARC
  5
87
  8
TEAM-DET3
 10
-372.5
 20
127.420012
 30
0.0
 40
8.0
 50
0.0
 51
22.401295
  0
LINE
  5
88
  8
TEAM-DET3
 10
-317.5
 20
156.050392
 30
0.0
 11
-317.5
 21
170.588952
 31
0.0
  0
LINE
  5
89
  8
TEAM-DET3
 10
-322.5
 20
151.050392
 30
0.0
 11
-333.49976
 21
151.050392
 31
0.0
  0
LINE
  5
8A
  8
TEAM-DET3
 10
-322.5
 20
175.588952
 30
0.0
 11
-333.49976
 21
175.588952
 31
0.0
  0
LINE
  5
8B
  8
TEAM-DET3
 10
-322.5
 20
173.208592
 30
0.0
 11
-333.49976
 21
173.208592
 31
0.0
  0
LINE
  5
8C
  8
TEAM-DET3
 10
-338.49976
 20
130.004552
 30
0.0
 11
-338.49976
 21
148.669092
 31
0.0
  0
LINE
  5
8D
  8
TEAM-DET3
 10
-333.49976
 20
152.595792
 30
0.0
 11
-333.49976
 21
171.663172
 31
0.0
  0
LINE
  5
8E
  8
TEAM-DET3
 10
-338.49976
 20
150.215412
 30
0.0
 11
-338.49976
 21
169.282812
 31
0.0
  0
ARC
  5
8F
  8
TEAM-DET3
 10
-322.5
 20
168.208592
 30
0.0
 40
5.0
 50
0.0
 51
90.0
  0
ARC
  5
90
  8
TEAM-DET3
 10
-322.5
 20
170.588952
 30
0.0
 40
5.0
 50
0.0
 51
90.0
  0
ARC
  5
91
  8
TEAM-DET3
 10
-322.5
 20
156.050392
 30
0.0
 40
5.0
 50
270.0
 51
0.0
  0
ARC
  5
92
  8
TEAM-DET3
 10
-333.49976
 20
172.588472
 30
0.0
 40
3.0
 50
90.0
 51
130.515305
  0
ARC
  5
93
  8
TEAM-DET3
 10
-338.49976
 20
176.209072
 30
0.0
 40
3.0
 50
270.0
 51
310.495087
  0
ARC
  5
94
  8
TEAM-DET3
 10
-338.49976
 20
173.828712
 30
0.0
 40
3.0
 50
270.0
 51
310.495087
  0
ARC
  5
95
  8
TEAM-DET3
 10
-333.49976
 20
170.209312
 30
0.0
 40
3.0
 50
90.0
 51
130.527954
  0
ARC
  5
96
  8
TEAM-DET3
 10
-338.49976
 20
151.669272
 30
0.0
 40
3.0
 50
270.0
 51
310.511505
  0
ARC
  5
97
  8
TEAM-DET3
 10
-333.49976
 20
148.049892
 30
0.0
 40
3.0
 50
90.0
 51
130.527954
  0
ARC
  5
98
  8
TEAM-DET3
 10
-372.5
 20
127.420012
 30
0.0
 40
8.0
 50
22.401295
 51
155.597656
  0
LINE
  5
99
  8
TEAM-AXE
 10
-361.92016
 20
127.420012
 30
0.0
 11
-383.07984
 21
127.420012
 31
0.0
  0
LINE
  5
9A
  8
TEAM-DET3
 10
-406.50024
 20
117.855812
 30
0.0
 11
-406.50024
 21
131.191372
 31
0.0
  0
LINE
  5
9B
  8
TEAM-DET3
 10
-406.50024
 20
131.191372
 30
0.0
 11
-406.50024
 21
148.670012
 31
0.0
  0
LINE
  5
9C
  8
TEAM-DET3
 10
-406.50024
 20
150.215412
 30
0.0
 11
-406.50024
 21
169.282812
 31
0.0
  0
LINE
  5
9D
  8
TEAM-DET3
 10
-411.50024
 20
152.595792
 30
0.0
 11
-411.50024
 21
171.663172
 31
0.0
  0
ARC
  5
9E
  8
TEAM-DET3
 10
-411.50024
 20
172.588472
 30
0.0
 40
3.0
 50
49.484684
 51
90.0
  0
ARC
  5
9F
  8
TEAM-DET3
 10
-406.50024
 20
176.209072
 30
0.0
 40
3.0
 50
229.504883
 51
270.0
  0
ARC
  5
A0
  8
TEAM-DET3
 10
-406.50024
 20
173.828712
 30
0.0
 40
3.0
 50
229.504883
 51
270.0
  0
ARC
  5
A1
  8
TEAM-DET3
 10
-411.50024
 20
170.209312
 30
0.0
 40
3.0
 50
49.472038
 51
90.0
  0
ARC
  5
A2
  8
TEAM-DET3
 10
-406.50024
 20
151.669272
 30
0.0
 40
3.0
 50
229.48848
 51
270.0
  0
ARC
  5
A3
  8
TEAM-DET3
 10
-411.50024
 20
148.049892
 30
0.0
 40
3.0
 50
49.472038
 51
90.0
  0
LINE
  5
A4
  8
TEAM-DET3
 10
-427.5
 20
156.050392
 30
0.0
 11
-427.5
 21
170.588952
 31
0.0
  0
ARC
  5
A5
  8
TEAM-DET3
 10
-422.5
 20
168.208592
 30
0.0
 40
5.0
 50
90.0
 51
180.0
  0
ARC
  5
A6
  8
TEAM-DET3
 10
-422.5
 20
170.588952
 30
0.0
 40
5.0
 50
90.0
 51
180.0
  0
ARC
  5
A7
  8
TEAM-DET3
 10
-422.5
 20
156.050392
 30
0.0
 40
5.0
 50
180.0
 51
270.0
  0
LINE
  5
A8
  8
TEAM-DET3
 10
-422.5
 20
151.050392
 30
0.0
 11
-411.50024
 21
151.050392
 31
0.0
  0
LINE
  5
A9
  8
TEAM-DET3
 10
-422.5
 20
175.588952
 30
0.0
 11
-411.50024
 21
175.588952
 31
0.0
  0
LINE
  5
AA
  8
TEAM-DET3
 10
-422.5
 20
173.208592
 30
0.0
 11
-411.50024
 21
173.208592
 31
0.0
  0
LINE
  5
AB
  8
TEAM-DET3
 10
-406.50024
 20
170.828212
 30
0.0
 11
-338.49976
 21
170.828212
 31
0.0
  0
LINE
  5
AC
  8
TEAM-DET3
 10
-406.50024
 20
173.208592
 30
0.0
 11
-338.49976
 21
173.208592
 31
0.0
  0
LINE
  5
AD
  8
TEAM-DET1
 10
-815.745948
 20
595.0
 30
0.0
 11
0.0
 21
595.0
 31
0.0
  0
LINE
  5
AE
  8
TEAM-BODY
 10
-513.390944
 20
144.510746
 30
0.0
 11
-43.460786
 21
129.977795
 31
0.0
  0
LINE
  5
AF
  8
TEAM-KAN
 10
29.37
 20
125.0
 30
0.0
 11
-29.37
 21
125.0
 31
0.0
  0
LINE
  5
B1
  8
TEAM-KAN
 10
26.0
 20
125.0
 30
0.0
 11
26.0
 21
125.727413
 31
0.0
  0
LINE
  5
B2
  8
TEAM-KAN
 10
-26.0
 20
125.0
 30
0.0
 11
-26.0
 21
125.727413
 31
0.0
  0
ARC
  5
B3
  8
TEAM-KAN
 10
45.396497
 20
113.351205
 30
0.0
 40
16.738891
 50
96.640629
 51
123.74467
  0
ARC
  5
B4
  8
TEAM-KAN
 10
27.974444
 20
140.204348
 30
0.0
 40
15.26826
 50
275.244294
 51
302.122013
  0
ARC
  5
B5
  8
TEAM-KAN
 10
-45.396497
 20
113.351205
 30
0.0
 40
16.738891
 50
56.25533
 51
83.359371
  0
LINE
  5
B6
  8
TEAM-BODY
 10
-43.460786
 20
129.977795
 30
0.0
 11
43.460786
 21
129.977795
 31
0.0
  0
ARC
  5
B7
  8
TEAM-KAN
 10
-27.974444
 20
140.204348
 30
0.0
 40
15.26826
 50
237.877987
 51
264.755706
  0
CIRCLE
  5
B8
  8
TEAM-INSP
 10
0.0
 20
0.0
 30
0.0
 40
10.0
  0
LINE
  5
BA
  8
TEAM-DET3
 10
376.56066
 20
19.01352
 30
0.0
 11
376.56066
 21
39.01414
 31
0.0
  0
LINE
  5
BB
  8
TEAM-DET3
 10
368.44054
 20
39.01414
 30
0.0
 11
368.44054
 21
19.01352
 31
0.0
  0
LINE
  5
BC
  8
TEAM-DET3
 10
376.56066
 20
19.01352
 30
0.0
 11
377.5
 21
14.0007
 31
0.0
  0
LINE
  5
BD
  8
TEAM-DET3
 10
368.44054
 20
19.01352
 30
0.0
 11
367.5
 21
14.0007
 31
0.0
  0
LINE
  5
BE
  8
TEAM-DET3
 10
372.16674
 20
10.80124
 30
0.0
 11
377.5
 21
14.0007
 31
0.0
  0
LINE
  5
BF
  8
TEAM-DET3
 10
367.5
 20
14.0007
 30
0.0
 11
372.83324
 21
10.80124
 31
0.0
  0
ARC
  5
C0
  8
TEAM-DET3
 10
385.7495
 20
43.76512
 30
0.0
 40
4.75
 50
270.0
 51
0.0
  0
ARC
  5
C1
  8
TEAM-DET3
 10
359.25048
 20
43.76512
 30
0.0
 40
4.75
 50
180.0
 51
270.0
  0
LINE
  5
C2
  8
TEAM-DET3
 10
390.50048
 20
43.76512
 30
0.0
 11
390.50048
 21
71.9426
 31
0.0
  0
LINE
  5
C3
  8
TEAM-DET3
 10
354.4995
 20
43.76512
 30
0.0
 11
354.4995
 21
71.9426
 31
0.0
  0
LINE
  5
C4
  8
TEAM-DET3
 10
367.5
 20
39.01414
 30
0.0
 11
367.5
 21
10.80124
 31
0.0
  0
LINE
  5
C5
  8
TEAM-DET3
 10
359.25048
 20
39.01414
 30
0.0
 11
385.7495
 21
39.01414
 31
0.0
  0
LINE
  5
C6
  8
TEAM-DET3
 10
377.5
 20
10.80124
 30
0.0
 11
377.5
 21
39.01414
 31
0.0
  0
LINE
  5
C7
  8
TEAM-DET3
 10
357.15088
 20
0.00046
 30
0.0
 11
387.85034
 21
0.00046
 31
0.0
  0
LINE
  5
C8
  8
TEAM-DET3
 10
357.15088
 20
10.80124
 30
0.0
 11
387.85034
 21
10.80124
 31
0.0
  0
LINE
  5
C9
  8
TEAM-DET3
 10
377.5
 20
14.0007
 30
0.0
 11
367.5
 21
14.0007
 31
0.0
  0
LINE
  5
CA
  8
TEAM-DET3
 10
357.15088
 20
10.80124
 30
0.0
 11
357.15088
 21
0.00046
 31
0.0
  0
LINE
  5
CB
  8
TEAM-DET3
 10
387.85034
 20
10.80124
 30
0.0
 11
387.85034
 21
0.00046
 31
0.0
  0
LINE
  5
CC
  8
TEAM-DET3
 10
364.4995
 20
107.76486
 30
0.0
 11
380.50048
 21
107.76486
 31
0.0
  0
LINE
  5
CD
  8
TEAM-HIDE
 10
-387.85034
 20
-0.00046
 30
0.0
 11
-882.49954
 21
-0.00168
 31
0.0
  0
LINE
  5
CE
  8
TEAM-DET3
 10
-368.50006
 20
46.6066
 30
0.0
 11
-368.50006
 21
19.32816
 31
0.0
  0
LINE
  5
CF
  8
TEAM-DET3
 10
-376.49994
 20
19.3367
 30
0.0
 11
-376.49994
 21
46.6066
 31
0.0
  0
LINE
  5
D0
  8
TEAM-DET3
 10
-376.49994
 20
19.3367
 30
0.0
 11
-377.5
 21
13.9998
 31
0.0
  0
LINE
  5
D1
  8
TEAM-DET3
 10
-368.50006
 20
19.32816
 30
0.0
 11
-367.5
 21
13.9998
 31
0.0
  0
LINE
  5
D2
  8
TEAM-DET3
 10
-372.16676
 20
10.80034
 30
0.0
 11
-377.5
 21
13.9998
 31
0.0
  0
LINE
  5
D3
  8
TEAM-DET3
 10
-367.5
 20
13.9998
 30
0.0
 11
-372.83326
 21
10.80034
 31
0.0
  0
ARC
  5
D4
  8
TEAM-DET3
 10
-385.74952
 20
51.35758
 30
0.0
 40
4.75
 50
180.0
 51
270.0
  0
ARC
  5
D5
  8
TEAM-DET3
 10
-359.2505
 20
51.35758
 30
0.0
 40
4.75
 50
270.0
 51
0.0
  0
LINE
  5
D6
  8
TEAM-DET3
 10
-390.5005
 20
51.35758
 30
0.0
 11
-390.5005
 21
79.53508
 31
0.0
  0
LINE
  5
D7
  8
TEAM-DET3
 10
-354.49952
 20
51.35758
 30
0.0
 11
-354.49952
 21
79.53508
 31
0.0
  0
LINE
  5
D8
  8
TEAM-DET3
 10
-367.5
 20
46.6066
 30
0.0
 11
-367.5
 21
10.80034
 31
0.0
  0
LINE
  5
D9
  8
TEAM-DET3
 10
-359.2505
 20
46.6066
 30
0.0
 11
-385.74952
 21
46.6066
 31
0.0
  0
LINE
  5
DA
  8
TEAM-DET3
 10
-377.5
 20
10.80034
 30
0.0
 11
-377.5
 21
46.6066
 31
0.0
  0
LINE
  5
DB
  8
TEAM-DET3
 10
-357.15088
 20
-0.00046
 30
0.0
 11
-387.85034
 21
-0.00046
 31
0.0
  0
LINE
  5
DC
  8
TEAM-DET3
 10
-357.15088
 20
10.80034
 30
0.0
 11
-387.85034
 21
10.80034
 31
0.0
  0
LINE
  5
DD
  8
TEAM-DET3
 10
-377.5
 20
13.9998
 30
0.0
 11
-367.5
 21
13.9998
 31
0.0
  0
LINE
  5
DE
  8
TEAM-DET3
 10
-357.15088
 20
10.80034
 30
0.0
 11
-357.15088
 21
-0.00046
 31
0.0
  0
LINE
  5
DF
  8
TEAM-DET3
 10
-387.85034
 20
10.80034
 30
0.0
 11
-387.85034
 21
-0.00046
 31
0.0
  0
LINE
  5
E0
  8
TEAM-DET3
 10
-364.49952
 20
103.737152
 30
0.0
 11
-380.5005
 21
103.737152
 31
0.0
  0
LINE
  5
E1
  8
TEAM-HIDE
 10
-357.15088
 20
-0.00046
 30
0.0
 11
357.15088
 21
0.00046
 31
0.0
  0
LINE
  5
E2
  8
TEAM-AXE
 10
0.0
 20
595.0
 30
0.0
 11
0.0
 21
95.524083
 31
0.0
  0
LINE
  5
E3
  8
TEAM-DET3
 10
380.50048
 20
107.76486
 30
0.0
 11
380.50048
 21
131.44774
 31
0.0
  0
LINE
  5
E4
  8
TEAM-DET3
 10
364.4995
 20
107.76486
 30
0.0
 11
364.4995
 21
131.44774
 31
0.0
  0
LINE
  5
E5
  8
TEAM-DET3
 10
338.49976
 20
121.88352
 30
0.0
 11
354.4995
 21
71.9426
 31
0.0
  0
LINE
  5
E6
  8
TEAM-DET3
 10
406.50024
 20
121.88352
 30
0.0
 11
390.50048
 21
71.9426
 31
0.0
  0
LINE
  5
E7
  8
TEAM-AXE
 10
372.5
 20
177.2363
 30
0.0
 11
372.5
 21
-5.35018
 31
0.0
  0
LINE
  5
E8
  8
TEAM-DET3
 10
-380.5005
 20
103.737152
 30
0.0
 11
-380.5005
 21
127.420012
 31
0.0
  0
LINE
  5
E9
  8
TEAM-DET3
 10
-364.49952
 20
103.737152
 30
0.0
 11
-364.49952
 21
127.420012
 31
0.0
  0
LINE
  5
EA
  8
TEAM-DET3
 10
-338.49976
 20
117.855812
 30
0.0
 11
-354.49952
 21
79.53508
 31
0.0
  0
LINE
  5
EB
  8
TEAM-AXE
 10
-372.5
 20
173.208592
 30
0.0
 11
-372.5
 21
-5.3514
 31
0.0
  0
LINE
  5
EC
  8
TEAM-DET3
 10
-406.50024
 20
117.855812
 30
0.0
 11
-390.5005
 21
79.53508
 31
0.0
  0
ARC
  5
ED
  8
TEAM-BODY
 10
890.0
 20
555.0
 30
0.0
 40
10.0
 50
270.0
 51
0.0
  0
LINE
  5
EE
  8
TEAM-DET1
 10
890.0
 20
545.0
 30
0.0
 11
781.964059
 21
545.0
 31
0.0
  0
LINE
  5
EF
  8
TEAM-BODY
 10
890.0
 20
595.0
 30
0.0
 11
815.746109
 21
595.0
 31
0.0
  0
LINE
  5
F0
  8
TEAM-BODY
 10
807.09854
 20
590.021909
 30
0.0
 11
578.583685
 21
180.696779
 31
0.0
  0
ARC
  5
F1
  8
TEAM-BODY
 10
815.746109
 20
585.0
 30
0.0
 40
10.0
 50
90.0
 51
149.854947
  0
LINE
  5
F2
  8
TEAM-DET3
 10
427.5
 20
160.0781
 30
0.0
 11
427.5
 21
174.61668
 31
0.0
  0
ARC
  5
F3
  8
TEAM-DET3
 10
422.5
 20
172.2363
 30
0.0
 40
5.0
 50
0.0
 51
90.0
  0
ARC
  5
F4
  8
TEAM-DET3
 10
422.5
 20
174.61668
 30
0.0
 40
5.0
 50
0.0
 51
90.0
  0
ARC
  5
F5
  8
TEAM-DET3
 10
422.5
 20
160.0781
 30
0.0
 40
5.0
 50
270.0
 51
0.0
  0
ARC
  5
F6
  8
TEAM-BODY
 10
511.63577
 20
224.49149
 30
0.0
 40
80.0
 50
271.257152
 51
326.808856
  0
ARC
  5
F7
  8
TEAM-BODY
 10
890.0
 20
585.0
 30
0.0
 40
10.0
 50
0.0
 51
90.0
  0
LINE
  5
F8
  8
TEAM-BODY
 10
900.0
 20
585.0
 30
0.0
 11
900.0
 21
555.0
 31
0.0
  0
ENDSEC
  0
EOF
