  0
SECTION
  2
HEADER
  9
$ACADVER
  1
AC1009
  9
$INSBASE
 10
0.0
 20
0.0
 30
0.0
  9
$EXTMIN
 10
-968.740069
 20
-588.124839
 30
0.0
  9
$EXTMAX
 10
1046.509114
 20
500.825536
 30
0.0
  9
$LIMMIN
 10
-968.740069
 20
-588.124839
  9
$LIMMAX
 10
1046.509114
 20
500.825536
  9
$ORTHOMODE
 70
     1
  9
$REGENMODE
 70
     1
  9
$FILLMODE
 70
     1
  9
$QTEXTMODE
 70
     0
  9
$MIRRTEXT
 70
     0
  9
$DRAGMODE
 70
     2
  9
$LTSCALE
 40
50.0
  9
$OSMODE
 70
     7
  9
$ATTMODE
 70
     1
  9
$TEXTSIZE
 40
200.0
  9
$TRACEWID
 40
1.0
  9
$TEXTSTYLE
  7
STANDARD
  9
$CLAYER
  8
TEAM-MAS
  9
$CELTYPE
  6
BYLAYER
  9
$CECOLOR
 62
   256
  9
$DIMSCALE
 40
0.0
  9
$DIMASZ
 40
20.0
  9
$DIMEXO
 40
10.0
  9
$DIMDLI
 40
1.0
  9
$DIMRND
 40
0.0
  9
$DIMDLE
 40
0.0
  9
$DIMEXE
 40
1.0
  9
$DIMTP
 40
0.0
  9
$DIMTM
 40
0.0
  9
$DIMTXT
 40
35.0
  9
$DIMCEN
 40
1.0
  9
$DIMTSZ
 40
0.0
  9
$DIMTOL
 70
     0
  9
$DIMLIM
 70
     0
  9
$DIMTIH
 70
     0
  9
$DIMTOH
 70
     0
  9
$DIMSE1
 70
     0
  9
$DIMSE2
 70
     0
  9
$DIMTAD
 70
     0
  9
$DIMZIN
 70
     0
  9
$DIMBLK
  1

  9
$DIMASO
 70
     1
  9
$DIMSHO
 70
     0
  9
$DIMPOST
  1

  9
$DIMAPOST
  1

  9
$DIMALT
 70
     0
  9
$DIMALTD
 70
     2
  9
$DIMALTF
 40
25.4
  9
$DIMLFAC
 40
1.0
  9
$DIMTOFL
 70
     0
  9
$DIMTVP
 40
0.0
  9
$DIMTIX
 70
     0
  9
$DIMSOXD
 70
     0
  9
$DIMSAH
 70
     0
  9
$DIMBLK1
  1

  9
$DIMBLK2
  1

  9
$DIMSTYLE
  2
TEAM
  9
$DIMCLRD
 70
     9
  9
$DIMCLRE
 70
     9
  9
$DIMCLRT
 70
    11
  9
$DIMTFAC
 40
1.0
  9
$DIMGAP
 40
7.0
  9
$LUNITS
 70
     2
  9
$LUPREC
 70
     1
  9
$SKETCHINC
 40
1.0
  9
$FILLETRAD
 40
10.0
  9
$AUNITS
 70
     0
  9
$AUPREC
 70
     0
  9
$MENU
  1
ROPLANS
  9
$ELEVATION
 40
0.0
  9
$PELEVATION
 40
0.0
  9
$THICKNESS
 40
0.0
  9
$LIMCHECK
 70
     0
  9
$BLIPMODE
 70
     1
  9
$CHAMFERA
 40
0.0
  9
$CHAMFERB
 40
0.0
  9
$SKPOLY
 70
     0
  9
$TDCREATE
 40
2450392.957851
  9
$TDUPDATE
 40
2455955.923321
  9
$TDINDWG
 40
2.217917
  9
$TDUSRTIMER
 40
2.217917
  9
$USRTIMER
 70
     1
  9
$ANGBASE
 50
0.0
  9
$ANGDIR
 70
     0
  9
$PDMODE
 70
     0
  9
$PDSIZE
 40
0.0
  9
$PLINEWID
 40
0.0
  9
$COORDS
 70
     2
  9
$SPLFRAME
 70
     0
  9
$SPLINETYPE
 70
     6
  9
$SPLINESEGS
 70
     8
  9
$ATTDIA
 70
     0
  9
$ATTREQ
 70
     0
  9
$HANDLING
 70
     1
  9
$HANDSEED
  5
46A
  9
$SURFTAB1
 70
    24
  9
$SURFTAB2
 70
    24
  9
$SURFTYPE
 70
     6
  9
$SURFU
 70
     6
  9
$SURFV
 70
     6
  9
$UCSNAME
  2

  9
$UCSORG
 10
0.0
 20
0.0
 30
0.0
  9
$UCSXDIR
 10
1.0
 20
0.0
 30
0.0
  9
$UCSYDIR
 10
0.0
 20
1.0
 30
0.0
  9
$PUCSNAME
  2

  9
$PUCSORG
 10
0.0
 20
0.0
 30
0.0
  9
$PUCSXDIR
 10
1.0
 20
0.0
 30
0.0
  9
$PUCSYDIR
 10
0.0
 20
1.0
 30
0.0
  9
$USERI1
 70
     0
  9
$USERI2
 70
     0
  9
$USERI3
 70
     0
  9
$USERI4
 70
     0
  9
$USERI5
 70
     0
  9
$USERR1
 40
0.0
  9
$USERR2
 40
0.0
  9
$USERR3
 40
0.0
  9
$USERR4
 40
0.0
  9
$USERR5
 40
0.0
  9
$WORLDVIEW
 70
     1
  9
$SHADEDGE
 70
     0
  9
$SHADEDIF
 70
    70
  9
$TILEMODE
 70
     1
  9
$MAXACTVP
 70
    16
  9
$PLIMCHECK
 70
     0
  9
$PEXTMIN
 10
-0.805942
 20
0.005011
 30
0.0
  9
$PEXTMAX
 10
20.250094
 20
11.356329
 30
0.0
  9
$PLIMMIN
 10
0.0
 20
0.0
  9
$PLIMMAX
 10
12.0
 20
9.0
  9
$UNITMODE
 70
     0
  9
$VISRETAIN
 70
     0
  9
$PLINEGEN
 70
     0
  9
$PSLTSCALE
 70
     0
  0
ENDSEC
  0
SECTION
  2
TABLES
  0
TABLE
  2
VPORT
 70
     2
  0
VPORT
  2
*ACTIVE
 70
     0
 10
0.0
 20
0.0
 11
1.0
 21
1.0
 12
38.884523
 22
-43.649651
 13
0.0
 23
0.0
 14
1.0
 24
1.0
 15
50.0
 25
50.0
 16
0.0
 26
0.0
 36
1.0
 17
0.0
 27
0.0
 37
0.0
 40
1095.77765
 41
1.903766
 42
50.0
 43
0.0
 44
0.0
 50
0.0
 51
0.0
 71
     0
 72
   100
 73
     1
 74
     1
 75
     0
 76
     0
 77
     0
 78
     0
  0
ENDTAB
  0
TABLE
  2
LTYPE
 70
     2
  0
LTYPE
  2
CONTINUOUS
 70
     0
  3
Solid Line
 72
    65
 73
     0
 40
0.0
  0
LTYPE
  2
31
 70
     0
  3

 72
    65
 73
     4
 40
2.1
 49
1.5
 49
-0.3
 49
0.0
 49
-0.3
  0
ENDTAB
  0
TABLE
  2
LAYER
 70
     9
  0
LAYER
  2
0
 70
     0
 62
     7
  6
CONTINUOUS
  0
LAYER
  2
DEFPOINTS
 70
     0
 62
     7
  6
CONTINUOUS
  0
LAYER
  2
TEAM-BODY
 70
     0
 62
     2
  6
CONTINUOUS
  0
LAYER
  2
TEAM-AXE
 70
     0
 62
    10
  6
31
  0
LAYER
  2
TEAM-MAS
 70
     0
 62
     9
  6
CONTINUOUS
  0
LAYER
  2
TEAM-TXT
 70
     0
 62
    11
  6
CONTINUOUS
  0
LAYER
  2
TEAM-DET1
 70
     0
 62
     4
  6
CONTINUOUS
  0
LAYER
  2
TEAM-KAN
 70
     0
 62
     6
  6
CONTINUOUS
  0
LAYER
  2
TEAM-INSP
 70
     0
 62
     5
  6
CONTINUOUS
  0
ENDTAB
  0
TABLE
  2
STYLE
 70
     2
  0
STYLE
  2
STANDARD
 70
     0
 40
0.0
 41
1.0
 50
0.0
 71
     0
 42
200.0
  3
txt
  4

  0
STYLE
  2
TEAM
 70
     0
 40
0.0
 41
0.8
 50
15.0
 71
     0
 42
7.0
  3
ROMANS.shx
  4

  0
ENDTAB
  0
TABLE
  2
VIEW
 70
     0
  0
ENDTAB
  0
TABLE
  2
UCS
 70
     0
  0
ENDTAB
  0
TABLE
  2
APPID
 70
     1
  0
APPID
  2
ACAD
 70
     0
  0
ENDTAB
  0
TABLE
  2
DIMSTYLE
 70
     1
  0
DIMSTYLE
  2
TEAM
 70
     0
  3

  4

  5

  6

  7

 40
0.0
 41
20.0
 42
10.0
 43
1.0
 44
1.0
 45
0.0
 46
0.0
 47
0.0
 48
0.0
140
35.0
141
1.0
142
0.0
143
25.4
144
1.0
145
0.0
146
1.0
147
7.0
 71
     0
 72
     0
 73
     0
 74
     0
 75
     0
 76
     0
 77
     0
 78
     0
170
     0
171
     2
172
     0
173
     0
174
     0
175
     0
176
     9
177
     9
178
    11
  0
ENDTAB
  0
ENDSEC
  0
SECTION
  2
BLOCKS
  0
BLOCK
  8
0
  2
$MODEL_SPACE
 70
     0
 10
0.0
 20
0.0
 30
0.0
  3
$MODEL_SPACE
  1

  0
ENDBLK
  5
3E9
  8
0
  0
BLOCK
 67
     1
  8
0
  2
$PAPER_SPACE
 70
     0
 10
0.0
 20
0.0
 30
0.0
  3
$PAPER_SPACE
  1

  0
ENDBLK
  5
3E7
 67
     1
  8
0
  0
BLOCK
  8
0
  2
*D0
 70
     1
 10
0.0
 20
0.0
 30
0.0
  3
*D0
  1

  0
LINE
  5
37
  8
0
  6
BYBLOCK
 62
     9
 10
4950.0
 20
35501.28
 30
0.0
 11
4950.0
 21
35428.375961
 31
0.0
  0
LINE
  5
38
  8
0
  6
BYBLOCK
 62
     9
 10
3050.0
 20
35501.28
 30
0.0
 11
3050.0
 21
35428.375961
 31
0.0
  0
LINE
  5
39
  8
0
  6
BYBLOCK
 62
     9
 10
4930.0
 20
35429.375961
 30
0.0
 11
4059.5
 21
35429.375961
 31
0.0
  0
LINE
  5
3A
  8
0
  6
BYBLOCK
 62
     9
 10
3070.0
 20
35429.375961
 30
0.0
 11
3940.5
 21
35429.375961
 31
0.0
  0
SOLID
  5
3B
  8
0
  6
BYBLOCK
 62
     9
 10
4930.0
 20
35432.709294
 30
0.0
 11
4930.0
 21
35426.042627
 31
0.0
 12
4950.0
 22
35429.375961
 32
0.0
 13
4950.0
 23
35429.375961
 33
0.0
  0
SOLID
  5
3C
  8
0
  6
BYBLOCK
 62
     9
 10
3070.0
 20
35432.709294
 30
0.0
 11
3070.0
 21
35426.042627
 31
0.0
 12
3050.0
 22
35429.375961
 32
0.0
 13
3050.0
 23
35429.375961
 33
0.0
  0
TEXT
  5
3D
  8
0
  6
BYBLOCK
 62
    11
 10
3947.5
 20
35411.875961
 30
0.0
 40
35.0
  1
1900
  0
POINT
  5
3E
  8
DEFPOINTS
  6
BYBLOCK
 62
     0
 10
4950.0
 20
35511.28
 30
0.0
  0
POINT
  5
3F
  8
DEFPOINTS
  6
BYBLOCK
 62
     0
 10
3050.0
 20
35511.28
 30
0.0
  0
POINT
  5
40
  8
DEFPOINTS
  6
BYBLOCK
 62
     0
 10
3050.0
 20
35429.375961
 30
0.0
  0
ENDBLK
  5
42
  8
0
  0
BLOCK
  8
0
  2
*D1
 70
     1
 10
0.0
 20
0.0
 30
0.0
  3
*D1
  1

  0
LINE
  5
5A
  8
0
  6
BYBLOCK
 62
     9
 10
4950.0
 20
35501.28
 30
0.0
 11
4950.0
 21
35463.839897
 31
0.0
  0
LINE
  5
5B
  8
0
  6
BYBLOCK
 62
     9
 10
4000.0
 20
35890.0
 30
0.0
 11
4000.0
 21
35463.839897
 31
0.0
  0
LINE
  5
5C
  8
0
  6
BYBLOCK
 62
     9
 10
4930.0
 20
35464.839897
 30
0.0
 11
4525.75
 21
35464.839897
 31
0.0
  0
LINE
  5
5D
  8
0
  6
BYBLOCK
 62
     9
 10
4020.0
 20
35464.839897
 30
0.0
 11
4424.25
 21
35464.839897
 31
0.0
  0
SOLID
  5
5E
  8
0
  6
BYBLOCK
 62
     9
 10
4930.0
 20
35468.17323
 30
0.0
 11
4930.0
 21
35461.506564
 31
0.0
 12
4950.0
 22
35464.839897
 32
0.0
 13
4950.0
 23
35464.839897
 33
0.0
  0
SOLID
  5
5F
  8
0
  6
BYBLOCK
 62
     9
 10
4020.0
 20
35468.17323
 30
0.0
 11
4020.0
 21
35461.506564
 31
0.0
 12
4000.0
 22
35464.839897
 32
0.0
 13
4000.0
 23
35464.839897
 33
0.0
  0
TEXT
  5
60
  8
0
  6
BYBLOCK
 62
    11
 10
4431.25
 20
35447.339897
 30
0.0
 40
35.0
  1
950
  0
POINT
  5
61
  8
DEFPOINTS
  6
BYBLOCK
 62
     0
 10
4950.0
 20
35511.28
 30
0.0
  0
POINT
  5
62
  8
DEFPOINTS
  6
BYBLOCK
 62
     0
 10
4000.0
 20
35900.0
 30
0.0
  0
POINT
  5
63
  8
DEFPOINTS
  6
BYBLOCK
 62
     0
 10
4000.0
 20
35464.839897
 30
0.0
  0
ENDBLK
  5
65
  8
0
  0
BLOCK
  8
0
  2
*D2
 70
     1
 10
0.0
 20
0.0
 30
0.0
  3
*D2
  1

  0
LINE
  5
4C
  8
0
  6
BYBLOCK
 62
     9
 10
4948.72
 20
35500.0
 30
0.0
 11
4988.751559
 21
35500.0
 31
0.0
  0
LINE
  5
4D
  8
0
  6
BYBLOCK
 62
     9
 10
4110.0
 20
36000.0
 30
0.0
 11
4988.751559
 21
36000.0
 31
0.0
  0
LINE
  5
4E
  8
0
  6
BYBLOCK
 62
     9
 10
4987.751559
 20
35520.0
 30
0.0
 11
4987.751559
 21
35702.166667
 31
0.0
  0
LINE
  5
4F
  8
0
  6
BYBLOCK
 62
     9
 10
4987.751559
 20
35980.0
 30
0.0
 11
4987.751559
 21
35797.833333
 31
0.0
  0
SOLID
  5
50
  8
0
  6
BYBLOCK
 62
     9
 10
4984.418226
 20
35520.0
 30
0.0
 11
4991.084893
 21
35520.0
 31
0.0
 12
4987.751559
 22
35500.0
 32
0.0
 13
4987.751559
 23
35500.0
 33
0.0
  0
SOLID
  5
51
  8
0
  6
BYBLOCK
 62
     9
 10
4984.418226
 20
35980.0
 30
0.0
 11
4991.084893
 21
35980.0
 31
0.0
 12
4987.751559
 22
36000.0
 32
0.0
 13
4987.751559
 23
36000.0
 33
0.0
  0
TEXT
  5
52
  8
0
  6
BYBLOCK
 62
    11
 10
5005.251559
 20
35709.166667
 30
0.0
 40
35.0
  1
500
 50
90.0
  0
POINT
  5
53
  8
DEFPOINTS
  6
BYBLOCK
 62
     0
 10
4938.72
 20
35500.0
 30
0.0
  0
POINT
  5
54
  8
DEFPOINTS
  6
BYBLOCK
 62
     0
 10
4100.0
 20
36000.0
 30
0.0
  0
POINT
  5
55
  8
DEFPOINTS
  6
BYBLOCK
 62
     0
 10
4987.751559
 20
36000.0
 30
0.0
  0
ENDBLK
  5
57
  8
0
  0
BLOCK
  8
0
  2
*D3
 70
     1
 10
0.0
 20
0.0
 30
0.0
  3
*D3
  1

  0
LINE
  5
22
  8
0
  6
BYBLOCK
 62
     9
 10
4948.72
 20
35500.0
 30
0.0
 11
5029.900363
 21
35500.0
 31
0.0
  0
LINE
  5
23
  8
0
  6
BYBLOCK
 62
     9
 10
4948.72
 20
36500.0
 30
0.0
 11
5029.900363
 21
36500.0
 31
0.0
  0
LINE
  5
24
  8
0
  6
BYBLOCK
 62
     9
 10
5028.900363
 20
35520.0
 30
0.0
 11
5028.900363
 21
35943.416667
 31
0.0
  0
LINE
  5
25
  8
0
  6
BYBLOCK
 62
     9
 10
5028.900363
 20
36480.0
 30
0.0
 11
5028.900363
 21
36056.583333
 31
0.0
  0
SOLID
  5
26
  8
0
  6
BYBLOCK
 62
     9
 10
5025.56703
 20
35520.0
 30
0.0
 11
5032.233697
 21
35520.0
 31
0.0
 12
5028.900363
 22
35500.0
 32
0.0
 13
5028.900363
 23
35500.0
 33
0.0
  0
SOLID
  5
27
  8
0
  6
BYBLOCK
 62
     9
 10
5025.56703
 20
36480.0
 30
0.0
 11
5032.233697
 21
36480.0
 31
0.0
 12
5028.900363
 22
36500.0
 32
0.0
 13
5028.900363
 23
36500.0
 33
0.0
  0
TEXT
  5
28
  8
0
  6
BYBLOCK
 62
    11
 10
5046.400363
 20
35950.416667
 30
0.0
 40
35.0
  1
1000
 50
90.0
  0
POINT
  5
29
  8
DEFPOINTS
  6
BYBLOCK
 62
     0
 10
4938.72
 20
35500.0
 30
0.0
  0
POINT
  5
2B
  8
DEFPOINTS
  6
BYBLOCK
 62
     0
 10
4938.72
 20
36500.0
 30
0.0
  0
POINT
  5
2C
  8
DEFPOINTS
  6
BYBLOCK
 62
     0
 10
5028.900363
 20
36500.0
 30
0.0
  0
ENDBLK
  5
2E
  8
0
  0
ENDSEC
  0
SECTION
  2
ENTITIES
  0
DIMENSION
  5
20
  8
TEAM-MAS
  2
*D3
 10
1028.900363
 20
500.0
 30
0.0
 11
1028.900363
 21
0.0
 31
0.0
 12
-4000.0
 22
-36000.0
 32
0.0
 13
938.72
 23
-500.0
 33
0.0
 14
938.72
 24
500.0
 34
0.0
 50
90.0
1001
ACAD
1000
DSTYLE
1002
{
1070
    40
1040
1.0
1002
}
  0
POLYLINE
  5
2F
  8
TEAM-BODY
 66
     1
 10
0.0
 20
0.0
 30
0.0
  0
VERTEX
  5
3EF
  8
TEAM-BODY
 10
920.1
 20
0.0
 30
0.0
 42
0.298914
  0
VERTEX
  5
3F0
  8
TEAM-BODY
 10
709.277858
 20
321.137858
 30
0.0
 42
0.208898
  0
VERTEX
  5
3F1
  8
TEAM-BODY
 10
-705.896713
 20
322.540049
 30
0.0
 42
0.301693
  0
VERTEX
  5
3F2
  8
TEAM-BODY
 10
-920.0
 20
0.0
 30
0.0
  0
SEQEND
  5
3F3
  8
TEAM-BODY
  0
POLYLINE
  5
31
  8
TEAM-DET1
 66
     1
 10
0.0
 20
0.0
 30
0.0
  0
VERTEX
  5
3F4
  8
TEAM-DET1
 10
870.1
 20
0.0
 30
0.0
 42
0.253752
  0
VERTEX
  5
3F5
  8
TEAM-DET1
 10
699.515875
 20
285.501255
 30
0.0
 42
0.23032
  0
VERTEX
  5
3F6
  8
TEAM-DET1
 10
-690.295414
 20
286.779354
 30
0.0
 42
0.269981
  0
VERTEX
  5
3F7
  8
TEAM-DET1
 10
-870.0
 20
0.0
 30
0.0
 42
0.30196
  0
SEQEND
  5
3F8
  8
TEAM-DET1
  0
POLYLINE
  5
33
  8
TEAM-BODY
 66
     1
 10
0.0
 20
0.0
 30
0.0
 70
   128
  0
VERTEX
  5
3F9
  8
TEAM-BODY
 10
600.05
 20
0.0
 30
0.0
  0
VERTEX
  5
3FA
  8
TEAM-BODY
 10
597.766819
 20
26.146723
 30
0.0
  0
VERTEX
  5
3FB
  8
TEAM-BODY
 10
590.934652
 20
52.094453
 30
0.0
  0
VERTEX
  5
3FC
  8
TEAM-BODY
 10
579.605496
 20
77.645714
 30
0.0
  0
VERTEX
  5
3FD
  8
TEAM-BODY
 10
563.865572
 20
102.606043
 30
0.0
  0
VERTEX
  5
3FE
  8
TEAM-BODY
 10
543.834672
 20
126.785479
 30
0.0
  0
VERTEX
  5
3FF
  8
TEAM-BODY
 10
519.665242
 20
150.0
 30
0.0
  0
VERTEX
  5
400
  8
TEAM-BODY
 10
491.541227
 20
172.072931
 30
0.0
  0
VERTEX
  5
401
  8
TEAM-BODY
 10
459.676666
 20
192.836283
 30
0.0
  0
VERTEX
  5
402
  8
TEAM-BODY
 10
424.314069
 20
212.132034
 30
0.0
  0
VERTEX
  5
403
  8
TEAM-BODY
 10
385.722566
 20
229.813333
 30
0.0
  0
VERTEX
  5
404
  8
TEAM-BODY
 10
344.195862
 20
245.745613
 30
0.0
  0
VERTEX
  5
405
  8
TEAM-BODY
 10
300.05
 20
259.807621
 30
0.0
  0
VERTEX
  5
406
  8
TEAM-BODY
 10
253.620957
 20
271.892336
 30
0.0
  0
VERTEX
  5
407
  8
TEAM-BODY
 10
205.262086
 20
281.907786
 30
0.0
  0
VERTEX
  5
408
  8
TEAM-BODY
 10
155.341427
 20
289.777748
 30
0.0
  0
VERTEX
  5
409
  8
TEAM-BODY
 10
104.238907
 20
295.442326
 30
0.0
  0
VERTEX
  5
40A
  8
TEAM-BODY
 10
52.343446
 20
298.858409
 30
0.0
  0
VERTEX
  5
40B
  8
TEAM-BODY
 10
0.05
 20
300.0
 30
0.0
  0
VERTEX
  5
40C
  8
TEAM-BODY
 10
-52.243446
 20
298.858409
 30
0.0
  0
VERTEX
  5
40D
  8
TEAM-BODY
 10
-104.138907
 20
295.442326
 30
0.0
  0
VERTEX
  5
40E
  8
TEAM-BODY
 10
-155.241427
 20
289.777748
 30
0.0
  0
VERTEX
  5
40F
  8
TEAM-BODY
 10
-205.162086
 20
281.907786
 30
0.0
  0
VERTEX
  5
410
  8
TEAM-BODY
 10
-253.520957
 20
271.892336
 30
0.0
  0
VERTEX
  5
411
  8
TEAM-BODY
 10
-299.95
 20
259.807621
 30
0.0
  0
VERTEX
  5
412
  8
TEAM-BODY
 10
-344.095862
 20
245.745613
 30
0.0
  0
VERTEX
  5
413
  8
TEAM-BODY
 10
-385.622566
 20
229.813333
 30
0.0
  0
VERTEX
  5
414
  8
TEAM-BODY
 10
-424.214069
 20
212.132034
 30
0.0
  0
VERTEX
  5
415
  8
TEAM-BODY
 10
-459.576666
 20
192.836283
 30
0.0
  0
VERTEX
  5
416
  8
TEAM-BODY
 10
-491.441227
 20
172.072931
 30
0.0
  0
VERTEX
  5
417
  8
TEAM-BODY
 10
-519.565242
 20
150.0
 30
0.0
  0
VERTEX
  5
418
  8
TEAM-BODY
 10
-543.734672
 20
126.785479
 30
0.0
  0
VERTEX
  5
419
  8
TEAM-BODY
 10
-563.765572
 20
102.606043
 30
0.0
  0
VERTEX
  5
41A
  8
TEAM-BODY
 10
-579.505496
 20
77.645714
 30
0.0
  0
VERTEX
  5
41B
  8
TEAM-BODY
 10
-590.834652
 20
52.094453
 30
0.0
  0
VERTEX
  5
41C
  8
TEAM-BODY
 10
-597.666819
 20
26.146723
 30
0.0
  0
VERTEX
  5
41D
  8
TEAM-BODY
 10
-599.95
 20
0.0
 30
0.0
  0
SEQEND
  5
41E
  8
TEAM-BODY
  0
POLYLINE
  5
34
  8
TEAM-BODY
 66
     1
 10
0.0
 20
0.0
 30
0.0
 70
   128
  0
VERTEX
  5
41F
  8
TEAM-BODY
 10
950.0
 20
0.0
 30
0.0
  0
VERTEX
  5
420
  8
TEAM-BODY
 10
950.0
 20
488.72
 30
0.0
  0
VERTEX
  5
421
  8
TEAM-BODY
 10
950.0
 20
488.72
 30
0.0
 42
0.198915
  0
VERTEX
  5
422
  8
TEAM-BODY
 10
946.696
 20
496.696
 30
0.0
  0
VERTEX
  5
423
  8
TEAM-BODY
 10
946.696
 20
496.696
 30
0.0
 42
0.198909
  0
VERTEX
  5
424
  8
TEAM-BODY
 10
938.72
 20
500.0
 30
0.0
  0
VERTEX
  5
425
  8
TEAM-BODY
 10
-938.72
 20
500.0
 30
0.0
  0
VERTEX
  5
426
  8
TEAM-BODY
 10
-938.72
 20
500.0
 30
0.0
 42
0.198915
  0
VERTEX
  5
427
  8
TEAM-BODY
 10
-946.696
 20
496.696
 30
0.0
  0
VERTEX
  5
428
  8
TEAM-BODY
 10
-946.696
 20
496.696
 30
0.0
 42
0.198909
  0
VERTEX
  5
429
  8
TEAM-BODY
 10
-950.0
 20
488.72
 30
0.0
  0
VERTEX
  5
42A
  8
TEAM-BODY
 10
-950.0
 20
0.0
 30
0.0
  0
SEQEND
  5
42B
  8
TEAM-BODY
  0
DIMENSION
  5
35
  8
TEAM-MAS
  2
*D0
 10
-950.0
 20
-570.624039
 30
0.0
 11
0.0
 21
-570.624039
 31
0.0
 12
-4000.0
 22
-36000.0
 32
0.0
 13
950.0
 23
-488.72
 33
0.0
 14
-950.0
 24
-488.72
 34
0.0
1001
ACAD
1000
DSTYLE
1002
{
1070
    40
1040
1.0
1002
}
  0
POLYLINE
  5
43
  8
TEAM-BODY
 66
     1
 10
0.0
 20
0.0
 30
0.0
  0
VERTEX
  5
42C
  8
TEAM-BODY
 10
920.1
 20
0.0
 30
0.0
 42
-0.298914
  0
VERTEX
  5
42D
  8
TEAM-BODY
 10
709.277858
 20
-321.137858
 30
0.0
 42
-0.208898
  0
VERTEX
  5
42E
  8
TEAM-BODY
 10
-705.896713
 20
-322.540049
 30
0.0
 42
-0.301693
  0
VERTEX
  5
42F
  8
TEAM-BODY
 10
-920.0
 20
0.0
 30
0.0
  0
SEQEND
  5
430
  8
TEAM-BODY
  0
POLYLINE
  5
44
  8
TEAM-BODY
 66
     1
 10
0.0
 20
0.0
 30
0.0
 70
   128
  0
VERTEX
  5
431
  8
TEAM-BODY
 10
950.0
 20
0.0
 30
0.0
  0
VERTEX
  5
432
  8
TEAM-BODY
 10
950.0
 20
-488.72
 30
0.0
  0
VERTEX
  5
433
  8
TEAM-BODY
 10
950.0
 20
-488.72
 30
0.0
 42
-0.198915
  0
VERTEX
  5
434
  8
TEAM-BODY
 10
946.696
 20
-496.696
 30
0.0
  0
VERTEX
  5
435
  8
TEAM-BODY
 10
946.696
 20
-496.696
 30
0.0
 42
-0.198909
  0
VERTEX
  5
436
  8
TEAM-BODY
 10
938.72
 20
-500.0
 30
0.0
  0
VERTEX
  5
437
  8
TEAM-BODY
 10
-938.72
 20
-500.0
 30
0.0
  0
VERTEX
  5
438
  8
TEAM-BODY
 10
-938.72
 20
-500.0
 30
0.0
 42
-0.198915
  0
VERTEX
  5
439
  8
TEAM-BODY
 10
-946.696
 20
-496.696
 30
0.0
  0
VERTEX
  5
43A
  8
TEAM-BODY
 10
-946.696
 20
-496.696
 30
0.0
 42
-0.198909
  0
VERTEX
  5
43B
  8
TEAM-BODY
 10
-950.0
 20
-488.72
 30
0.0
  0
VERTEX
  5
43C
  8
TEAM-BODY
 10
-950.0
 20
0.0
 30
0.0
  0
SEQEND
  5
43D
  8
TEAM-BODY
  0
POLYLINE
  5
45
  8
TEAM-DET1
 66
     1
 10
0.0
 20
0.0
 30
0.0
  0
VERTEX
  5
43E
  8
TEAM-DET1
 10
870.1
 20
0.0
 30
0.0
 42
-0.253752
  0
VERTEX
  5
43F
  8
TEAM-DET1
 10
699.515875
 20
-285.501255
 30
0.0
 42
-0.23032
  0
VERTEX
  5
440
  8
TEAM-DET1
 10
-690.295414
 20
-286.779354
 30
0.0
 42
-0.269981
  0
VERTEX
  5
441
  8
TEAM-DET1
 10
-870.0
 20
0.0
 30
0.0
 42
-0.30196
  0
SEQEND
  5
442
  8
TEAM-DET1
  0
POLYLINE
  5
46
  8
TEAM-BODY
 66
     1
 10
0.0
 20
0.0
 30
0.0
 70
   128
210
0.0
220
0.0
230
-1.0
  0
VERTEX
  5
443
  8
TEAM-BODY
 10
-600.05
 20
0.0
 30
0.0
  0
VERTEX
  5
444
  8
TEAM-BODY
 10
-597.766819
 20
-26.146723
 30
0.0
  0
VERTEX
  5
445
  8
TEAM-BODY
 10
-590.934652
 20
-52.094453
 30
0.0
  0
VERTEX
  5
446
  8
TEAM-BODY
 10
-579.605496
 20
-77.645714
 30
0.0
  0
VERTEX
  5
447
  8
TEAM-BODY
 10
-563.865572
 20
-102.606043
 30
0.0
  0
VERTEX
  5
448
  8
TEAM-BODY
 10
-543.834672
 20
-126.785479
 30
0.0
  0
VERTEX
  5
449
  8
TEAM-BODY
 10
-519.665242
 20
-150.0
 30
0.0
  0
VERTEX
  5
44A
  8
TEAM-BODY
 10
-491.541227
 20
-172.072931
 30
0.0
  0
VERTEX
  5
44B
  8
TEAM-BODY
 10
-459.676666
 20
-192.836283
 30
0.0
  0
VERTEX
  5
44C
  8
TEAM-BODY
 10
-424.314069
 20
-212.132034
 30
0.0
  0
VERTEX
  5
44D
  8
TEAM-BODY
 10
-385.722566
 20
-229.813333
 30
0.0
  0
VERTEX
  5
44E
  8
TEAM-BODY
 10
-344.195862
 20
-245.745613
 30
0.0
  0
VERTEX
  5
44F
  8
TEAM-BODY
 10
-300.05
 20
-259.807621
 30
0.0
  0
VERTEX
  5
450
  8
TEAM-BODY
 10
-253.620957
 20
-271.892336
 30
0.0
  0
VERTEX
  5
451
  8
TEAM-BODY
 10
-205.262086
 20
-281.907786
 30
0.0
  0
VERTEX
  5
452
  8
TEAM-BODY
 10
-155.341427
 20
-289.777748
 30
0.0
  0
VERTEX
  5
453
  8
TEAM-BODY
 10
-104.238907
 20
-295.442326
 30
0.0
  0
VERTEX
  5
454
  8
TEAM-BODY
 10
-52.343446
 20
-298.858409
 30
0.0
  0
VERTEX
  5
455
  8
TEAM-BODY
 10
-0.05
 20
-300.0
 30
0.0
  0
VERTEX
  5
456
  8
TEAM-BODY
 10
52.243446
 20
-298.858409
 30
0.0
  0
VERTEX
  5
457
  8
TEAM-BODY
 10
104.138907
 20
-295.442326
 30
0.0
  0
VERTEX
  5
458
  8
TEAM-BODY
 10
155.241427
 20
-289.777748
 30
0.0
  0
VERTEX
  5
459
  8
TEAM-BODY
 10
205.162086
 20
-281.907786
 30
0.0
  0
VERTEX
  5
45A
  8
TEAM-BODY
 10
253.520957
 20
-271.892336
 30
0.0
  0
VERTEX
  5
45B
  8
TEAM-BODY
 10
299.95
 20
-259.807621
 30
0.0
  0
VERTEX
  5
45C
  8
TEAM-BODY
 10
344.095862
 20
-245.745613
 30
0.0
  0
VERTEX
  5
45D
  8
TEAM-BODY
 10
385.622566
 20
-229.813333
 30
0.0
  0
VERTEX
  5
45E
  8
TEAM-BODY
 10
424.214069
 20
-212.132034
 30
0.0
  0
VERTEX
  5
45F
  8
TEAM-BODY
 10
459.576666
 20
-192.836283
 30
0.0
  0
VERTEX
  5
460
  8
TEAM-BODY
 10
491.441227
 20
-172.072931
 30
0.0
  0
VERTEX
  5
461
  8
TEAM-BODY
 10
519.565242
 20
-150.0
 30
0.0
  0
VERTEX
  5
462
  8
TEAM-BODY
 10
543.734672
 20
-126.785479
 30
0.0
  0
VERTEX
  5
463
  8
TEAM-BODY
 10
563.765572
 20
-102.606043
 30
0.0
  0
VERTEX
  5
464
  8
TEAM-BODY
 10
579.505496
 20
-77.645714
 30
0.0
  0
VERTEX
  5
465
  8
TEAM-BODY
 10
590.834652
 20
-52.094453
 30
0.0
  0
VERTEX
  5
466
  8
TEAM-BODY
 10
597.666819
 20
-26.146723
 30
0.0
  0
VERTEX
  5
467
  8
TEAM-BODY
 10
599.95
 20
0.0
 30
0.0
  0
SEQEND
  5
468
  8
TEAM-BODY
  0
LINE
  5
47
  8
TEAM-AXE
 10
-100.0
 20
0.0
 30
0.0
 11
100.0
 21
0.0
 31
0.0
  0
DIMENSION
  5
4A
  8
TEAM-MAS
  2
*D2
 10
987.751559
 20
0.0
 30
0.0
 11
987.751559
 21
-250.0
 31
0.0
 12
-4000.0
 22
-36000.0
 32
0.0
 13
938.72
 23
-500.0
 33
0.0
 14
100.0
 24
0.0
 34
0.0
 50
90.0
1001
ACAD
1000
DSTYLE
1002
{
1070
    40
1040
1.0
1002
}
  0
DIMENSION
  5
58
  8
TEAM-MAS
  2
*D1
 10
0.0
 20
-535.160103
 30
0.0
 11
475.0
 21
-535.160103
 31
0.0
 12
-4000.0
 22
-36000.0
 32
0.0
 13
950.0
 23
-488.72
 33
0.0
 14
0.0
 24
-100.0
 34
0.0
1001
ACAD
1000
DSTYLE
1002
{
1070
    40
1040
1.0
1002
}
  0
CIRCLE
  5
66
  8
TEAM-BODY
 10
0.0
 20
0.0
 30
0.0
 40
35.0
  0
CIRCLE
  5
67
  8
TEAM-KAN
 10
0.0
 20
0.0
 30
0.0
 40
26.0
  0
LINE
  5
69
  8
TEAM-AXE
 10
0.0
 20
-100.0
 30
0.0
 11
0.0
 21
100.0
 31
0.0
  0
CIRCLE
  5
6A
  8
TEAM-INSP
 10
0.0
 20
0.0
 30
0.0
 40
7.1
  0
CIRCLE
  5
6C
  8
TEAM-DET1
 10
0.0
 20
0.0
 30
0.0
 40
40.0
  0
TEXT
  5
6D
  8
TEAM-TXT
 10
-871.236308
 20
418.428384
 30
0.0
 40
30.0
  1
team 111509
 41
0.7
 51
15.0
  7
TEAM
  0
ENDSEC
  0
EOF
