  0
SECTION
  2
HEADER
  9
$ACADVER
  1
AC1009
  9
$INSBASE
 10
0.0
 20
0.0
 30
0.0
  9
$EXTMIN
 10
-1099.686204
 20
-1037.235735
 30
0.0
  9
$EXTMAX
 10
1104.745257
 20
1037.649446
 30
0.000005
  9
$LIMMIN
 10
-1099.686204
 20
-1037.235735
  9
$LIMMAX
 10
1104.745257
 20
1037.649446
  9
$ORTHOMODE
 70
     1
  9
$REGENMODE
 70
     1
  9
$FILLMODE
 70
     1
  9
$QTEXTMODE
 70
     0
  9
$MIRRTEXT
 70
     0
  9
$DRAGMODE
 70
     2
  9
$LTSCALE
 40
50.0
  9
$OSMODE
 70
     7
  9
$ATTMODE
 70
     1
  9
$TEXTSIZE
 40
200.0
  9
$TRACEWID
 40
1.0
  9
$TEXTSTYLE
  7
STANDARD
  9
$CLAYER
  8
TEAM-MAS
  9
$CELTYPE
  6
BYLAYER
  9
$CECOLOR
 62
   256
  9
$DIMSCALE
 40
1.0
  9
$DIMASZ
 40
20.0
  9
$DIMEXO
 40
10.0
  9
$DIMDLI
 40
1.0
  9
$DIMRND
 40
0.0
  9
$DIMDLE
 40
0.0
  9
$DIMEXE
 40
1.0
  9
$DIMTP
 40
0.0
  9
$DIMTM
 40
0.0
  9
$DIMTXT
 40
35.0
  9
$DIMCEN
 40
1.0
  9
$DIMTSZ
 40
0.0
  9
$DIMTOL
 70
     0
  9
$DIMLIM
 70
     0
  9
$DIMTIH
 70
     0
  9
$DIMTOH
 70
     0
  9
$DIMSE1
 70
     0
  9
$DIMSE2
 70
     0
  9
$DIMTAD
 70
     0
  9
$DIMZIN
 70
     0
  9
$DIMBLK
  1

  9
$DIMASO
 70
     1
  9
$DIMSHO
 70
     0
  9
$DIMPOST
  1

  9
$DIMAPOST
  1

  9
$DIMALT
 70
     0
  9
$DIMALTD
 70
     2
  9
$DIMALTF
 40
25.4
  9
$DIMLFAC
 40
1.0
  9
$DIMTOFL
 70
     0
  9
$DIMTVP
 40
0.0
  9
$DIMTIX
 70
     0
  9
$DIMSOXD
 70
     0
  9
$DIMSAH
 70
     0
  9
$DIMBLK1
  1

  9
$DIMBLK2
  1

  9
$DIMSTYLE
  2
TEAM
  9
$DIMCLRD
 70
     9
  9
$DIMCLRE
 70
     9
  9
$DIMCLRT
 70
    11
  9
$DIMTFAC
 40
1.0
  9
$DIMGAP
 40
15.0
  9
$LUNITS
 70
     2
  9
$LUPREC
 70
     1
  9
$SKETCHINC
 40
1.0
  9
$FILLETRAD
 40
300.0
  9
$AUNITS
 70
     0
  9
$AUPREC
 70
     0
  9
$MENU
  1
ROPLANS
  9
$ELEVATION
 40
0.0
  9
$PELEVATION
 40
0.0
  9
$THICKNESS
 40
0.0
  9
$LIMCHECK
 70
     0
  9
$BLIPMODE
 70
     1
  9
$CHAMFERA
 40
0.0
  9
$CHAMFERB
 40
0.0
  9
$SKPOLY
 70
     0
  9
$TDCREATE
 40
2450392.957851
  9
$TDUPDATE
 40
2455843.591272
  9
$TDINDWG
 40
2.850297
  9
$TDUSRTIMER
 40
2.850297
  9
$USRTIMER
 70
     1
  9
$ANGBASE
 50
0.0
  9
$ANGDIR
 70
     0
  9
$PDMODE
 70
     0
  9
$PDSIZE
 40
0.0
  9
$PLINEWID
 40
0.0
  9
$COORDS
 70
     2
  9
$SPLFRAME
 70
     0
  9
$SPLINETYPE
 70
     6
  9
$SPLINESEGS
 70
     8
  9
$ATTDIA
 70
     0
  9
$ATTREQ
 70
     0
  9
$HANDLING
 70
     1
  9
$HANDSEED
  5
3EF
  9
$SURFTAB1
 70
    64
  9
$SURFTAB2
 70
    64
  9
$SURFTYPE
 70
     6
  9
$SURFU
 70
     6
  9
$SURFV
 70
     6
  9
$UCSNAME
  2

  9
$UCSORG
 10
0.0
 20
0.0
 30
0.0
  9
$UCSXDIR
 10
1.0
 20
0.0
 30
0.0
  9
$UCSYDIR
 10
0.0
 20
1.0
 30
0.0
  9
$PUCSNAME
  2

  9
$PUCSORG
 10
0.0
 20
0.0
 30
0.0
  9
$PUCSXDIR
 10
1.0
 20
0.0
 30
0.0
  9
$PUCSYDIR
 10
0.0
 20
1.0
 30
0.0
  9
$USERI1
 70
     0
  9
$USERI2
 70
     0
  9
$USERI3
 70
     0
  9
$USERI4
 70
     0
  9
$USERI5
 70
     0
  9
$USERR1
 40
0.0
  9
$USERR2
 40
0.0
  9
$USERR3
 40
0.0
  9
$USERR4
 40
0.0
  9
$USERR5
 40
0.0
  9
$WORLDVIEW
 70
     1
  9
$SHADEDGE
 70
     0
  9
$SHADEDIF
 70
    70
  9
$TILEMODE
 70
     1
  9
$MAXACTVP
 70
    16
  9
$PLIMCHECK
 70
     0
  9
$PEXTMIN
 10
-0.805942
 20
0.005011
 30
0.0
  9
$PEXTMAX
 10
20.250094
 20
11.356329
 30
0.0
  9
$PLIMMIN
 10
0.0
 20
0.0
  9
$PLIMMAX
 10
12.0
 20
9.0
  9
$UNITMODE
 70
     0
  9
$VISRETAIN
 70
     0
  9
$PLINEGEN
 70
     0
  9
$PSLTSCALE
 70
     0
  0
ENDSEC
  0
SECTION
  2
TABLES
  0
TABLE
  2
VPORT
 70
     2
  0
VPORT
  2
*ACTIVE
 70
     0
 10
0.0
 20
0.0
 11
1.0
 21
1.0
 12
2.529527
 22
0.206856
 13
0.0
 23
0.0
 14
1.0
 24
1.0
 15
50.0
 25
50.0
 16
0.0
 26
0.0
 36
1.0
 17
0.0
 27
0.0
 37
0.0
 40
2087.893866
 41
1.903766
 42
50.0
 43
0.0
 44
0.0
 50
0.0
 51
0.0
 71
     0
 72
   100
 73
     1
 74
     1
 75
     0
 76
     0
 77
     0
 78
     0
  0
ENDTAB
  0
TABLE
  2
LTYPE
 70
     2
  0
LTYPE
  2
CONTINUOUS
 70
     0
  3
Solid Line
 72
    65
 73
     0
 40
0.0
  0
LTYPE
  2
31
 70
     0
  3

 72
    65
 73
     4
 40
2.1
 49
1.5
 49
-0.3
 49
0.0
 49
-0.3
  0
ENDTAB
  0
TABLE
  2
LAYER
 70
     8
  0
LAYER
  2
0
 70
     0
 62
     7
  6
CONTINUOUS
  0
LAYER
  2
DEFPOINTS
 70
     0
 62
     7
  6
CONTINUOUS
  0
LAYER
  2
TEAM-BODY
 70
     0
 62
     2
  6
CONTINUOUS
  0
LAYER
  2
TEAM-AXE
 70
     0
 62
    10
  6
31
  0
LAYER
  2
TEAM-MAS
 70
     0
 62
     9
  6
CONTINUOUS
  0
LAYER
  2
TEAM-TXT
 70
     0
 62
    11
  6
CONTINUOUS
  0
LAYER
  2
TEAM-DET1
 70
     0
 62
     4
  6
CONTINUOUS
  0
LAYER
  2
TEAM-INSP
 70
     0
 62
     5
  6
CONTINUOUS
  0
ENDTAB
  0
TABLE
  2
STYLE
 70
     2
  0
STYLE
  2
STANDARD
 70
     0
 40
0.0
 41
1.0
 50
0.0
 71
     0
 42
200.0
  3
txt
  4

  0
STYLE
  2
TEAM
 70
     0
 40
0.0
 41
0.8
 50
15.0
 71
     0
 42
7.0
  3
ROMANS.shx
  4

  0
ENDTAB
  0
TABLE
  2
VIEW
 70
     0
  0
ENDTAB
  0
TABLE
  2
UCS
 70
     0
  0
ENDTAB
  0
TABLE
  2
APPID
 70
     1
  0
APPID
  2
ACAD
 70
     0
  0
ENDTAB
  0
TABLE
  2
DIMSTYLE
 70
     1
  0
DIMSTYLE
  2
TEAM
 70
     0
  3

  4

  5

  6

  7

 40
1.0
 41
20.0
 42
10.0
 43
1.0
 44
1.0
 45
0.0
 46
0.0
 47
0.0
 48
0.0
140
35.0
141
1.0
142
0.0
143
25.4
144
1.0
145
0.0
146
1.0
147
15.0
 71
     0
 72
     0
 73
     0
 74
     0
 75
     0
 76
     0
 77
     0
 78
     0
170
     0
171
     2
172
     0
173
     0
174
     0
175
     0
176
     9
177
     9
178
    11
  0
ENDTAB
  0
ENDSEC
  0
SECTION
  2
BLOCKS
  0
BLOCK
  8
0
  2
$MODEL_SPACE
 70
     0
 10
0.0
 20
0.0
 30
0.0
  3
$MODEL_SPACE
  1

  0
ENDBLK
  5
2D5
  8
0
  0
BLOCK
 67
     1
  8
0
  2
$PAPER_SPACE
 70
     0
 10
0.0
 20
0.0
 30
0.0
  3
$PAPER_SPACE
  1

  0
ENDBLK
  5
2D3
 67
     1
  8
0
  0
BLOCK
  8
0
  2
*D0
 70
     1
 10
0.0
 20
0.0
 30
0.0
  3
*D0
  1

  0
LINE
  5
22
  8
0
  6
BYBLOCK
 62
     9
 10
5037.5
 20
32685.0
 30
0.0
 11
5037.5
 21
33021.113338
 31
0.0
  0
LINE
  5
23
  8
0
  6
BYBLOCK
 62
     9
 10
2962.5
 20
32685.0
 30
0.0
 11
2962.5
 21
33021.113338
 31
0.0
  0
LINE
  5
24
  8
0
  6
BYBLOCK
 62
     9
 10
5017.5
 20
33020.113338
 30
0.0
 11
4076.25
 21
33020.113338
 31
0.0
  0
LINE
  5
25
  8
0
  6
BYBLOCK
 62
     9
 10
2982.5
 20
33020.113338
 30
0.0
 11
3923.75
 21
33020.113338
 31
0.0
  0
SOLID
  5
26
  8
0
  6
BYBLOCK
 62
     9
 10
5017.5
 20
33023.446672
 30
0.0
 11
5017.5
 21
33016.780005
 31
0.0
 12
5037.5
 22
33020.113338
 32
0.0
 13
5037.5
 23
33020.113338
 33
0.0
  0
SOLID
  5
27
  8
0
  6
BYBLOCK
 62
     9
 10
2982.5
 20
33023.446672
 30
0.0
 11
2982.5
 21
33016.780005
 31
0.0
 12
2962.5
 22
33020.113338
 32
0.0
 13
2962.5
 23
33020.113338
 33
0.0
  0
TEXT
  5
28
  8
0
  6
BYBLOCK
 62
    11
 10
3938.75
 20
33002.613338
 30
0.0
 40
35.0
  1
2075
  0
POINT
  5
29
  8
DEFPOINTS
  6
BYBLOCK
 62
     0
 10
5037.5
 20
32675.0
 30
0.0
  0
POINT
  5
2B
  8
DEFPOINTS
  6
BYBLOCK
 62
     0
 10
2962.5
 20
32675.0
 30
0.0
  0
POINT
  5
2C
  8
DEFPOINTS
  6
BYBLOCK
 62
     0
 10
2962.5
 20
33020.113338
 30
0.0
  0
ENDBLK
  5
2E
  8
0
  0
BLOCK
  8
0
  2
*D1
 70
     1
 10
0.0
 20
0.0
 30
0.0
  3
*D1
  1

  0
LINE
  5
33
  8
0
  6
BYBLOCK
 62
     9
 10
3252.5
 20
31025.0
 30
0.0
 11
2925.170509
 21
31025.0
 31
0.0
  0
LINE
  5
34
  8
0
  6
BYBLOCK
 62
     9
 10
4187.5
 20
31725.0
 30
0.0
 11
2925.170509
 21
31725.0
 31
0.0
  0
LINE
  5
35
  8
0
  6
BYBLOCK
 62
     9
 10
2926.170509
 20
31045.0
 30
0.0
 11
2926.170509
 21
31319.166667
 31
0.0
  0
LINE
  5
36
  8
0
  6
BYBLOCK
 62
     9
 10
2926.170509
 20
31705.0
 30
0.0
 11
2926.170509
 21
31430.833333
 31
0.0
  0
SOLID
  5
37
  8
0
  6
BYBLOCK
 62
     9
 10
2922.837176
 20
31045.0
 30
0.0
 11
2929.503842
 21
31045.0
 31
0.0
 12
2926.170509
 22
31025.0
 32
0.0
 13
2926.170509
 23
31025.0
 33
0.0
  0
SOLID
  5
38
  8
0
  6
BYBLOCK
 62
     9
 10
2922.837176
 20
31705.0
 30
0.0
 11
2929.503842
 21
31705.0
 31
0.0
 12
2926.170509
 22
31725.0
 32
0.0
 13
2926.170509
 23
31725.0
 33
0.0
  0
TEXT
  5
39
  8
0
  6
BYBLOCK
 62
    11
 10
2943.670509
 20
31334.166667
 30
0.0
 40
35.0
  1
700
 50
90.0
  0
POINT
  5
3A
  8
DEFPOINTS
  6
BYBLOCK
 62
     0
 10
3262.5
 20
31025.0
 30
0.0
  0
POINT
  5
3B
  8
DEFPOINTS
  6
BYBLOCK
 62
     0
 10
4197.5
 20
31725.0
 30
0.0
  0
POINT
  5
3C
  8
DEFPOINTS
  6
BYBLOCK
 62
     0
 10
2926.170509
 20
31725.0
 30
0.0
  0
ENDBLK
  5
3E
  8
0
  0
BLOCK
  8
0
  2
*D2
 70
     1
 10
0.0
 20
0.0
 30
0.0
  3
*D2
  1

  0
LINE
  5
41
  8
0
  6
BYBLOCK
 62
     9
 10
2962.5
 20
31315.0
 30
0.0
 11
2962.5
 21
30989.517497
 31
0.0
  0
LINE
  5
42
  8
0
  6
BYBLOCK
 62
     9
 10
4197.5
 20
31715.0
 30
0.0
 11
4197.5
 21
30989.517497
 31
0.0
  0
LINE
  5
43
  8
0
  6
BYBLOCK
 62
     9
 10
2982.5
 20
30990.517497
 30
0.0
 11
3506.666667
 21
30990.517497
 31
0.0
  0
LINE
  5
44
  8
0
  6
BYBLOCK
 62
     9
 10
4177.5
 20
30990.517497
 30
0.0
 11
3653.333333
 21
30990.517497
 31
0.0
  0
SOLID
  5
45
  8
0
  6
BYBLOCK
 62
     9
 10
2982.5
 20
30993.85083
 30
0.0
 11
2982.5
 21
30987.184163
 31
0.0
 12
2962.5
 22
30990.517497
 32
0.0
 13
2962.5
 23
30990.517497
 33
0.0
  0
SOLID
  5
46
  8
0
  6
BYBLOCK
 62
     9
 10
4177.5
 20
30993.85083
 30
0.0
 11
4177.5
 21
30987.184163
 31
0.0
 12
4197.5
 22
30990.517497
 32
0.0
 13
4197.5
 23
30990.517497
 33
0.0
  0
TEXT
  5
47
  8
0
  6
BYBLOCK
 62
    11
 10
3521.666667
 20
30973.017497
 30
0.0
 40
35.0
  1
1235
  0
POINT
  5
48
  8
DEFPOINTS
  6
BYBLOCK
 62
     0
 10
2962.5
 20
31325.0
 30
0.0
  0
POINT
  5
49
  8
DEFPOINTS
  6
BYBLOCK
 62
     0
 10
4197.5
 20
31725.0
 30
0.0
  0
POINT
  5
4A
  8
DEFPOINTS
  6
BYBLOCK
 62
     0
 10
4197.5
 20
30990.517497
 30
0.0
  0
ENDBLK
  5
4C
  8
0
  0
BLOCK
  8
0
  2
*D3
 70
     1
 10
0.0
 20
0.0
 30
0.0
  3
*D3
  1

  0
LINE
  5
5D
  8
0
  6
BYBLOCK
 62
     9
 10
4747.5
 20
32975.0
 30
0.0
 11
5088.15329
 21
32975.0
 31
0.0
  0
LINE
  5
5E
  8
0
  6
BYBLOCK
 62
     9
 10
4747.5
 20
31025.0
 30
0.0
 11
5088.15329
 21
31025.0
 31
0.0
  0
LINE
  5
5F
  8
0
  6
BYBLOCK
 62
     9
 10
5087.15329
 20
32955.0
 30
0.0
 11
5087.15329
 21
32070.416667
 31
0.0
  0
LINE
  5
60
  8
0
  6
BYBLOCK
 62
     9
 10
5087.15329
 20
31045.0
 30
0.0
 11
5087.15329
 21
31929.583333
 31
0.0
  0
SOLID
  5
61
  8
0
  6
BYBLOCK
 62
     9
 10
5083.819957
 20
32955.0
 30
0.0
 11
5090.486624
 21
32955.0
 31
0.0
 12
5087.15329
 22
32975.0
 32
0.0
 13
5087.15329
 23
32975.0
 33
0.0
  0
SOLID
  5
62
  8
0
  6
BYBLOCK
 62
     9
 10
5083.819957
 20
31045.0
 30
0.0
 11
5090.486624
 21
31045.0
 31
0.0
 12
5087.15329
 22
31025.0
 32
0.0
 13
5087.15329
 23
31025.0
 33
0.0
  0
TEXT
  5
63
  8
0
  6
BYBLOCK
 62
    11
 10
5104.65329
 20
31944.583333
 30
0.0
 40
35.0
  1
1950
 50
90.0
  0
POINT
  5
64
  8
DEFPOINTS
  6
BYBLOCK
 62
     0
 10
4737.5
 20
32975.0
 30
0.0
  0
POINT
  5
65
  8
DEFPOINTS
  6
BYBLOCK
 62
     0
 10
4737.5
 20
31025.0
 30
0.0
  0
POINT
  5
66
  8
DEFPOINTS
  6
BYBLOCK
 62
     0
 10
5087.15329
 20
31025.0
 30
0.0
  0
ENDBLK
  5
68
  8
0
  0
ENDSEC
  0
SECTION
  2
ENTITIES
  0
DIMENSION
  5
20
  8
TEAM-MAS
  2
*D0
 10
-1037.5
 20
1020.113338
 30
0.0
 11
0.0
 21
1020.113338
 31
0.0
 12
-4000.0
 22
-32000.0
 32
0.0
 13
1037.5
 23
675.0
 33
0.0
 14
-1037.5
 24
675.0
 34
0.0
1001
ACAD
1000
DSTYLE
1002
{
1070
    40
1040
1.0
1002
}
  0
POLYLINE
  5
2F
  8
TEAM-BODY
 66
     1
 10
0.0
 20
0.0
 30
0.0
  0
VERTEX
  5
2DB
  8
TEAM-BODY
 10
1037.5
 20
0.0
 30
0.0
  0
VERTEX
  5
2DC
  8
TEAM-BODY
 10
1037.5
 20
675.0
 30
0.0
 42
0.414214
  0
VERTEX
  5
2DD
  8
TEAM-BODY
 10
737.5
 20
975.0
 30
0.0
  0
VERTEX
  5
2DE
  8
TEAM-BODY
 10
-737.5
 20
975.0
 30
0.0
 42
0.414214
  0
VERTEX
  5
2DF
  8
TEAM-BODY
 10
-1037.5
 20
675.0
 30
0.0
  0
VERTEX
  5
2E0
  8
TEAM-BODY
 10
-1037.5
 20
0.0
 30
0.0
  0
SEQEND
  5
2E1
  8
TEAM-BODY
  0
DIMENSION
  5
31
  8
TEAM-MAS
  2
*D1
 10
-1073.829491
 20
-275.0
 30
0.0
 11
-1073.829491
 21
-625.0
 31
0.0
 12
-4000.0
 22
-32000.0
 32
0.0
 13
-737.5
 23
-975.0
 33
0.0
 14
197.5
 24
-275.0
 34
0.0
 50
270.0
1001
ACAD
1000
DSTYLE
1002
{
1070
    40
1040
1.0
1002
}
  0
DIMENSION
  5
3F
  8
TEAM-MAS
  2
*D2
 10
197.5
 20
-1009.482503
 30
0.0
 11
-420.0
 21
-1009.482503
 31
0.0
 12
-4000.0
 22
-32000.0
 32
0.0
 13
-1037.5
 23
-675.0
 33
0.0
 14
197.5
 24
-275.0
 34
0.0
1001
ACAD
1000
DSTYLE
1002
{
1070
    40
1040
1.0
1002
}
  0
POLYLINE
  5
4D
  8
TEAM-BODY
 66
     1
 10
0.0
 20
0.0
 30
0.0
  0
VERTEX
  5
2E2
  8
TEAM-BODY
 10
-1037.5
 20
0.0
 30
0.0
  0
VERTEX
  5
2E3
  8
TEAM-BODY
 10
-1037.5
 20
-675.0
 30
0.0
 42
0.414214
  0
VERTEX
  5
2E4
  8
TEAM-BODY
 10
-737.5
 20
-975.0
 30
0.0
  0
VERTEX
  5
2E5
  8
TEAM-BODY
 10
737.5
 20
-975.0
 30
0.0
 42
0.414214
  0
VERTEX
  5
2E6
  8
TEAM-BODY
 10
1037.5
 20
-675.0
 30
0.0
  0
VERTEX
  5
2E7
  8
TEAM-BODY
 10
1037.5
 20
0.0
 30
0.0
  0
SEQEND
  5
2E8
  8
TEAM-BODY
  0
POLYLINE
  5
4E
  8
TEAM-BODY
 66
     1
 10
0.0
 20
0.0
 30
0.0
  0
VERTEX
  5
2E9
  8
TEAM-BODY
 10
-997.5
 20
0.0
 30
0.0
  0
VERTEX
  5
2EA
  8
TEAM-BODY
 10
-997.5
 20
-675.0
 30
0.0
 42
0.414214
  0
VERTEX
  5
2EB
  8
TEAM-BODY
 10
-737.5
 20
-935.0
 30
0.0
  0
VERTEX
  5
2EC
  8
TEAM-BODY
 10
737.5
 20
-935.0
 30
0.0
 42
0.414214
  0
VERTEX
  5
2ED
  8
TEAM-BODY
 10
997.5
 20
-675.0
 30
0.0
  0
VERTEX
  5
2EE
  8
TEAM-BODY
 10
997.5
 20
0.0
 30
0.0
  0
SEQEND
  5
2EF
  8
TEAM-BODY
  0
POLYLINE
  5
4F
  8
TEAM-BODY
 66
     1
 10
0.0
 20
0.0
 30
0.0
  0
VERTEX
  5
2F0
  8
TEAM-BODY
 10
-897.5
 20
0.0
 30
0.0
  0
VERTEX
  5
2F1
  8
TEAM-BODY
 10
-897.5
 20
-675.0
 30
0.0
 42
0.414214
  0
VERTEX
  5
2F2
  8
TEAM-BODY
 10
-737.5
 20
-835.0
 30
0.0
  0
VERTEX
  5
2F3
  8
TEAM-BODY
 10
737.5
 20
-835.0
 30
0.0
 42
0.414214
  0
VERTEX
  5
2F4
  8
TEAM-BODY
 10
897.5
 20
-675.0
 30
0.0
  0
VERTEX
  5
2F5
  8
TEAM-BODY
 10
897.5
 20
0.0
 30
0.0
  0
SEQEND
  5
2F6
  8
TEAM-BODY
  0
POLYLINE
  5
50
  8
TEAM-BODY
 66
     1
 10
0.0
 20
0.0
 30
0.0
  0
VERTEX
  5
2F7
  8
TEAM-BODY
 10
897.5
 20
0.0
 30
0.0
  0
VERTEX
  5
2F8
  8
TEAM-BODY
 10
897.5
 20
675.0
 30
0.0
 42
0.414214
  0
VERTEX
  5
2F9
  8
TEAM-BODY
 10
737.5
 20
835.0
 30
0.0
  0
VERTEX
  5
2FA
  8
TEAM-BODY
 10
-737.5
 20
835.0
 30
0.0
 42
0.414214
  0
VERTEX
  5
2FB
  8
TEAM-BODY
 10
-897.5
 20
675.0
 30
0.0
  0
VERTEX
  5
2FC
  8
TEAM-BODY
 10
-897.5
 20
0.0
 30
0.0
  0
SEQEND
  5
2FD
  8
TEAM-BODY
  0
POLYLINE
  5
51
  8
TEAM-BODY
 66
     1
 10
0.0
 20
0.0
 30
0.0
  0
VERTEX
  5
2FE
  8
TEAM-BODY
 10
997.5
 20
0.0
 30
0.0
  0
VERTEX
  5
2FF
  8
TEAM-BODY
 10
997.5
 20
675.0
 30
0.0
 42
0.414214
  0
VERTEX
  5
300
  8
TEAM-BODY
 10
737.5
 20
935.0
 30
0.0
  0
VERTEX
  5
301
  8
TEAM-BODY
 10
-737.5
 20
935.0
 30
0.0
 42
0.414214
  0
VERTEX
  5
302
  8
TEAM-BODY
 10
-997.5
 20
675.0
 30
0.0
  0
VERTEX
  5
303
  8
TEAM-BODY
 10
-997.5
 20
0.0
 30
0.0
  0
SEQEND
  5
304
  8
TEAM-BODY
  0
TEXT
  5
52
  8
TEAM-TXT
 10
-654.925599
 20
678.93036
 30
0.0
 40
30.0
  1
team 121027
 41
0.8
 51
15.0
  7
TEAM
  0
LINE
  5
55
  8
TEAM-AXE
 10
1037.5
 20
0.0
 30
0.0
 11
-1037.5
 21
0.0
 31
0.0
  0
POLYLINE
  5
58
  8
TEAM-DET1
 66
     1
 10
0.0
 20
0.0
 30
0.0
 70
     1
  0
VERTEX
  5
305
  8
TEAM-DET1
 10
-946.601327
 20
-52.0
 30
0.0
  0
VERTEX
  5
306
  8
TEAM-DET1
 10
-944.802331
 20
-51.359792
 30
0.0
  0
VERTEX
  5
307
  8
TEAM-DET1
 10
-943.047631
 20
-49.454938
 30
0.0
  0
VERTEX
  5
308
  8
TEAM-DET1
 10
-941.380435
 20
-46.332338
 30
0.0
  0
VERTEX
  5
309
  8
TEAM-DET1
 10
-939.841795
 20
-42.068882
 30
0.0
  0
VERTEX
  5
30A
  8
TEAM-DET1
 10
-938.469599
 20
-36.769552
 30
0.0
  0
VERTEX
  5
30B
  8
TEAM-DET1
 10
-937.297631
 20
-30.564832
 30
0.0
  0
VERTEX
  5
30C
  8
TEAM-DET1
 10
-936.354751
 20
-23.607506
 30
0.0
  0
VERTEX
  5
30D
  8
TEAM-DET1
 10
-935.664177
 20
-16.068882
 30
0.0
  0
VERTEX
  5
30E
  8
TEAM-DET1
 10
-935.242911
 20
-8.134592
 30
0.0
  0
VERTEX
  5
30F
  8
TEAM-DET1
 10
-935.101327
 20
0.0
 30
0.0
  0
VERTEX
  5
310
  8
TEAM-DET1
 10
-935.242911
 20
8.134592
 30
0.0
  0
VERTEX
  5
311
  8
TEAM-DET1
 10
-935.664177
 20
16.068884
 30
0.0
  0
VERTEX
  5
312
  8
TEAM-DET1
 10
-936.354751
 20
23.607506
 30
0.0
  0
VERTEX
  5
313
  8
TEAM-DET1
 10
-937.297631
 20
30.564834
 30
0.0
  0
VERTEX
  5
314
  8
TEAM-DET1
 10
-938.469599
 20
36.769554
 30
0.0
  0
VERTEX
  5
315
  8
TEAM-DET1
 10
-939.841795
 20
42.068884
 30
0.0
  0
VERTEX
  5
316
  8
TEAM-DET1
 10
-941.380435
 20
46.33234
 30
0.0
  0
VERTEX
  5
317
  8
TEAM-DET1
 10
-943.047631
 20
49.45494
 30
0.0
  0
VERTEX
  5
318
  8
TEAM-DET1
 10
-944.802331
 20
51.359794
 30
0.0
  0
VERTEX
  5
319
  8
TEAM-DET1
 10
-946.601327
 20
52.0
 30
0.0
  0
VERTEX
  5
31A
  8
TEAM-DET1
 10
-948.400323
 20
51.359794
 30
0.0
  0
VERTEX
  5
31B
  8
TEAM-DET1
 10
-950.155021
 20
49.45494
 30
0.0
  0
VERTEX
  5
31C
  8
TEAM-DET1
 10
-951.822217
 20
46.33234
 30
0.0
  0
VERTEX
  5
31D
  8
TEAM-DET1
 10
-953.360857
 20
42.068884
 30
0.0
  0
VERTEX
  5
31E
  8
TEAM-DET1
 10
-954.733055
 20
36.769554
 30
0.0
  0
VERTEX
  5
31F
  8
TEAM-DET1
 10
-955.905021
 20
30.564834
 30
0.0
  0
VERTEX
  5
320
  8
TEAM-DET1
 10
-956.847901
 20
23.607506
 30
0.0
  0
VERTEX
  5
321
  8
TEAM-DET1
 10
-957.538477
 20
16.068884
 30
0.0
  0
VERTEX
  5
322
  8
TEAM-DET1
 10
-957.959743
 20
8.134592
 30
0.0
  0
VERTEX
  5
323
  8
TEAM-DET1
 10
-958.101327
 20
0.0
 30
0.0
  0
VERTEX
  5
324
  8
TEAM-DET1
 10
-957.959743
 20
-8.134592
 30
0.0
  0
VERTEX
  5
325
  8
TEAM-DET1
 10
-957.538477
 20
-16.068882
 30
0.0
  0
VERTEX
  5
326
  8
TEAM-DET1
 10
-956.847901
 20
-23.607506
 30
0.0
  0
VERTEX
  5
327
  8
TEAM-DET1
 10
-955.905021
 20
-30.564832
 30
0.0
  0
VERTEX
  5
328
  8
TEAM-DET1
 10
-954.733055
 20
-36.769552
 30
0.0
  0
VERTEX
  5
329
  8
TEAM-DET1
 10
-953.360857
 20
-42.068882
 30
0.0
  0
VERTEX
  5
32A
  8
TEAM-DET1
 10
-951.822217
 20
-46.332338
 30
0.0
  0
VERTEX
  5
32B
  8
TEAM-DET1
 10
-950.155021
 20
-49.454938
 30
0.0
  0
VERTEX
  5
32C
  8
TEAM-DET1
 10
-948.400323
 20
-51.359792
 30
0.0
  0
SEQEND
  5
32D
  8
TEAM-DET1
  0
POLYLINE
  5
5A
  8
TEAM-DET1
 66
     1
 10
0.0
 20
0.0
 30
0.0
 70
     1
  0
VERTEX
  5
32E
  8
TEAM-DET1
 10
-970.854377
 20
-79.73689
 30
0.0
  0
VERTEX
  5
32F
  8
TEAM-DET1
 10
-970.854377
 20
79.73689
 30
0.0
  0
VERTEX
  5
330
  8
TEAM-DET1
 10
-922.348277
 20
79.73689
 30
0.0
  0
VERTEX
  5
331
  8
TEAM-DET1
 10
-922.348277
 20
-79.73689
 30
0.0
  0
SEQEND
  5
332
  8
TEAM-DET1
  0
DIMENSION
  5
5B
  8
TEAM-MAS
  2
*D3
 10
1087.15329
 20
-975.0
 30
0.0
 11
1087.15329
 21
0.0
 31
0.0
 12
-4000.0
 22
-32000.0
 32
0.0
 13
737.5
 23
975.0
 33
0.0
 14
737.5
 24
-975.0
 34
0.0
 50
270.0
1001
ACAD
1000
DSTYLE
1002
{
1070
    40
1040
1.0
1002
}
  0
POLYLINE
  5
69
  8
TEAM-DET1
 66
     1
 10
0.0
 20
0.0
 30
0.0
 70
     1
  0
VERTEX
  5
333
  8
TEAM-DET1
 10
-79.73689
 20
-978.067896
 30
0.0
  0
VERTEX
  5
334
  8
TEAM-DET1
 10
79.73689
 20
-978.067896
 30
0.0
  0
VERTEX
  5
335
  8
TEAM-DET1
 10
79.73689
 20
-965.090896
 30
0.0
  0
VERTEX
  5
336
  8
TEAM-DET1
 10
-79.73689
 20
-965.090896
 30
0.0
  0
SEQEND
  5
337
  8
TEAM-DET1
  0
POLYLINE
  5
6A
  8
TEAM-DET1
 66
     1
 10
0.0
 20
0.0
 30
0.0
 70
     1
  0
VERTEX
  5
338
  8
TEAM-DET1
 10
-79.73689
 20
-965.090896
 30
0.0
  0
VERTEX
  5
339
  8
TEAM-DET1
 10
79.73689
 20
-965.090896
 30
0.0
  0
VERTEX
  5
33A
  8
TEAM-DET1
 10
79.73689
 20
-952.113897
 30
0.0
  0
VERTEX
  5
33B
  8
TEAM-DET1
 10
-79.73689
 20
-952.113897
 30
0.0
  0
SEQEND
  5
33C
  8
TEAM-DET1
  0
POLYLINE
  5
6B
  8
TEAM-DET1
 66
     1
 10
0.0
 20
0.0
 30
0.0
 70
     1
  0
VERTEX
  5
33D
  8
TEAM-DET1
 10
-79.73689
 20
-952.113897
 30
0.0
  0
VERTEX
  5
33E
  8
TEAM-DET1
 10
79.73689
 20
-952.113897
 30
0.0
  0
VERTEX
  5
33F
  8
TEAM-DET1
 10
79.73689
 20
-939.136897
 30
0.0
  0
VERTEX
  5
340
  8
TEAM-DET1
 10
-79.73689
 20
-939.136897
 30
0.0
  0
SEQEND
  5
341
  8
TEAM-DET1
  0
POLYLINE
  5
6C
  8
TEAM-DET1
 66
     1
 10
0.0
 20
0.0
 30
0.0
 70
     1
  0
VERTEX
  5
342
  8
TEAM-DET1
 10
-79.73689
 20
-939.136897
 30
0.0
  0
VERTEX
  5
343
  8
TEAM-DET1
 10
79.73689
 20
-939.136897
 30
0.0
  0
VERTEX
  5
344
  8
TEAM-DET1
 10
79.73689
 20
-926.159898
 30
0.0
  0
VERTEX
  5
345
  8
TEAM-DET1
 10
-79.73689
 20
-926.159898
 30
0.0
  0
SEQEND
  5
346
  8
TEAM-DET1
  0
POLYLINE
  5
6D
  8
TEAM-DET1
 66
     1
 10
0.0
 20
0.0
 30
0.0
 70
     1
  0
VERTEX
  5
347
  8
TEAM-DET1
 10
-79.73689
 20
-926.159898
 30
0.0
  0
VERTEX
  5
348
  8
TEAM-DET1
 10
79.73689
 20
-926.159898
 30
0.0
  0
VERTEX
  5
349
  8
TEAM-DET1
 10
79.73689
 20
-913.182898
 30
0.0
  0
VERTEX
  5
34A
  8
TEAM-DET1
 10
-79.73689
 20
-913.182898
 30
0.0
  0
SEQEND
  5
34B
  8
TEAM-DET1
  0
POLYLINE
  5
6E
  8
TEAM-BODY
 66
     1
 10
0.0
 20
0.0
 30
0.0
  0
VERTEX
  5
34C
  8
TEAM-BODY
 10
-397.5
 20
0.0
 30
0.0
  0
VERTEX
  5
34D
  8
TEAM-BODY
 10
-397.5
 20
-585.0
 30
0.0
 42
0.414214
  0
VERTEX
  5
34E
  8
TEAM-BODY
 10
-347.5
 20
-635.0
 30
0.0
  0
VERTEX
  5
34F
  8
TEAM-BODY
 10
547.5
 20
-635.0
 30
0.0
 42
0.414214
  0
VERTEX
  5
350
  8
TEAM-BODY
 10
597.5
 20
-585.0
 30
0.0
  0
VERTEX
  5
351
  8
TEAM-BODY
 10
597.5
 20
0.0
 30
0.0
  0
SEQEND
  5
352
  8
TEAM-BODY
  0
POLYLINE
  5
6F
  8
TEAM-DET1
 66
     1
 10
0.0
 20
0.0
 30
0.0
 70
     1
  0
VERTEX
  5
353
  8
TEAM-DET1
 10
-79.73689
 20
913.182898
 30
0.0
  0
VERTEX
  5
354
  8
TEAM-DET1
 10
79.73689
 20
913.182898
 30
0.0
  0
VERTEX
  5
355
  8
TEAM-DET1
 10
79.73689
 20
864.676798
 30
0.0
  0
VERTEX
  5
356
  8
TEAM-DET1
 10
-79.73689
 20
864.676798
 30
0.0
  0
SEQEND
  5
357
  8
TEAM-DET1
  0
POLYLINE
  5
70
  8
TEAM-DET1
 66
     1
 10
0.0
 20
0.0
 30
0.0
 70
     1
  0
VERTEX
  5
358
  8
TEAM-DET1
 10
-52.0
 20
888.929848
 30
0.0
  0
VERTEX
  5
359
  8
TEAM-DET1
 10
-51.359792
 20
887.130852
 30
0.0
  0
VERTEX
  5
35A
  8
TEAM-DET1
 10
-49.454938
 20
885.376152
 30
0.0
  0
VERTEX
  5
35B
  8
TEAM-DET1
 10
-46.332338
 20
883.708956
 30
0.0
  0
VERTEX
  5
35C
  8
TEAM-DET1
 10
-42.068882
 20
882.170316
 30
0.0
  0
VERTEX
  5
35D
  8
TEAM-DET1
 10
-36.769552
 20
880.79812
 30
0.0
  0
VERTEX
  5
35E
  8
TEAM-DET1
 10
-30.564832
 20
879.626152
 30
0.0
  0
VERTEX
  5
35F
  8
TEAM-DET1
 10
-23.607506
 20
878.683272
 30
0.0
  0
VERTEX
  5
360
  8
TEAM-DET1
 10
-16.068882
 20
877.992698
 30
0.0
  0
VERTEX
  5
361
  8
TEAM-DET1
 10
-8.134592
 20
877.571432
 30
0.0
  0
VERTEX
  5
362
  8
TEAM-DET1
 10
0.0
 20
877.429848
 30
0.0
  0
VERTEX
  5
363
  8
TEAM-DET1
 10
8.134592
 20
877.571432
 30
0.0
  0
VERTEX
  5
364
  8
TEAM-DET1
 10
16.068884
 20
877.992698
 30
0.0
  0
VERTEX
  5
365
  8
TEAM-DET1
 10
23.607506
 20
878.683272
 30
0.0
  0
VERTEX
  5
366
  8
TEAM-DET1
 10
30.564834
 20
879.626152
 30
0.0
  0
VERTEX
  5
367
  8
TEAM-DET1
 10
36.769554
 20
880.79812
 30
0.0
  0
VERTEX
  5
368
  8
TEAM-DET1
 10
42.068884
 20
882.170316
 30
0.0
  0
VERTEX
  5
369
  8
TEAM-DET1
 10
46.33234
 20
883.708956
 30
0.0
  0
VERTEX
  5
36A
  8
TEAM-DET1
 10
49.45494
 20
885.376152
 30
0.0
  0
VERTEX
  5
36B
  8
TEAM-DET1
 10
51.359794
 20
887.130852
 30
0.0
  0
VERTEX
  5
36C
  8
TEAM-DET1
 10
52.0
 20
888.929848
 30
0.0
  0
VERTEX
  5
36D
  8
TEAM-DET1
 10
51.359794
 20
890.728844
 30
0.0
  0
VERTEX
  5
36E
  8
TEAM-DET1
 10
49.45494
 20
892.483542
 30
0.0
  0
VERTEX
  5
36F
  8
TEAM-DET1
 10
46.33234
 20
894.150738
 30
0.0
  0
VERTEX
  5
370
  8
TEAM-DET1
 10
42.068884
 20
895.689378
 30
0.0
  0
VERTEX
  5
371
  8
TEAM-DET1
 10
36.769554
 20
897.061576
 30
0.0
  0
VERTEX
  5
372
  8
TEAM-DET1
 10
30.564834
 20
898.233542
 30
0.0
  0
VERTEX
  5
373
  8
TEAM-DET1
 10
23.607506
 20
899.176422
 30
0.0
  0
VERTEX
  5
374
  8
TEAM-DET1
 10
16.068884
 20
899.866998
 30
0.0
  0
VERTEX
  5
375
  8
TEAM-DET1
 10
8.134592
 20
900.288264
 30
0.0
  0
VERTEX
  5
376
  8
TEAM-DET1
 10
0.0
 20
900.429848
 30
0.0
  0
VERTEX
  5
377
  8
TEAM-DET1
 10
-8.134592
 20
900.288264
 30
0.0
  0
VERTEX
  5
378
  8
TEAM-DET1
 10
-16.068882
 20
899.866998
 30
0.0
  0
VERTEX
  5
379
  8
TEAM-DET1
 10
-23.607506
 20
899.176422
 30
0.0
  0
VERTEX
  5
37A
  8
TEAM-DET1
 10
-30.564832
 20
898.233542
 30
0.0
  0
VERTEX
  5
37B
  8
TEAM-DET1
 10
-36.769552
 20
897.061576
 30
0.0
  0
VERTEX
  5
37C
  8
TEAM-DET1
 10
-42.068882
 20
895.689378
 30
0.0
  0
VERTEX
  5
37D
  8
TEAM-DET1
 10
-46.332338
 20
894.150738
 30
0.0
  0
VERTEX
  5
37E
  8
TEAM-DET1
 10
-49.454938
 20
892.483542
 30
0.0
  0
VERTEX
  5
37F
  8
TEAM-DET1
 10
-51.359792
 20
890.728844
 30
0.0
  0
SEQEND
  5
380
  8
TEAM-DET1
  0
POLYLINE
  5
71
  8
TEAM-DET1
 66
     1
 10
0.0
 20
0.0
 30
0.0
 70
     1
  0
VERTEX
  5
381
  8
TEAM-DET1
 10
970.854377
 20
-79.73689
 30
0.0
  0
VERTEX
  5
382
  8
TEAM-DET1
 10
970.854377
 20
79.73689
 30
0.0
  0
VERTEX
  5
383
  8
TEAM-DET1
 10
922.348277
 20
79.73689
 30
0.0
  0
VERTEX
  5
384
  8
TEAM-DET1
 10
922.348277
 20
-79.73689
 30
0.0
  0
SEQEND
  5
385
  8
TEAM-DET1
  0
POLYLINE
  5
72
  8
TEAM-DET1
 66
     1
 10
0.0
 20
0.0
 30
0.0
 70
     1
  0
VERTEX
  5
386
  8
TEAM-DET1
 10
946.601327
 20
-52.0
 30
0.0
  0
VERTEX
  5
387
  8
TEAM-DET1
 10
944.802331
 20
-51.359792
 30
0.0
  0
VERTEX
  5
388
  8
TEAM-DET1
 10
943.047631
 20
-49.454938
 30
0.0
  0
VERTEX
  5
389
  8
TEAM-DET1
 10
941.380435
 20
-46.332338
 30
0.0
  0
VERTEX
  5
38A
  8
TEAM-DET1
 10
939.841795
 20
-42.068882
 30
0.0
  0
VERTEX
  5
38B
  8
TEAM-DET1
 10
938.469599
 20
-36.769552
 30
0.0
  0
VERTEX
  5
38C
  8
TEAM-DET1
 10
937.297631
 20
-30.564832
 30
0.0
  0
VERTEX
  5
38D
  8
TEAM-DET1
 10
936.354751
 20
-23.607506
 30
0.0
  0
VERTEX
  5
38E
  8
TEAM-DET1
 10
935.664177
 20
-16.068882
 30
0.0
  0
VERTEX
  5
38F
  8
TEAM-DET1
 10
935.242911
 20
-8.134592
 30
0.0
  0
VERTEX
  5
390
  8
TEAM-DET1
 10
935.101327
 20
0.0
 30
0.0
  0
VERTEX
  5
391
  8
TEAM-DET1
 10
935.242911
 20
8.134592
 30
0.0
  0
VERTEX
  5
392
  8
TEAM-DET1
 10
935.664177
 20
16.068884
 30
0.0
  0
VERTEX
  5
393
  8
TEAM-DET1
 10
936.354751
 20
23.607506
 30
0.0
  0
VERTEX
  5
394
  8
TEAM-DET1
 10
937.297631
 20
30.564834
 30
0.0
  0
VERTEX
  5
395
  8
TEAM-DET1
 10
938.469599
 20
36.769554
 30
0.0
  0
VERTEX
  5
396
  8
TEAM-DET1
 10
939.841795
 20
42.068884
 30
0.0
  0
VERTEX
  5
397
  8
TEAM-DET1
 10
941.380435
 20
46.33234
 30
0.0
  0
VERTEX
  5
398
  8
TEAM-DET1
 10
943.047631
 20
49.45494
 30
0.0
  0
VERTEX
  5
399
  8
TEAM-DET1
 10
944.802331
 20
51.359794
 30
0.0
  0
VERTEX
  5
39A
  8
TEAM-DET1
 10
946.601327
 20
52.0
 30
0.0
  0
VERTEX
  5
39B
  8
TEAM-DET1
 10
948.400323
 20
51.359794
 30
0.0
  0
VERTEX
  5
39C
  8
TEAM-DET1
 10
950.155021
 20
49.45494
 30
0.0
  0
VERTEX
  5
39D
  8
TEAM-DET1
 10
951.822217
 20
46.33234
 30
0.0
  0
VERTEX
  5
39E
  8
TEAM-DET1
 10
953.360857
 20
42.068884
 30
0.0
  0
VERTEX
  5
39F
  8
TEAM-DET1
 10
954.733055
 20
36.769554
 30
0.0
  0
VERTEX
  5
3A0
  8
TEAM-DET1
 10
955.905021
 20
30.564834
 30
0.0
  0
VERTEX
  5
3A1
  8
TEAM-DET1
 10
956.847901
 20
23.607506
 30
0.0
  0
VERTEX
  5
3A2
  8
TEAM-DET1
 10
957.538477
 20
16.068884
 30
0.0
  0
VERTEX
  5
3A3
  8
TEAM-DET1
 10
957.959743
 20
8.134592
 30
0.0
  0
VERTEX
  5
3A4
  8
TEAM-DET1
 10
958.101327
 20
0.0
 30
0.0
  0
VERTEX
  5
3A5
  8
TEAM-DET1
 10
957.959743
 20
-8.134592
 30
0.0
  0
VERTEX
  5
3A6
  8
TEAM-DET1
 10
957.538477
 20
-16.068882
 30
0.0
  0
VERTEX
  5
3A7
  8
TEAM-DET1
 10
956.847901
 20
-23.607506
 30
0.0
  0
VERTEX
  5
3A8
  8
TEAM-DET1
 10
955.905021
 20
-30.564832
 30
0.0
  0
VERTEX
  5
3A9
  8
TEAM-DET1
 10
954.733055
 20
-36.769552
 30
0.0
  0
VERTEX
  5
3AA
  8
TEAM-DET1
 10
953.360857
 20
-42.068882
 30
0.0
  0
VERTEX
  5
3AB
  8
TEAM-DET1
 10
951.822217
 20
-46.332338
 30
0.0
  0
VERTEX
  5
3AC
  8
TEAM-DET1
 10
950.155021
 20
-49.454938
 30
0.0
  0
VERTEX
  5
3AD
  8
TEAM-DET1
 10
948.400323
 20
-51.359792
 30
0.0
  0
SEQEND
  5
3AE
  8
TEAM-DET1
  0
POLYLINE
  5
73
  8
TEAM-BODY
 66
     1
 10
0.0
 20
0.0
 30
0.0
  0
VERTEX
  5
3AF
  8
TEAM-BODY
 10
597.5
 20
0.0
 30
0.0
  0
VERTEX
  5
3B0
  8
TEAM-BODY
 10
597.5
 20
585.0
 30
0.0
 42
0.414214
  0
VERTEX
  5
3B1
  8
TEAM-BODY
 10
547.5
 20
635.0
 30
0.0
  0
VERTEX
  5
3B2
  8
TEAM-BODY
 10
-347.5
 20
635.0
 30
0.0
 42
0.414214
  0
VERTEX
  5
3B3
  8
TEAM-BODY
 10
-397.5
 20
585.0
 30
0.0
  0
VERTEX
  5
3B4
  8
TEAM-BODY
 10
-397.5
 20
0.0
 30
0.0
  0
SEQEND
  5
3B5
  8
TEAM-BODY
  0
LINE
  5
74
  8
TEAM-AXE
 10
272.5
 20
-275.0
 30
0.0
 11
122.5
 21
-275.0
 31
0.0
  0
POLYLINE
  5
75
  8
TEAM-DET1
 66
     1
 10
0.0
 20
0.0
 30
0.0
 70
     1
  0
VERTEX
  5
3B6
  8
TEAM-DET1
 10
-52.0
 20
-888.929848
 30
0.0
  0
VERTEX
  5
3B7
  8
TEAM-DET1
 10
-51.359792
 20
-887.130852
 30
0.0
  0
VERTEX
  5
3B8
  8
TEAM-DET1
 10
-49.454938
 20
-885.376152
 30
0.0
  0
VERTEX
  5
3B9
  8
TEAM-DET1
 10
-46.332338
 20
-883.708956
 30
0.0
  0
VERTEX
  5
3BA
  8
TEAM-DET1
 10
-42.068882
 20
-882.170316
 30
0.0
  0
VERTEX
  5
3BB
  8
TEAM-DET1
 10
-36.769552
 20
-880.79812
 30
0.0
  0
VERTEX
  5
3BC
  8
TEAM-DET1
 10
-30.564832
 20
-879.626152
 30
0.0
  0
VERTEX
  5
3BD
  8
TEAM-DET1
 10
-23.607506
 20
-878.683272
 30
0.0
  0
VERTEX
  5
3BE
  8
TEAM-DET1
 10
-16.068882
 20
-877.992698
 30
0.0
  0
VERTEX
  5
3BF
  8
TEAM-DET1
 10
-8.134592
 20
-877.571432
 30
0.0
  0
VERTEX
  5
3C0
  8
TEAM-DET1
 10
0.0
 20
-877.429848
 30
0.0
  0
VERTEX
  5
3C1
  8
TEAM-DET1
 10
8.134592
 20
-877.571432
 30
0.0
  0
VERTEX
  5
3C2
  8
TEAM-DET1
 10
16.068884
 20
-877.992698
 30
0.0
  0
VERTEX
  5
3C3
  8
TEAM-DET1
 10
23.607506
 20
-878.683272
 30
0.0
  0
VERTEX
  5
3C4
  8
TEAM-DET1
 10
30.564834
 20
-879.626152
 30
0.0
  0
VERTEX
  5
3C5
  8
TEAM-DET1
 10
36.769554
 20
-880.79812
 30
0.0
  0
VERTEX
  5
3C6
  8
TEAM-DET1
 10
42.068884
 20
-882.170316
 30
0.0
  0
VERTEX
  5
3C7
  8
TEAM-DET1
 10
46.33234
 20
-883.708956
 30
0.0
  0
VERTEX
  5
3C8
  8
TEAM-DET1
 10
49.45494
 20
-885.376152
 30
0.0
  0
VERTEX
  5
3C9
  8
TEAM-DET1
 10
51.359794
 20
-887.130852
 30
0.0
  0
VERTEX
  5
3CA
  8
TEAM-DET1
 10
52.0
 20
-888.929848
 30
0.0
  0
VERTEX
  5
3CB
  8
TEAM-DET1
 10
51.359794
 20
-890.728844
 30
0.0
  0
VERTEX
  5
3CC
  8
TEAM-DET1
 10
49.45494
 20
-892.483542
 30
0.0
  0
VERTEX
  5
3CD
  8
TEAM-DET1
 10
46.33234
 20
-894.150738
 30
0.0
  0
VERTEX
  5
3CE
  8
TEAM-DET1
 10
42.068884
 20
-895.689378
 30
0.0
  0
VERTEX
  5
3CF
  8
TEAM-DET1
 10
36.769554
 20
-897.061576
 30
0.0
  0
VERTEX
  5
3D0
  8
TEAM-DET1
 10
30.564834
 20
-898.233542
 30
0.0
  0
VERTEX
  5
3D1
  8
TEAM-DET1
 10
23.607506
 20
-899.176422
 30
0.0
  0
VERTEX
  5
3D2
  8
TEAM-DET1
 10
16.068884
 20
-899.866998
 30
0.0
  0
VERTEX
  5
3D3
  8
TEAM-DET1
 10
8.134592
 20
-900.288264
 30
0.0
  0
VERTEX
  5
3D4
  8
TEAM-DET1
 10
0.0
 20
-900.429848
 30
0.0
  0
VERTEX
  5
3D5
  8
TEAM-DET1
 10
-8.134592
 20
-900.288264
 30
0.0
  0
VERTEX
  5
3D6
  8
TEAM-DET1
 10
-16.068882
 20
-899.866998
 30
0.0
  0
VERTEX
  5
3D7
  8
TEAM-DET1
 10
-23.607506
 20
-899.176422
 30
0.0
  0
VERTEX
  5
3D8
  8
TEAM-DET1
 10
-30.564832
 20
-898.233542
 30
0.0
  0
VERTEX
  5
3D9
  8
TEAM-DET1
 10
-36.769552
 20
-897.061576
 30
0.0
  0
VERTEX
  5
3DA
  8
TEAM-DET1
 10
-42.068882
 20
-895.689378
 30
0.0
  0
VERTEX
  5
3DB
  8
TEAM-DET1
 10
-46.332338
 20
-894.150738
 30
0.0
  0
VERTEX
  5
3DC
  8
TEAM-DET1
 10
-49.454938
 20
-892.483542
 30
0.0
  0
VERTEX
  5
3DD
  8
TEAM-DET1
 10
-51.359792
 20
-890.728844
 30
0.0
  0
SEQEND
  5
3DE
  8
TEAM-DET1
  0
POLYLINE
  5
76
  8
TEAM-DET1
 66
     1
 10
0.0
 20
0.0
 30
0.0
 70
     1
  0
VERTEX
  5
3DF
  8
TEAM-DET1
 10
-79.73689
 20
-913.182898
 30
0.0
  0
VERTEX
  5
3E0
  8
TEAM-DET1
 10
79.73689
 20
-913.182898
 30
0.0
  0
VERTEX
  5
3E1
  8
TEAM-DET1
 10
79.73689
 20
-864.676798
 30
0.0
  0
VERTEX
  5
3E2
  8
TEAM-DET1
 10
-79.73689
 20
-864.676798
 30
0.0
  0
SEQEND
  5
3E3
  8
TEAM-DET1
  0
LINE
  5
77
  8
TEAM-AXE
 10
0.0
 20
-975.0
 30
0.0
 11
0.0
 21
975.0
 31
0.0
  0
LINE
  5
78
  8
TEAM-AXE
 10
197.5
 20
-200.0
 30
0.0
 11
197.5
 21
-350.0
 31
0.0
  0
POLYLINE
  5
79
  8
TEAM-BODY
 66
     1
 10
0.0
 20
0.0
 30
0.0
  0
VERTEX
  5
3E4
  8
TEAM-BODY
 10
197.5
 20
-350.0
 30
0.0
  0
VERTEX
  5
3E5
  8
TEAM-BODY
 10
122.5
 20
-350.0
 30
0.0
  0
VERTEX
  5
3E6
  8
TEAM-BODY
 10
122.5
 20
-200.0
 30
0.0
  0
VERTEX
  5
3E7
  8
TEAM-BODY
 10
197.5
 20
-200.0
 30
0.0
  0
SEQEND
  5
3E8
  8
TEAM-BODY
  0
POLYLINE
  5
7A
  8
TEAM-BODY
 66
     1
 10
0.0
 20
0.0
 30
0.0
  0
VERTEX
  5
3E9
  8
TEAM-BODY
 10
197.5
 20
-350.0
 30
0.0
  0
VERTEX
  5
3EA
  8
TEAM-BODY
 10
272.5
 20
-350.0
 30
0.0
  0
VERTEX
  5
3EB
  8
TEAM-BODY
 10
272.5
 20
-200.0
 30
0.0
  0
VERTEX
  5
3EC
  8
TEAM-BODY
 10
197.5
 20
-200.0
 30
0.0
  0
SEQEND
  5
3ED
  8
TEAM-BODY
  0
CIRCLE
  5
7B
  8
TEAM-INSP
 10
0.0
 20
0.0
 30
0.0
 40
10.0
  0
ENDSEC
  0
EOF
