  0
SECTION
  2
HEADER
  9
$ACADVER
  1
AC1009
  9
$INSBASE
 10
0.0
 20
0.0
 30
0.0
  9
$EXTMIN
 10
-801.287228
 20
-10.052151
 30
0.0
  9
$EXTMAX
 10
915.067324
 20
764.257234
 30
0.000005
  9
$LIMMIN
 10
-801.287228
 20
-10.052151
  9
$LIMMAX
 10
915.067324
 20
764.257234
  9
$ORTHOMODE
 70
     1
  9
$REGENMODE
 70
     1
  9
$FILLMODE
 70
     1
  9
$QTEXTMODE
 70
     0
  9
$MIRRTEXT
 70
     0
  9
$DRAGMODE
 70
     2
  9
$LTSCALE
 40
50.0
  9
$OSMODE
 70
     7
  9
$ATTMODE
 70
     1
  9
$TEXTSIZE
 40
200.0
  9
$TRACEWID
 40
1.0
  9
$TEXTSTYLE
  7
STANDARD
  9
$CLAYER
  8
TEAM-MAS
  9
$CELTYPE
  6
BYLAYER
  9
$CECOLOR
 62
   256
  9
$DIMSCALE
 40
1.0
  9
$DIMASZ
 40
20.0
  9
$DIMEXO
 40
10.0
  9
$DIMDLI
 40
1.0
  9
$DIMRND
 40
0.0
  9
$DIMDLE
 40
0.0
  9
$DIMEXE
 40
1.0
  9
$DIMTP
 40
0.0
  9
$DIMTM
 40
0.0
  9
$DIMTXT
 40
35.0
  9
$DIMCEN
 40
1.0
  9
$DIMTSZ
 40
0.0
  9
$DIMTOL
 70
     0
  9
$DIMLIM
 70
     0
  9
$DIMTIH
 70
     0
  9
$DIMTOH
 70
     0
  9
$DIMSE1
 70
     0
  9
$DIMSE2
 70
     0
  9
$DIMTAD
 70
     0
  9
$DIMZIN
 70
     0
  9
$DIMBLK
  1

  9
$DIMASO
 70
     1
  9
$DIMSHO
 70
     0
  9
$DIMPOST
  1

  9
$DIMAPOST
  1

  9
$DIMALT
 70
     0
  9
$DIMALTD
 70
     2
  9
$DIMALTF
 40
25.4
  9
$DIMLFAC
 40
1.0
  9
$DIMTOFL
 70
     0
  9
$DIMTVP
 40
0.0
  9
$DIMTIX
 70
     0
  9
$DIMSOXD
 70
     0
  9
$DIMSAH
 70
     0
  9
$DIMBLK1
  1

  9
$DIMBLK2
  1

  9
$DIMSTYLE
  2
TEAM
  9
$DIMCLRD
 70
     9
  9
$DIMCLRE
 70
     9
  9
$DIMCLRT
 70
    11
  9
$DIMTFAC
 40
1.0
  9
$DIMGAP
 40
15.0
  9
$LUNITS
 70
     2
  9
$LUPREC
 70
     1
  9
$SKETCHINC
 40
1.0
  9
$FILLETRAD
 40
300.0
  9
$AUNITS
 70
     0
  9
$AUPREC
 70
     0
  9
$MENU
  1
ROPLANS
  9
$ELEVATION
 40
0.0
  9
$PELEVATION
 40
0.0
  9
$THICKNESS
 40
0.0
  9
$LIMCHECK
 70
     0
  9
$BLIPMODE
 70
     1
  9
$CHAMFERA
 40
0.0
  9
$CHAMFERB
 40
0.0
  9
$SKPOLY
 70
     0
  9
$TDCREATE
 40
2450392.957851
  9
$TDUPDATE
 40
2455843.591272
  9
$TDINDWG
 40
2.850297
  9
$TDUSRTIMER
 40
2.850297
  9
$USRTIMER
 70
     1
  9
$ANGBASE
 50
0.0
  9
$ANGDIR
 70
     0
  9
$PDMODE
 70
     0
  9
$PDSIZE
 40
0.0
  9
$PLINEWID
 40
0.0
  9
$COORDS
 70
     2
  9
$SPLFRAME
 70
     0
  9
$SPLINETYPE
 70
     6
  9
$SPLINESEGS
 70
     8
  9
$ATTDIA
 70
     0
  9
$ATTREQ
 70
     0
  9
$HANDLING
 70
     1
  9
$HANDSEED
  5
1B5
  9
$SURFTAB1
 70
    64
  9
$SURFTAB2
 70
    64
  9
$SURFTYPE
 70
     6
  9
$SURFU
 70
     6
  9
$SURFV
 70
     6
  9
$UCSNAME
  2

  9
$UCSORG
 10
0.0
 20
0.0
 30
0.0
  9
$UCSXDIR
 10
1.0
 20
0.0
 30
0.0
  9
$UCSYDIR
 10
0.0
 20
1.0
 30
0.0
  9
$PUCSNAME
  2

  9
$PUCSORG
 10
0.0
 20
0.0
 30
0.0
  9
$PUCSXDIR
 10
1.0
 20
0.0
 30
0.0
  9
$PUCSYDIR
 10
0.0
 20
1.0
 30
0.0
  9
$USERI1
 70
     0
  9
$USERI2
 70
     0
  9
$USERI3
 70
     0
  9
$USERI4
 70
     0
  9
$USERI5
 70
     0
  9
$USERR1
 40
0.0
  9
$USERR2
 40
0.0
  9
$USERR3
 40
0.0
  9
$USERR4
 40
0.0
  9
$USERR5
 40
0.0
  9
$WORLDVIEW
 70
     1
  9
$SHADEDGE
 70
     0
  9
$SHADEDIF
 70
    70
  9
$TILEMODE
 70
     1
  9
$MAXACTVP
 70
    16
  9
$PLIMCHECK
 70
     0
  9
$PEXTMIN
 10
-0.805942
 20
0.005011
 30
0.0
  9
$PEXTMAX
 10
20.250094
 20
11.356329
 30
0.0
  9
$PLIMMIN
 10
0.0
 20
0.0
  9
$PLIMMAX
 10
12.0
 20
9.0
  9
$UNITMODE
 70
     0
  9
$VISRETAIN
 70
     0
  9
$PLINEGEN
 70
     0
  9
$PSLTSCALE
 70
     0
  0
ENDSEC
  0
SECTION
  2
TABLES
  0
TABLE
  2
VPORT
 70
     2
  0
VPORT
  2
*ACTIVE
 70
     0
 10
0.0
 20
0.0
 11
1.0
 21
1.0
 12
56.890048
 22
377.102541
 13
0.0
 23
0.0
 14
1.0
 24
1.0
 15
50.0
 25
50.0
 16
0.0
 26
0.0
 36
1.0
 17
0.0
 27
0.0
 37
0.0
 40
904.526728
 41
1.903766
 42
50.0
 43
0.0
 44
0.0
 50
0.0
 51
0.0
 71
     0
 72
   100
 73
     1
 74
     1
 75
     0
 76
     0
 77
     0
 78
     0
  0
ENDTAB
  0
TABLE
  2
LTYPE
 70
     3
  0
LTYPE
  2
CONTINUOUS
 70
     0
  3
Solid Line
 72
    65
 73
     0
 40
0.0
  0
LTYPE
  2
31
 70
     0
  3

 72
    65
 73
     4
 40
2.1
 49
1.5
 49
-0.3
 49
0.0
 49
-0.3
  0
LTYPE
  2
22
 70
     0
  3

 72
    65
 73
     2
 40
1.4
 49
1.2
 49
-0.2
  0
ENDTAB
  0
TABLE
  2
LAYER
 70
    11
  0
LAYER
  2
0
 70
     0
 62
     7
  6
CONTINUOUS
  0
LAYER
  2
DEFPOINTS
 70
     0
 62
     7
  6
CONTINUOUS
  0
LAYER
  2
TEAM-BODY
 70
     0
 62
     2
  6
CONTINUOUS
  0
LAYER
  2
TEAM-AXE
 70
     0
 62
    10
  6
31
  0
LAYER
  2
TEAM-MAS
 70
     0
 62
     9
  6
CONTINUOUS
  0
LAYER
  2
TEAM-TXT
 70
     0
 62
    11
  6
CONTINUOUS
  0
LAYER
  2
TEAM-DET1
 70
     0
 62
     4
  6
CONTINUOUS
  0
LAYER
  2
TEAM-HIDE
 70
     0
 62
     8
  6
22
  0
LAYER
  2
TEAM-KAN
 70
     0
 62
     6
  6
CONTINUOUS
  0
LAYER
  2
TEAM-DET3
 70
     0
 62
    14
  6
CONTINUOUS
  0
LAYER
  2
TEAM-INSP
 70
     0
 62
     5
  6
CONTINUOUS
  0
ENDTAB
  0
TABLE
  2
STYLE
 70
     2
  0
STYLE
  2
STANDARD
 70
     0
 40
0.0
 41
1.0
 50
0.0
 71
     0
 42
200.0
  3
txt
  4

  0
STYLE
  2
TEAM
 70
     0
 40
0.0
 41
0.8
 50
15.0
 71
     0
 42
7.0
  3
ROMANS.shx
  4

  0
ENDTAB
  0
TABLE
  2
VIEW
 70
     0
  0
ENDTAB
  0
TABLE
  2
UCS
 70
     0
  0
ENDTAB
  0
TABLE
  2
APPID
 70
     1
  0
APPID
  2
ACAD
 70
     0
  0
ENDTAB
  0
TABLE
  2
DIMSTYLE
 70
     1
  0
DIMSTYLE
  2
TEAM
 70
     0
  3

  4

  5

  6

  7

 40
1.0
 41
20.0
 42
10.0
 43
1.0
 44
1.0
 45
0.0
 46
0.0
 47
0.0
 48
0.0
140
35.0
141
1.0
142
0.0
143
25.4
144
1.0
145
0.0
146
1.0
147
15.0
 71
     0
 72
     0
 73
     0
 74
     0
 75
     0
 76
     0
 77
     0
 78
     0
170
     0
171
     2
172
     0
173
     0
174
     0
175
     0
176
     9
177
     9
178
    11
  0
ENDTAB
  0
ENDSEC
  0
SECTION
  2
BLOCKS
  0
BLOCK
  8
0
  2
$MODEL_SPACE
 70
     0
 10
0.0
 20
0.0
 30
0.0
  3
$MODEL_SPACE
  1

  0
ENDBLK
  5
17C
  8
0
  0
BLOCK
 67
     1
  8
0
  2
$PAPER_SPACE
 70
     0
 10
0.0
 20
0.0
 30
0.0
  3
$PAPER_SPACE
  1

  0
ENDBLK
  5
17A
 67
     1
  8
0
  0
BLOCK
  8
0
  2
*D0
 70
     1
 10
0.0
 20
0.0
 30
0.0
  3
*D0
  1

  0
LINE
  5
40
  8
0
  6
BYBLOCK
 62
     9
 10
8804.044302
 20
40700.0
 30
0.0
 11
8898.534649
 21
40700.0
 31
0.0
  0
LINE
  5
41
  8
0
  6
BYBLOCK
 62
     9
 10
8010.0
 20
40000.0
 30
0.0
 11
8898.534649
 21
40000.0
 31
0.0
  0
LINE
  5
42
  8
0
  6
BYBLOCK
 62
     9
 10
8897.534649
 20
40680.0
 30
0.0
 11
8897.534649
 21
40405.833333
 31
0.0
  0
LINE
  5
43
  8
0
  6
BYBLOCK
 62
     9
 10
8897.534649
 20
40020.0
 30
0.0
 11
8897.534649
 21
40294.166667
 31
0.0
  0
SOLID
  5
44
  8
0
  6
BYBLOCK
 62
     9
 10
8894.201316
 20
40680.0
 30
0.0
 11
8900.867983
 21
40680.0
 31
0.0
 12
8897.534649
 22
40700.0
 32
0.0
 13
8897.534649
 23
40700.0
 33
0.0
  0
SOLID
  5
45
  8
0
  6
BYBLOCK
 62
     9
 10
8894.201316
 20
40020.0
 30
0.0
 11
8900.867983
 21
40020.0
 31
0.0
 12
8897.534649
 22
40000.0
 32
0.0
 13
8897.534649
 23
40000.0
 33
0.0
  0
TEXT
  5
46
  8
0
  6
BYBLOCK
 62
    11
 10
8915.034649
 20
40309.166667
 30
0.0
 40
35.0
  1
700
 50
90.0
  0
POINT
  5
47
  8
DEFPOINTS
  6
BYBLOCK
 62
     0
 10
8794.044302
 20
40700.0
 30
0.0
  0
POINT
  5
48
  8
DEFPOINTS
  6
BYBLOCK
 62
     0
 10
8000.0
 20
40000.0
 30
0.0
  0
POINT
  5
49
  8
DEFPOINTS
  6
BYBLOCK
 62
     0
 10
8897.534649
 20
40000.0
 30
0.0
  0
ENDBLK
  5
4B
  8
0
  0
BLOCK
  8
0
  2
*D1
 70
     1
 10
0.0
 20
0.0
 30
0.0
  3
*D1
  1

  0
LINE
  5
32
  8
0
  6
BYBLOCK
 62
     9
 10
7200.044302
 20
40704.0
 30
0.0
 11
7200.044302
 21
40747.75095
 31
0.0
  0
LINE
  5
33
  8
0
  6
BYBLOCK
 62
     9
 10
8800.044302
 20
40704.0
 30
0.0
 11
8800.044302
 21
40747.75095
 31
0.0
  0
LINE
  5
34
  8
0
  6
BYBLOCK
 62
     9
 10
7220.044302
 20
40746.75095
 30
0.0
 11
7990.8
 21
40746.75095
 31
0.0
  0
LINE
  5
35
  8
0
  6
BYBLOCK
 62
     9
 10
8780.044302
 20
40746.75095
 30
0.0
 11
8125.8
 21
40746.75095
 31
0.0
  0
TEXT
  5
36
  8
0
  6
BYBLOCK
 62
    11
 10
8005.8
 20
40729.25095
 30
0.0
 40
35.0
  1
1600
  0
SOLID
  5
37
  8
0
  6
BYBLOCK
 62
     9
 10
7220.044302
 20
40750.084283
 30
0.0
 11
7220.044302
 21
40743.417616
 31
0.0
 12
7200.044302
 22
40746.75095
 32
0.0
 13
7200.044302
 23
40746.75095
 33
0.0
  0
SOLID
  5
38
  8
0
  6
BYBLOCK
 62
     9
 10
8780.044302
 20
40750.084283
 30
0.0
 11
8780.044302
 21
40743.417616
 31
0.0
 12
8800.044302
 22
40746.75095
 32
0.0
 13
8800.044302
 23
40746.75095
 33
0.0
  0
POINT
  5
39
  8
DEFPOINTS
  6
BYBLOCK
 62
     0
 10
7200.044302
 20
40694.0
 30
0.0
  0
POINT
  5
3A
  8
DEFPOINTS
  6
BYBLOCK
 62
     0
 10
8800.044302
 20
40694.0
 30
0.0
  0
POINT
  5
3B
  8
DEFPOINTS
  6
BYBLOCK
 62
     0
 10
8800.044302
 20
40746.75095
 30
0.0
  0
ENDBLK
  5
3D
  8
0
  0
BLOCK
  8
0
  2
*D2
 70
     1
 10
0.0
 20
0.0
 30
0.0
  3
*D2
  1

  0
LINE
  5
22
  8
0
  6
BYBLOCK
 62
     9
 10
8174.044302
 20
40182.685052
 30
0.0
 11
8174.044302
 21
40154.556898
 31
0.0
  0
LINE
  5
23
  8
0
  6
BYBLOCK
 62
     9
 10
8226.044302
 20
40182.685052
 30
0.0
 11
8226.044302
 21
40154.556898
 31
0.0
  0
LINE
  5
24
  8
0
  6
BYBLOCK
 62
     9
 10
8154.044302
 20
40155.556898
 30
0.0
 11
8134.044302
 21
40155.556898
 31
0.0
  0
LINE
  5
25
  8
0
  6
BYBLOCK
 62
     9
 10
8246.044302
 20
40155.556898
 30
0.0
 11
8266.044302
 21
40155.556898
 31
0.0
  0
TEXT
  5
26
  8
0
  6
BYBLOCK
 62
    11
 10
8035.356397
 20
40138.528811
 30
0.0
 40
35.0
  1
52
  0
LINE
  5
27
  8
0
  6
BYBLOCK
 62
     9
 10
8174.044302
 20
40155.556898
 30
0.0
 11
8226.044302
 21
40155.556898
 31
0.0
  0
SOLID
  5
28
  8
0
  6
BYBLOCK
 62
     9
 10
8154.044302
 20
40158.890231
 30
0.0
 11
8154.044302
 21
40152.223565
 31
0.0
 12
8174.044302
 22
40155.556898
 32
0.0
 13
8174.044302
 23
40155.556898
 33
0.0
  0
SOLID
  5
29
  8
0
  6
BYBLOCK
 62
     9
 10
8246.044302
 20
40158.890231
 30
0.0
 11
8246.044302
 21
40152.223565
 31
0.0
 12
8226.044302
 22
40155.556898
 32
0.0
 13
8226.044302
 23
40155.556898
 33
0.0
  0
POINT
  5
2A
  8
DEFPOINTS
  6
BYBLOCK
 62
     0
 10
8174.044302
 20
40192.685052
 30
0.0
  0
POINT
  5
2C
  8
DEFPOINTS
  6
BYBLOCK
 62
     0
 10
8226.044302
 20
40192.685052
 30
0.0
  0
POINT
  5
2D
  8
DEFPOINTS
  6
BYBLOCK
 62
     0
 10
8226.044302
 20
40155.556898
 30
0.0
  0
ENDBLK
  5
2F
  8
0
  0
BLOCK
  8
0
  2
*D3
 70
     1
 10
0.0
 20
0.0
 30
0.0
  3
*D3
  1

  0
LINE
  5
95
  8
0
  6
BYBLOCK
 62
     9
 10
8804.044302
 20
40700.0
 30
0.0
 11
8847.587832
 21
40700.0
 31
0.0
  0
LINE
  5
96
  8
0
  6
BYBLOCK
 62
     9
 10
8208.87641
 20
40220.0
 30
0.0
 11
8847.587832
 21
40220.0
 31
0.0
  0
LINE
  5
97
  8
0
  6
BYBLOCK
 62
     9
 10
8846.587832
 20
40680.0
 30
0.0
 11
8846.587832
 21
40518.75
 31
0.0
  0
LINE
  5
98
  8
0
  6
BYBLOCK
 62
     9
 10
8846.587832
 20
40240.0
 30
0.0
 11
8846.587832
 21
40401.25
 31
0.0
  0
SOLID
  5
99
  8
0
  6
BYBLOCK
 62
     9
 10
8843.254498
 20
40680.0
 30
0.0
 11
8849.921165
 21
40680.0
 31
0.0
 12
8846.587832
 22
40700.0
 32
0.0
 13
8846.587832
 23
40700.0
 33
0.0
  0
SOLID
  5
9A
  8
0
  6
BYBLOCK
 62
     9
 10
8843.254498
 20
40240.0
 30
0.0
 11
8849.921165
 21
40240.0
 31
0.0
 12
8846.587832
 22
40220.0
 32
0.0
 13
8846.587832
 23
40220.0
 33
0.0
  0
TEXT
  5
9B
  8
0
  6
BYBLOCK
 62
    11
 10
8864.087832
 20
40416.25
 30
0.0
 40
35.0
  1
480
 50
90.0
  0
POINT
  5
9C
  8
DEFPOINTS
  6
BYBLOCK
 62
     0
 10
8794.044302
 20
40700.0
 30
0.0
  0
POINT
  5
9D
  8
DEFPOINTS
  6
BYBLOCK
 62
     0
 10
8198.87641
 20
40220.0
 30
0.0
  0
POINT
  5
9E
  8
DEFPOINTS
  6
BYBLOCK
 62
     0
 10
8846.587832
 20
40220.0
 30
0.0
  0
ENDBLK
  5
A0
  8
0
  0
ENDSEC
  0
SECTION
  2
ENTITIES
  0
DIMENSION
  5
20
  8
TEAM-MAS
  2
*D2
 10
226.044302
 20
155.556898
 30
0.0
 11
64.523064
 21
156.028811
 31
0.0
 12
-8000.0
 22
-40000.0
 32
0.0
 70
   128
 13
174.044302
 23
192.685052
 33
0.0
 14
226.044302
 24
192.685052
 34
0.0
1001
ACAD
1000
DSTYLE
1002
{
1070
    78
1070
     0
1070
    40
1040
1.0
1002
}
  0
DIMENSION
  5
30
  8
TEAM-MAS
  2
*D1
 10
800.044302
 20
746.75095
 30
0.0
 11
58.3
 21
746.75095
 31
0.0
 12
-8000.0
 22
-40000.0
 32
0.0
 70
   128
 13
-799.955698
 23
694.0
 33
0.0
 14
800.044302
 24
694.0
 34
0.0
1001
ACAD
1000
DSTYLE
1002
{
1070
    40
1040
1.0
1002
}
  0
DIMENSION
  5
3E
  8
TEAM-MAS
  2
*D0
 10
897.534649
 20
0.0
 30
0.0
 11
897.534649
 21
350.0
 31
0.0
 12
-8000.0
 22
-40000.0
 32
0.0
 13
794.044302
 23
700.0
 33
0.0
 14
0.0
 24
0.0
 34
0.0
 50
270.0
1001
ACAD
1000
DSTYLE
1002
{
1070
    40
1040
1.0
1002
}
  0
LINE
  5
4C
  8
TEAM-DET1
 10
-667.010707
 20
650.0
 30
0.0
 11
667.706514
 21
650.0
 31
0.0
  0
LINE
  5
4E
  8
TEAM-BODY
 10
-416.807257
 20
250.283406
 30
0.0
 11
125.044302
 21
220.0
 31
0.0
  0
LINE
  5
50
  8
TEAM-BODY
 10
794.044302
 20
700.0
 30
0.0
 11
-793.955698
 21
700.0
 31
0.0
  0
POLYLINE
  5
51
  8
TEAM-HIDE
 66
     1
 10
0.0
 20
0.0
 30
0.0
 70
     1
  0
VERTEX
  5
182
  8
TEAM-HIDE
 10
-21.43689
 20
651.4939
 30
0.0
  0
VERTEX
  5
183
  8
TEAM-HIDE
 10
138.03689
 20
651.4939
 30
0.0
  0
VERTEX
  5
184
  8
TEAM-HIDE
 10
138.03689
 20
700.0
 30
0.0
  0
VERTEX
  5
185
  8
TEAM-HIDE
 10
-21.43689
 20
700.0
 30
0.0
  0
SEQEND
  5
186
  8
TEAM-HIDE
  0
ARC
  5
54
  8
TEAM-BODY
 10
-793.955698
 20
694.0
 30
0.0
 40
6.0
 50
90.0
 51
180.0
  0
ARC
  5
55
  8
TEAM-BODY
 10
-793.955698
 20
656.0
 30
0.0
 40
6.0
 50
180.0
 51
270.0
  0
LINE
  5
56
  8
TEAM-BODY
 10
-799.955698
 20
694.0
 30
0.0
 11
-799.955698
 21
656.0
 31
0.0
  0
LINE
  5
57
  8
TEAM-DET3
 10
-706.266922
 20
530.310401
 30
0.0
 11
-706.266922
 21
520.386136
 31
0.0
  0
LINE
  5
59
  8
TEAM-DET3
 10
-738.266922
 20
530.310401
 30
0.0
 11
-740.266922
 21
532.430297
 31
0.0
  0
LINE
  5
5A
  8
TEAM-DET3
 10
-706.266922
 20
530.310401
 30
0.0
 11
-704.266922
 21
532.430297
 31
0.0
  0
LINE
  5
5B
  8
TEAM-DET3
 10
-704.266922
 20
547.761137
 30
0.0
 11
-704.266922
 21
532.430297
 31
0.0
  0
ARC
  5
5C
  8
TEAM-DET3
 10
-738.266922
 20
551.87185
 30
0.0
 40
4.571429
 50
94.660419
 51
244.05552
  0
ARC
  5
5D
  8
TEAM-DET3
 10
-706.266922
 20
551.87185
 30
0.0
 40
4.571429
 50
295.94448
 51
85.339581
  0
LINE
  5
5E
  8
TEAM-DET3
 10
-705.895494
 20
556.957564
 30
0.0
 11
-705.895494
 21
556.428165
 31
0.0
  0
LINE
  5
5F
  8
TEAM-DET3
 10
-706.266922
 20
520.386136
 30
0.0
 11
-738.266922
 21
520.386136
 31
0.0
  0
LINE
  5
60
  8
TEAM-DET3
 10
-706.266922
 20
530.310401
 30
0.0
 11
-738.266922
 21
530.310401
 31
0.0
  0
LINE
  5
61
  8
TEAM-DET3
 10
-738.266922
 20
530.310401
 30
0.0
 11
-738.266922
 21
520.386136
 31
0.0
  0
LINE
  5
62
  8
TEAM-DET3
 10
-704.266922
 20
532.430297
 30
0.0
 11
-740.266922
 21
532.430297
 31
0.0
  0
LINE
  5
63
  8
TEAM-DET3
 10
-704.266922
 20
547.761137
 30
0.0
 11
-740.266922
 21
547.761137
 31
0.0
  0
LINE
  5
64
  8
TEAM-DET3
 10
-740.266922
 20
547.761137
 30
0.0
 11
-740.266922
 21
532.430297
 31
0.0
  0
LINE
  5
65
  8
TEAM-DET3
 10
-738.638351
 20
556.957564
 30
0.0
 11
-738.638351
 21
556.428165
 31
0.0
  0
LINE
  5
66
  8
TEAM-DET3
 10
-705.895494
 20
556.957564
 30
0.0
 11
-738.638351
 21
556.957564
 31
0.0
  0
LINE
  5
67
  8
TEAM-DET3
 10
-705.895494
 20
556.428165
 30
0.0
 11
-738.638351
 21
556.428165
 31
0.0
  0
LINE
  5
68
  8
TEAM-DET3
 10
-748.484663
 20
619.790231
 30
0.0
 11
-722.266922
 21
619.790231
 31
0.0
  0
LINE
  5
69
  8
TEAM-DET3
 10
-696.049182
 20
619.790231
 30
0.0
 11
-722.266922
 21
619.790231
 31
0.0
  0
POLYLINE
  5
6A
  8
TEAM-DET3
 66
     1
 10
0.0
 20
0.0
 30
0.0
 70
     1
  0
VERTEX
  5
187
  8
TEAM-DET3
 10
-737.266922
 20
556.957564
 30
0.0
  0
VERTEX
  5
188
  8
TEAM-DET3
 10
-707.266922
 20
556.957564
 30
0.0
  0
VERTEX
  5
189
  8
TEAM-DET3
 10
-707.266922
 20
616.449455
 30
0.0
  0
VERTEX
  5
18A
  8
TEAM-DET3
 10
-737.266922
 20
616.449455
 30
0.0
  0
SEQEND
  5
18B
  8
TEAM-DET3
  0
LINE
  5
6B
  8
TEAM-DET3
 10
-700.487093
 20
616.449455
 30
0.0
 11
-722.266922
 21
616.449455
 31
0.0
  0
LINE
  5
6C
  8
TEAM-DET3
 10
-744.046752
 20
616.449455
 30
0.0
 11
-722.266922
 21
616.449455
 31
0.0
  0
LINE
  5
6D
  8
TEAM-DET3
 10
-722.266922
 20
610.0
 30
0.0
 11
-713.631266
 21
616.449455
 31
0.0
  0
LINE
  5
6E
  8
TEAM-DET3
 10
-722.266922
 20
610.0
 30
0.0
 11
-730.902578
 21
616.449455
 31
0.0
  0
LINE
  5
6F
  8
TEAM-DET1
 10
-793.955698
 20
650.0
 30
0.0
 11
-762.266922
 21
650.0
 31
0.0
  0
POLYLINE
  5
70
  8
TEAM-BODY
 66
     1
 10
0.0
 20
0.0
 30
0.0
  0
VERTEX
  5
18C
  8
TEAM-BODY
 10
-682.266922
 20
661.97847
 30
0.0
  0
VERTEX
  5
18D
  8
TEAM-BODY
 10
-682.266922
 20
650.0
 30
0.0
 42
-1.0
  0
VERTEX
  5
18E
  8
TEAM-BODY
 10
-762.266922
 20
650.0
 30
0.0
  0
VERTEX
  5
18F
  8
TEAM-BODY
 10
-762.266922
 20
690.484063
 30
0.0
  0
SEQEND
  5
190
  8
TEAM-BODY
  0
ARC
  5
71
  8
TEAM-BODY
 10
-1113.737289
 20
-422.417339
 30
0.0
 40
1167.082238
 50
72.473129
 51
74.097516
  0
LINE
  5
72
  8
TEAM-DET1
 10
-722.266922
 20
610.0
 30
0.0
 11
-623.925966
 21
610.0
 31
0.0
  0
LINE
  5
73
  8
TEAM-AXE
 10
-722.266922
 20
619.790231
 30
0.0
 11
-722.266922
 21
393.939491
 31
0.0
  0
LINE
  5
76
  8
TEAM-DET3
 10
-705.895494
 20
454.176964
 30
0.0
 11
-738.638351
 21
454.176964
 31
0.0
  0
LINE
  5
77
  8
TEAM-DET3
 10
-705.895494
 20
454.706364
 30
0.0
 11
-738.638351
 21
454.706364
 31
0.0
  0
LINE
  5
78
  8
TEAM-DET3
 10
-738.638351
 20
454.706364
 30
0.0
 11
-738.638351
 21
454.176964
 31
0.0
  0
LINE
  5
79
  8
TEAM-DET3
 10
-740.266922
 20
445.509937
 30
0.0
 11
-740.266922
 21
430.179096
 31
0.0
  0
LINE
  5
7A
  8
TEAM-DET3
 10
-704.266922
 20
445.509937
 30
0.0
 11
-740.266922
 21
445.509937
 31
0.0
  0
LINE
  5
7B
  8
TEAM-DET3
 10
-704.266922
 20
430.179096
 30
0.0
 11
-740.266922
 21
430.179096
 31
0.0
  0
LINE
  5
7C
  8
TEAM-DET3
 10
-738.266922
 20
428.059201
 30
0.0
 11
-738.266922
 21
418.134935
 31
0.0
  0
LINE
  5
7D
  8
TEAM-DET3
 10
-706.266922
 20
428.059201
 30
0.0
 11
-738.266922
 21
428.059201
 31
0.0
  0
LINE
  5
7E
  8
TEAM-DET3
 10
-706.266922
 20
418.134935
 30
0.0
 11
-738.266922
 21
418.134935
 31
0.0
  0
LINE
  5
7F
  8
TEAM-DET3
 10
-705.895494
 20
454.706364
 30
0.0
 11
-705.895494
 21
454.176964
 31
0.0
  0
ARC
  5
80
  8
TEAM-DET3
 10
-706.266922
 20
449.62065
 30
0.0
 40
4.571429
 50
295.94448
 51
85.339581
  0
ARC
  5
81
  8
TEAM-DET3
 10
-738.266922
 20
449.62065
 30
0.0
 40
4.571429
 50
94.660419
 51
244.05552
  0
LINE
  5
82
  8
TEAM-DET3
 10
-704.266922
 20
445.509937
 30
0.0
 11
-704.266922
 21
430.179096
 31
0.0
  0
LINE
  5
83
  8
TEAM-DET3
 10
-706.266922
 20
428.059201
 30
0.0
 11
-704.266922
 21
430.179096
 31
0.0
  0
LINE
  5
84
  8
TEAM-DET3
 10
-738.266922
 20
428.059201
 30
0.0
 11
-740.266922
 21
430.179096
 31
0.0
  0
LINE
  5
85
  8
TEAM-DET3
 10
-706.266922
 20
428.059201
 30
0.0
 11
-706.266922
 21
418.134935
 31
0.0
  0
POLYLINE
  5
86
  8
TEAM-DET3
 66
     1
 10
0.0
 20
0.0
 30
0.0
 70
     1
  0
VERTEX
  5
191
  8
TEAM-DET3
 10
-737.266922
 20
393.939491
 30
0.0
  0
VERTEX
  5
192
  8
TEAM-DET3
 10
-707.266922
 20
393.939491
 30
0.0
  0
VERTEX
  5
193
  8
TEAM-DET3
 10
-707.266922
 20
418.134935
 30
0.0
  0
VERTEX
  5
194
  8
TEAM-DET3
 10
-737.266922
 20
418.134935
 30
0.0
  0
SEQEND
  5
195
  8
TEAM-DET3
  0
POLYLINE
  5
87
  8
TEAM-DET3
 66
     1
 10
0.0
 20
0.0
 30
0.0
 70
     1
  0
VERTEX
  5
196
  8
TEAM-DET3
 10
-737.266922
 20
454.706364
 30
0.0
  0
VERTEX
  5
197
  8
TEAM-DET3
 10
-707.266922
 20
454.706364
 30
0.0
  0
VERTEX
  5
198
  8
TEAM-DET3
 10
-707.266922
 20
520.386136
 30
0.0
  0
VERTEX
  5
199
  8
TEAM-DET3
 10
-737.266922
 20
520.386136
 30
0.0
  0
SEQEND
  5
19A
  8
TEAM-DET3
  0
CIRCLE
  5
88
  8
TEAM-INSP
 10
0.0
 20
0.0
 30
0.0
 40
10.0
  0
ARC
  5
8A
  8
TEAM-BODY
 10
-966.771759
 20
283.918129
 30
0.0
 40
473.151799
 50
4.768006
 51
53.037143
  0
ARC
  5
8B
  8
TEAM-BODY
 10
-382.915049
 20
365.389383
 30
0.0
 40
119.991948
 50
200.561396
 51
253.593277
  0
TEXT
  5
8C
  8
TEAM-TXT
 10
-543.252528
 20
597.75601
 30
0.0
 40
30.0
  1
team 121029
 41
0.8
 51
15.0
  7
TEAM
  0
ARC
  5
8F
  8
TEAM-BODY
 10
-793.955698
 20
694.0
 30
0.0
 40
6.0
 50
90.0
 51
180.0
  0
ARC
  5
90
  8
TEAM-BODY
 10
-793.955698
 20
656.0
 30
0.0
 40
6.0
 50
180.0
 51
270.0
  0
LINE
  5
91
  8
TEAM-BODY
 10
-799.955698
 20
694.0
 30
0.0
 11
-799.955698
 21
656.0
 31
0.0
  0
LINE
  5
92
  8
TEAM-DET1
 10
-793.955698
 20
650.0
 30
0.0
 11
-762.266922
 21
650.0
 31
0.0
  0
DIMENSION
  5
93
  8
TEAM-MAS
  2
*D3
 10
846.587832
 20
220.0
 30
0.0
 11
846.587832
 21
460.0
 31
0.0
 12
-8000.0
 22
-40000.0
 32
0.0
 13
794.044302
 23
700.0
 33
0.0
 14
198.87641
 24
220.0
 34
0.0
 50
270.0
1001
ACAD
1000
DSTYLE
1002
{
1070
    40
1040
1.0
1002
}
  0
POLYLINE
  5
A1
  8
TEAM-DET1
 66
     1
 10
0.0
 20
0.0
 30
0.0
 70
     1
  0
VERTEX
  5
19B
  8
TEAM-DET1
 10
794.044302
 20
700.0
 30
0.0
  0
VERTEX
  5
19C
  8
TEAM-DET1
 10
714.788198
 20
700.0
 30
0.0
  0
VERTEX
  5
19D
  8
TEAM-DET1
 10
714.788198
 20
720.856945
 30
0.0
  0
VERTEX
  5
19E
  8
TEAM-DET1
 10
794.044302
 20
720.856945
 30
0.0
  0
SEQEND
  5
19F
  8
TEAM-DET1
  0
LINE
  5
A2
  8
TEAM-DET1
 10
762.355527
 20
650.0
 30
0.0
 11
794.044302
 21
650.0
 31
0.0
  0
POLYLINE
  5
A3
  8
TEAM-DET3
 66
     1
 10
0.0
 20
0.0
 30
0.0
 70
     1
  0
VERTEX
  5
1A0
  8
TEAM-DET3
 10
737.355527
 20
454.706364
 30
0.0
  0
VERTEX
  5
1A1
  8
TEAM-DET3
 10
707.355527
 20
454.706364
 30
0.0
  0
VERTEX
  5
1A2
  8
TEAM-DET3
 10
707.355527
 20
520.386136
 30
0.0
  0
VERTEX
  5
1A3
  8
TEAM-DET3
 10
737.355527
 20
520.386136
 30
0.0
  0
SEQEND
  5
1A4
  8
TEAM-DET3
  0
POLYLINE
  5
A4
  8
TEAM-DET3
 66
     1
 10
0.0
 20
0.0
 30
0.0
 70
     1
  0
VERTEX
  5
1A5
  8
TEAM-DET3
 10
737.355527
 20
393.939491
 30
0.0
  0
VERTEX
  5
1A6
  8
TEAM-DET3
 10
707.355527
 20
393.939491
 30
0.0
  0
VERTEX
  5
1A7
  8
TEAM-DET3
 10
707.355527
 20
418.134935
 30
0.0
  0
VERTEX
  5
1A8
  8
TEAM-DET3
 10
737.355527
 20
418.134935
 30
0.0
  0
SEQEND
  5
1A9
  8
TEAM-DET3
  0
LINE
  5
A5
  8
TEAM-DET3
 10
706.355527
 20
428.059201
 30
0.0
 11
706.355527
 21
418.134935
 31
0.0
  0
LINE
  5
A6
  8
TEAM-DET3
 10
738.355527
 20
428.059201
 30
0.0
 11
740.355527
 21
430.179096
 31
0.0
  0
LINE
  5
A7
  8
TEAM-DET3
 10
706.355527
 20
428.059201
 30
0.0
 11
704.355527
 21
430.179096
 31
0.0
  0
LINE
  5
A8
  8
TEAM-DET3
 10
704.355527
 20
445.509937
 30
0.0
 11
704.355527
 21
430.179096
 31
0.0
  0
ARC
  5
A9
  8
TEAM-DET3
 10
738.355527
 20
449.62065
 30
0.0
 40
4.571429
 50
295.94448
 51
85.339581
  0
ARC
  5
AA
  8
TEAM-DET3
 10
706.355527
 20
449.62065
 30
0.0
 40
4.571429
 50
94.660419
 51
244.05552
  0
LINE
  5
AB
  8
TEAM-DET3
 10
705.984098
 20
454.706364
 30
0.0
 11
705.984098
 21
454.176964
 31
0.0
  0
LINE
  5
AC
  8
TEAM-DET3
 10
706.355527
 20
418.134935
 30
0.0
 11
738.355527
 21
418.134935
 31
0.0
  0
LINE
  5
AD
  8
TEAM-DET3
 10
706.355527
 20
428.059201
 30
0.0
 11
738.355527
 21
428.059201
 31
0.0
  0
LINE
  5
AE
  8
TEAM-DET3
 10
738.355527
 20
428.059201
 30
0.0
 11
738.355527
 21
418.134935
 31
0.0
  0
LINE
  5
AF
  8
TEAM-DET3
 10
704.355527
 20
430.179096
 30
0.0
 11
740.355527
 21
430.179096
 31
0.0
  0
LINE
  5
B0
  8
TEAM-DET3
 10
704.355527
 20
445.509937
 30
0.0
 11
740.355527
 21
445.509937
 31
0.0
  0
LINE
  5
B1
  8
TEAM-DET3
 10
740.355527
 20
445.509937
 30
0.0
 11
740.355527
 21
430.179096
 31
0.0
  0
LINE
  5
B2
  8
TEAM-DET3
 10
738.726955
 20
454.706364
 30
0.0
 11
738.726955
 21
454.176964
 31
0.0
  0
LINE
  5
B3
  8
TEAM-DET3
 10
705.984098
 20
454.706364
 30
0.0
 11
738.726955
 21
454.706364
 31
0.0
  0
LINE
  5
B4
  8
TEAM-DET3
 10
705.984098
 20
454.176964
 30
0.0
 11
738.726955
 21
454.176964
 31
0.0
  0
LINE
  5
B5
  8
TEAM-AXE
 10
722.355527
 20
619.790231
 30
0.0
 11
722.355527
 21
393.939491
 31
0.0
  0
LINE
  5
B6
  8
TEAM-DET1
 10
722.355527
 20
610.0
 30
0.0
 11
624.874504
 21
610.0
 31
0.0
  0
ARC
  5
B7
  8
TEAM-BODY
 10
1113.825894
 20
-422.417339
 30
0.0
 40
1167.082238
 50
105.902484
 51
107.526871
  0
POLYLINE
  5
B8
  8
TEAM-BODY
 66
     1
 10
0.0
 20
0.0
 30
0.0
  0
VERTEX
  5
1AA
  8
TEAM-BODY
 10
682.355527
 20
661.97847
 30
0.0
  0
VERTEX
  5
1AB
  8
TEAM-BODY
 10
682.355527
 20
650.0
 30
0.0
 42
1.0
  0
VERTEX
  5
1AC
  8
TEAM-BODY
 10
762.355527
 20
650.0
 30
0.0
  0
VERTEX
  5
1AD
  8
TEAM-BODY
 10
762.355527
 20
690.484063
 30
0.0
  0
SEQEND
  5
1AE
  8
TEAM-BODY
  0
LINE
  5
B9
  8
TEAM-DET1
 10
794.044302
 20
650.0
 30
0.0
 11
762.355527
 21
650.0
 31
0.0
  0
LINE
  5
BA
  8
TEAM-DET3
 10
722.355527
 20
610.0
 30
0.0
 11
730.991183
 21
616.449455
 31
0.0
  0
LINE
  5
BB
  8
TEAM-DET3
 10
722.355527
 20
610.0
 30
0.0
 11
713.71987
 21
616.449455
 31
0.0
  0
LINE
  5
BC
  8
TEAM-DET3
 10
744.135356
 20
616.449455
 30
0.0
 11
722.355527
 21
616.449455
 31
0.0
  0
LINE
  5
BD
  8
TEAM-DET3
 10
700.575697
 20
616.449455
 30
0.0
 11
722.355527
 21
616.449455
 31
0.0
  0
POLYLINE
  5
BE
  8
TEAM-DET3
 66
     1
 10
0.0
 20
0.0
 30
0.0
 70
     1
  0
VERTEX
  5
1AF
  8
TEAM-DET3
 10
737.355527
 20
556.957564
 30
0.0
  0
VERTEX
  5
1B0
  8
TEAM-DET3
 10
707.355527
 20
556.957564
 30
0.0
  0
VERTEX
  5
1B1
  8
TEAM-DET3
 10
707.355527
 20
616.449455
 30
0.0
  0
VERTEX
  5
1B2
  8
TEAM-DET3
 10
737.355527
 20
616.449455
 30
0.0
  0
SEQEND
  5
1B3
  8
TEAM-DET3
  0
LINE
  5
BF
  8
TEAM-DET3
 10
696.137786
 20
619.790231
 30
0.0
 11
722.355527
 21
619.790231
 31
0.0
  0
LINE
  5
C0
  8
TEAM-DET3
 10
748.573267
 20
619.790231
 30
0.0
 11
722.355527
 21
619.790231
 31
0.0
  0
LINE
  5
C1
  8
TEAM-DET3
 10
705.984098
 20
556.428165
 30
0.0
 11
738.726955
 21
556.428165
 31
0.0
  0
LINE
  5
C2
  8
TEAM-DET3
 10
705.984098
 20
556.957564
 30
0.0
 11
738.726955
 21
556.957564
 31
0.0
  0
LINE
  5
C3
  8
TEAM-DET3
 10
738.726955
 20
556.957564
 30
0.0
 11
738.726955
 21
556.428165
 31
0.0
  0
LINE
  5
C4
  8
TEAM-DET3
 10
740.355527
 20
547.761137
 30
0.0
 11
740.355527
 21
532.430297
 31
0.0
  0
LINE
  5
C5
  8
TEAM-DET3
 10
704.355527
 20
547.761137
 30
0.0
 11
740.355527
 21
547.761137
 31
0.0
  0
LINE
  5
C6
  8
TEAM-DET3
 10
704.355527
 20
532.430297
 30
0.0
 11
740.355527
 21
532.430297
 31
0.0
  0
LINE
  5
C7
  8
TEAM-DET3
 10
738.355527
 20
530.310401
 30
0.0
 11
738.355527
 21
520.386136
 31
0.0
  0
LINE
  5
C8
  8
TEAM-DET3
 10
706.355527
 20
530.310401
 30
0.0
 11
738.355527
 21
530.310401
 31
0.0
  0
LINE
  5
C9
  8
TEAM-DET3
 10
706.355527
 20
520.386136
 30
0.0
 11
738.355527
 21
520.386136
 31
0.0
  0
LINE
  5
CA
  8
TEAM-DET3
 10
705.984098
 20
556.957564
 30
0.0
 11
705.984098
 21
556.428165
 31
0.0
  0
ARC
  5
CB
  8
TEAM-DET3
 10
706.355527
 20
551.87185
 30
0.0
 40
4.571429
 50
94.660419
 51
244.05552
  0
ARC
  5
CC
  8
TEAM-DET3
 10
738.355527
 20
551.87185
 30
0.0
 40
4.571429
 50
295.94448
 51
85.339581
  0
LINE
  5
CD
  8
TEAM-DET3
 10
704.355527
 20
547.761137
 30
0.0
 11
704.355527
 21
532.430297
 31
0.0
  0
LINE
  5
CE
  8
TEAM-DET3
 10
706.355527
 20
530.310401
 30
0.0
 11
704.355527
 21
532.430297
 31
0.0
  0
LINE
  5
CF
  8
TEAM-DET3
 10
738.355527
 20
530.310401
 30
0.0
 11
740.355527
 21
532.430297
 31
0.0
  0
LINE
  5
D0
  8
TEAM-DET3
 10
706.355527
 20
530.310401
 30
0.0
 11
706.355527
 21
520.386136
 31
0.0
  0
LINE
  5
D1
  8
TEAM-BODY
 10
800.044302
 20
694.0
 30
0.0
 11
800.044302
 21
656.0
 31
0.0
  0
ARC
  5
D2
  8
TEAM-BODY
 10
794.044302
 20
656.0
 30
0.0
 40
6.0
 50
270.0
 51
0.0
  0
ARC
  5
D3
  8
TEAM-BODY
 10
794.044302
 20
694.0
 30
0.0
 40
6.0
 50
0.0
 51
90.0
  0
ARC
  5
D4
  8
TEAM-BODY
 10
1048.126558
 20
199.713863
 30
0.0
 40
589.47181
 50
128.353124
 51
168.691026
  0
ARC
  5
D5
  8
TEAM-BODY
 10
281.271007
 20
529.539032
 30
0.0
 40
308.436933
 50
268.843238
 51
291.011154
  0
ARC
  5
D6
  8
TEAM-BODY
 10
367.678237
 20
345.501673
 30
0.0
 40
106.784785
 50
283.367231
 51
343.575933
  0
LINE
  5
D7
  8
TEAM-KAN
 10
226.044302
 20
192.685052
 30
0.0
 11
174.044302
 21
192.685052
 31
0.0
  0
LINE
  5
D9
  8
TEAM-KAN
 10
226.044302
 20
192.685052
 30
0.0
 11
226.044302
 21
196.726504
 31
0.0
  0
LINE
  5
DA
  8
TEAM-AXE
 10
200.044302
 20
177.004764
 30
0.0
 11
200.044302
 21
218.36534
 31
0.0
  0
LINE
  5
DB
  8
TEAM-KAN
 10
174.044302
 20
192.685052
 30
0.0
 11
174.044302
 21
196.726504
 31
0.0
  0
LINE
  5
DC
  8
TEAM-DET1
 10
174.044302
 20
196.726504
 30
0.0
 11
125.044302
 21
220.0
 31
0.0
  0
LINE
  5
DD
  8
TEAM-BODY
 10
272.708518
 20
220.0
 30
0.0
 11
125.044302
 21
220.0
 31
0.0
  0
LINE
  5
DE
  8
TEAM-DET1
 10
275.044302
 20
221.164958
 30
0.0
 11
226.044302
 21
196.726504
 31
0.0
  0
LINE
  5
DF
  8
TEAM-BODY
 10
800.044302
 20
694.0
 30
0.0
 11
800.044302
 21
656.0
 31
0.0
  0
ARC
  5
E0
  8
TEAM-BODY
 10
794.044302
 20
656.0
 30
0.0
 40
6.0
 50
270.0
 51
0.0
  0
ARC
  5
E1
  8
TEAM-BODY
 10
794.044302
 20
694.0
 30
0.0
 40
6.0
 50
0.0
 51
90.0
  0
ENDSEC
  0
EOF
