  0
SECTION
  2
HEADER
  9
$ACADVER
  1
AC1009
  9
$INSBASE
 10
0.0
 20
0.0
 30
0.0
  9
$EXTMIN
 10
-1070.005627
 20
-10.052151
 30
0.0
  9
$EXTMAX
 10
1173.36964
 20
764.257234
 30
0.000005
  9
$LIMMIN
 10
-1070.005627
 20
-10.052151
  9
$LIMMAX
 10
1173.36964
 20
764.257234
  9
$ORTHOMODE
 70
     1
  9
$REGENMODE
 70
     1
  9
$FILLMODE
 70
     1
  9
$QTEXTMODE
 70
     0
  9
$MIRRTEXT
 70
     0
  9
$DRAGMODE
 70
     2
  9
$LTSCALE
 40
50.0
  9
$OSMODE
 70
     7
  9
$ATTMODE
 70
     1
  9
$TEXTSIZE
 40
200.0
  9
$TRACEWID
 40
1.0
  9
$TEXTSTYLE
  7
STANDARD
  9
$CLAYER
  8
TEAM-MAS
  9
$CELTYPE
  6
BYLAYER
  9
$CECOLOR
 62
   256
  9
$DIMSCALE
 40
1.0
  9
$DIMASZ
 40
20.0
  9
$DIMEXO
 40
10.0
  9
$DIMDLI
 40
1.0
  9
$DIMRND
 40
0.0
  9
$DIMDLE
 40
0.0
  9
$DIMEXE
 40
1.0
  9
$DIMTP
 40
0.0
  9
$DIMTM
 40
0.0
  9
$DIMTXT
 40
35.0
  9
$DIMCEN
 40
1.0
  9
$DIMTSZ
 40
0.0
  9
$DIMTOL
 70
     0
  9
$DIMLIM
 70
     0
  9
$DIMTIH
 70
     0
  9
$DIMTOH
 70
     0
  9
$DIMSE1
 70
     0
  9
$DIMSE2
 70
     0
  9
$DIMTAD
 70
     0
  9
$DIMZIN
 70
     0
  9
$DIMBLK
  1

  9
$DIMASO
 70
     1
  9
$DIMSHO
 70
     0
  9
$DIMPOST
  1

  9
$DIMAPOST
  1

  9
$DIMALT
 70
     0
  9
$DIMALTD
 70
     2
  9
$DIMALTF
 40
25.4
  9
$DIMLFAC
 40
1.0
  9
$DIMTOFL
 70
     0
  9
$DIMTVP
 40
0.0
  9
$DIMTIX
 70
     0
  9
$DIMSOXD
 70
     0
  9
$DIMSAH
 70
     0
  9
$DIMBLK1
  1

  9
$DIMBLK2
  1

  9
$DIMSTYLE
  2
TEAM
  9
$DIMCLRD
 70
     9
  9
$DIMCLRE
 70
     9
  9
$DIMCLRT
 70
    11
  9
$DIMTFAC
 40
1.0
  9
$DIMGAP
 40
15.0
  9
$LUNITS
 70
     2
  9
$LUPREC
 70
     1
  9
$SKETCHINC
 40
1.0
  9
$FILLETRAD
 40
300.0
  9
$AUNITS
 70
     0
  9
$AUPREC
 70
     0
  9
$MENU
  1
ROPLANS
  9
$ELEVATION
 40
0.0
  9
$PELEVATION
 40
0.0
  9
$THICKNESS
 40
0.0
  9
$LIMCHECK
 70
     0
  9
$BLIPMODE
 70
     1
  9
$CHAMFERA
 40
0.0
  9
$CHAMFERB
 40
0.0
  9
$SKPOLY
 70
     0
  9
$TDCREATE
 40
2450392.957851
  9
$TDUPDATE
 40
2455843.591272
  9
$TDINDWG
 40
2.850297
  9
$TDUSRTIMER
 40
2.850297
  9
$USRTIMER
 70
     1
  9
$ANGBASE
 50
0.0
  9
$ANGDIR
 70
     0
  9
$PDMODE
 70
     0
  9
$PDSIZE
 40
0.0
  9
$PLINEWID
 40
0.0
  9
$COORDS
 70
     2
  9
$SPLFRAME
 70
     0
  9
$SPLINETYPE
 70
     6
  9
$SPLINESEGS
 70
     8
  9
$ATTDIA
 70
     0
  9
$ATTREQ
 70
     0
  9
$HANDLING
 70
     1
  9
$HANDSEED
  5
111
  9
$SURFTAB1
 70
    64
  9
$SURFTAB2
 70
    64
  9
$SURFTYPE
 70
     6
  9
$SURFU
 70
     6
  9
$SURFV
 70
     6
  9
$UCSNAME
  2

  9
$UCSORG
 10
0.0
 20
0.0
 30
0.0
  9
$UCSXDIR
 10
1.0
 20
0.0
 30
0.0
  9
$UCSYDIR
 10
0.0
 20
1.0
 30
0.0
  9
$PUCSNAME
  2

  9
$PUCSORG
 10
0.0
 20
0.0
 30
0.0
  9
$PUCSXDIR
 10
1.0
 20
0.0
 30
0.0
  9
$PUCSYDIR
 10
0.0
 20
1.0
 30
0.0
  9
$USERI1
 70
     0
  9
$USERI2
 70
     0
  9
$USERI3
 70
     0
  9
$USERI4
 70
     0
  9
$USERI5
 70
     0
  9
$USERR1
 40
0.0
  9
$USERR2
 40
0.0
  9
$USERR3
 40
0.0
  9
$USERR4
 40
0.0
  9
$USERR5
 40
0.0
  9
$WORLDVIEW
 70
     1
  9
$SHADEDGE
 70
     0
  9
$SHADEDIF
 70
    70
  9
$TILEMODE
 70
     1
  9
$MAXACTVP
 70
    16
  9
$PLIMCHECK
 70
     0
  9
$PEXTMIN
 10
-0.805942
 20
0.005011
 30
0.0
  9
$PEXTMAX
 10
20.250094
 20
11.356329
 30
0.0
  9
$PLIMMIN
 10
0.0
 20
0.0
  9
$PLIMMAX
 10
12.0
 20
9.0
  9
$UNITMODE
 70
     0
  9
$VISRETAIN
 70
     0
  9
$PLINEGEN
 70
     0
  9
$PSLTSCALE
 70
     0
  0
ENDSEC
  0
SECTION
  2
TABLES
  0
TABLE
  2
VPORT
 70
     2
  0
VPORT
  2
*ACTIVE
 70
     0
 10
0.0
 20
0.0
 11
1.0
 21
1.0
 12
51.682007
 22
377.102541
 13
0.0
 23
0.0
 14
1.0
 24
1.0
 15
50.0
 25
50.0
 16
0.0
 26
0.0
 36
1.0
 17
0.0
 27
0.0
 37
0.0
 40
1182.269064
 41
1.903766
 42
50.0
 43
0.0
 44
0.0
 50
0.0
 51
0.0
 71
     0
 72
   100
 73
     1
 74
     1
 75
     0
 76
     0
 77
     0
 78
     0
  0
ENDTAB
  0
TABLE
  2
LTYPE
 70
     3
  0
LTYPE
  2
CONTINUOUS
 70
     0
  3
Solid Line
 72
    65
 73
     0
 40
0.0
  0
LTYPE
  2
31
 70
     0
  3

 72
    65
 73
     4
 40
2.1
 49
1.5
 49
-0.3
 49
0.0
 49
-0.3
  0
LTYPE
  2
22
 70
     0
  3

 72
    65
 73
     2
 40
1.4
 49
1.2
 49
-0.2
  0
ENDTAB
  0
TABLE
  2
LAYER
 70
    10
  0
LAYER
  2
0
 70
     0
 62
     7
  6
CONTINUOUS
  0
LAYER
  2
DEFPOINTS
 70
     0
 62
     7
  6
CONTINUOUS
  0
LAYER
  2
TEAM-BODY
 70
     0
 62
     2
  6
CONTINUOUS
  0
LAYER
  2
TEAM-AXE
 70
     0
 62
    10
  6
31
  0
LAYER
  2
TEAM-MAS
 70
     0
 62
     9
  6
CONTINUOUS
  0
LAYER
  2
TEAM-TXT
 70
     0
 62
    11
  6
CONTINUOUS
  0
LAYER
  2
TEAM-DET1
 70
     0
 62
     4
  6
CONTINUOUS
  0
LAYER
  2
TEAM-HIDE
 70
     0
 62
     8
  6
22
  0
LAYER
  2
TEAM-KAN
 70
     0
 62
     6
  6
CONTINUOUS
  0
LAYER
  2
TEAM-INSP
 70
     0
 62
     5
  6
CONTINUOUS
  0
ENDTAB
  0
TABLE
  2
STYLE
 70
     2
  0
STYLE
  2
STANDARD
 70
     0
 40
0.0
 41
1.0
 50
0.0
 71
     0
 42
200.0
  3
txt
  4

  0
STYLE
  2
TEAM
 70
     0
 40
0.0
 41
0.8
 50
15.0
 71
     0
 42
7.0
  3
ROMANS.shx
  4

  0
ENDTAB
  0
TABLE
  2
VIEW
 70
     0
  0
ENDTAB
  0
TABLE
  2
UCS
 70
     0
  0
ENDTAB
  0
TABLE
  2
APPID
 70
     1
  0
APPID
  2
ACAD
 70
     0
  0
ENDTAB
  0
TABLE
  2
DIMSTYLE
 70
     1
  0
DIMSTYLE
  2
TEAM
 70
     0
  3

  4

  5

  6

  7

 40
1.0
 41
20.0
 42
10.0
 43
1.0
 44
1.0
 45
0.0
 46
0.0
 47
0.0
 48
0.0
140
35.0
141
1.0
142
0.0
143
25.4
144
1.0
145
0.0
146
1.0
147
15.0
 71
     0
 72
     0
 73
     0
 74
     0
 75
     0
 76
     0
 77
     0
 78
     0
170
     0
171
     2
172
     0
173
     0
174
     0
175
     0
176
     9
177
     9
178
    11
  0
ENDTAB
  0
ENDSEC
  0
SECTION
  2
BLOCKS
  0
BLOCK
  8
0
  2
$MODEL_SPACE
 70
     0
 10
0.0
 20
0.0
 30
0.0
  3
$MODEL_SPACE
  1

  0
ENDBLK
  5
F6
  8
0
  0
BLOCK
 67
     1
  8
0
  2
$PAPER_SPACE
 70
     0
 10
0.0
 20
0.0
 30
0.0
  3
$PAPER_SPACE
  1

  0
ENDBLK
  5
F4
 67
     1
  8
0
  0
BLOCK
  8
0
  2
*D0
 70
     1
 10
0.0
 20
0.0
 30
0.0
  3
*D0
  1

  0
LINE
  5
31
  8
0
  6
BYBLOCK
 62
     9
 10
11058.3
 20
40704.0
 30
0.0
 11
11058.3
 21
40747.75095
 31
0.0
  0
LINE
  5
32
  8
0
  6
BYBLOCK
 62
     9
 10
13058.3
 20
40704.0
 30
0.0
 11
13058.3
 21
40747.75095
 31
0.0
  0
LINE
  5
33
  8
0
  6
BYBLOCK
 62
     9
 10
11078.3
 20
40746.75095
 30
0.0
 11
11987.883333
 21
40746.75095
 31
0.0
  0
LINE
  5
34
  8
0
  6
BYBLOCK
 62
     9
 10
13038.3
 20
40746.75095
 30
0.0
 11
12128.716667
 21
40746.75095
 31
0.0
  0
TEXT
  5
35
  8
0
  6
BYBLOCK
 62
    11
 10
12002.883333
 20
40729.25095
 30
0.0
 40
35.0
  1
2000
  0
SOLID
  5
36
  8
0
  6
BYBLOCK
 62
     9
 10
11078.3
 20
40750.084283
 30
0.0
 11
11078.3
 21
40743.417616
 31
0.0
 12
11058.3
 22
40746.75095
 32
0.0
 13
11058.3
 23
40746.75095
 33
0.0
  0
SOLID
  5
37
  8
0
  6
BYBLOCK
 62
     9
 10
13038.3
 20
40750.084283
 30
0.0
 11
13038.3
 21
40743.417616
 31
0.0
 12
13058.3
 22
40746.75095
 32
0.0
 13
13058.3
 23
40746.75095
 33
0.0
  0
POINT
  5
38
  8
DEFPOINTS
  6
BYBLOCK
 62
     0
 10
11058.3
 20
40694.0
 30
0.0
  0
POINT
  5
39
  8
DEFPOINTS
  6
BYBLOCK
 62
     0
 10
13058.3
 20
40694.0
 30
0.0
  0
POINT
  5
3A
  8
DEFPOINTS
  6
BYBLOCK
 62
     0
 10
13058.3
 20
40746.75095
 30
0.0
  0
ENDBLK
  5
3C
  8
0
  0
BLOCK
  8
0
  2
*D1
 70
     1
 10
0.0
 20
0.0
 30
0.0
  3
*D1
  1

  0
LINE
  5
3F
  8
0
  6
BYBLOCK
 62
     9
 10
13062.3
 20
40700.0
 30
0.0
 11
13156.790347
 21
40700.0
 31
0.0
  0
LINE
  5
40
  8
0
  6
BYBLOCK
 62
     9
 10
12010.0
 20
40000.0
 30
0.0
 11
13156.790347
 21
40000.0
 31
0.0
  0
LINE
  5
41
  8
0
  6
BYBLOCK
 62
     9
 10
13155.790347
 20
40680.0
 30
0.0
 11
13155.790347
 21
40405.833333
 31
0.0
  0
LINE
  5
42
  8
0
  6
BYBLOCK
 62
     9
 10
13155.790347
 20
40020.0
 30
0.0
 11
13155.790347
 21
40294.166667
 31
0.0
  0
SOLID
  5
43
  8
0
  6
BYBLOCK
 62
     9
 10
13152.457014
 20
40680.0
 30
0.0
 11
13159.12368
 21
40680.0
 31
0.0
 12
13155.790347
 22
40700.0
 32
0.0
 13
13155.790347
 23
40700.0
 33
0.0
  0
SOLID
  5
44
  8
0
  6
BYBLOCK
 62
     9
 10
13152.457014
 20
40020.0
 30
0.0
 11
13159.12368
 21
40020.0
 31
0.0
 12
13155.790347
 22
40000.0
 32
0.0
 13
13155.790347
 23
40000.0
 33
0.0
  0
TEXT
  5
45
  8
0
  6
BYBLOCK
 62
    11
 10
13173.290347
 20
40309.166667
 30
0.0
 40
35.0
  1
700
 50
90.0
  0
POINT
  5
46
  8
DEFPOINTS
  6
BYBLOCK
 62
     0
 10
13052.3
 20
40700.0
 30
0.0
  0
POINT
  5
47
  8
DEFPOINTS
  6
BYBLOCK
 62
     0
 10
12000.0
 20
40000.0
 30
0.0
  0
POINT
  5
48
  8
DEFPOINTS
  6
BYBLOCK
 62
     0
 10
13155.790347
 20
40000.0
 30
0.0
  0
ENDBLK
  5
4A
  8
0
  0
BLOCK
  8
0
  2
*D2
 70
     1
 10
0.0
 20
0.0
 30
0.0
  3
*D2
  1

  0
LINE
  5
22
  8
0
  6
BYBLOCK
 62
     9
 10
13062.3
 20
40700.0
 30
0.0
 11
13105.84353
 21
40700.0
 31
0.0
  0
LINE
  5
23
  8
0
  6
BYBLOCK
 62
     9
 10
12270.072106
 20
40220.0
 30
0.0
 11
13105.84353
 21
40220.0
 31
0.0
  0
LINE
  5
24
  8
0
  6
BYBLOCK
 62
     9
 10
13104.84353
 20
40680.0
 30
0.0
 11
13104.84353
 21
40518.75
 31
0.0
  0
LINE
  5
25
  8
0
  6
BYBLOCK
 62
     9
 10
13104.84353
 20
40240.0
 30
0.0
 11
13104.84353
 21
40401.25
 31
0.0
  0
SOLID
  5
26
  8
0
  6
BYBLOCK
 62
     9
 10
13101.510196
 20
40680.0
 30
0.0
 11
13108.176863
 21
40680.0
 31
0.0
 12
13104.84353
 22
40700.0
 32
0.0
 13
13104.84353
 23
40700.0
 33
0.0
  0
SOLID
  5
27
  8
0
  6
BYBLOCK
 62
     9
 10
13101.510196
 20
40240.0
 30
0.0
 11
13108.176863
 21
40240.0
 31
0.0
 12
13104.84353
 22
40220.0
 32
0.0
 13
13104.84353
 23
40220.0
 33
0.0
  0
TEXT
  5
28
  8
0
  6
BYBLOCK
 62
    11
 10
13122.34353
 20
40416.25
 30
0.0
 40
35.0
  1
480
 50
90.0
  0
POINT
  5
29
  8
DEFPOINTS
  6
BYBLOCK
 62
     0
 10
13052.3
 20
40700.0
 30
0.0
  0
POINT
  5
2B
  8
DEFPOINTS
  6
BYBLOCK
 62
     0
 10
12260.072106
 20
40220.0
 30
0.0
  0
POINT
  5
2C
  8
DEFPOINTS
  6
BYBLOCK
 62
     0
 10
13104.84353
 20
40220.0
 30
0.0
  0
ENDBLK
  5
2E
  8
0
  0
BLOCK
  8
0
  2
*D3
 70
     1
 10
0.0
 20
0.0
 30
0.0
  3
*D3
  1

  0
LINE
  5
61
  8
0
  6
BYBLOCK
 62
     9
 10
12235.239998
 20
40182.685052
 30
0.0
 11
12235.239998
 21
40154.556898
 31
0.0
  0
LINE
  5
62
  8
0
  6
BYBLOCK
 62
     9
 10
12287.239998
 20
40182.685052
 30
0.0
 11
12287.239998
 21
40154.556898
 31
0.0
  0
LINE
  5
63
  8
0
  6
BYBLOCK
 62
     9
 10
12215.239998
 20
40155.556898
 30
0.0
 11
12195.239998
 21
40155.556898
 31
0.0
  0
LINE
  5
64
  8
0
  6
BYBLOCK
 62
     9
 10
12307.239998
 20
40155.556898
 30
0.0
 11
12327.239998
 21
40155.556898
 31
0.0
  0
TEXT
  5
65
  8
0
  6
BYBLOCK
 62
    11
 10
12096.552093
 20
40138.528811
 30
0.0
 40
35.0
  1
52
  0
LINE
  5
66
  8
0
  6
BYBLOCK
 62
     9
 10
12235.239998
 20
40155.556898
 30
0.0
 11
12287.239998
 21
40155.556898
 31
0.0
  0
SOLID
  5
67
  8
0
  6
BYBLOCK
 62
     9
 10
12215.239998
 20
40158.890231
 30
0.0
 11
12215.239998
 21
40152.223565
 31
0.0
 12
12235.239998
 22
40155.556898
 32
0.0
 13
12235.239998
 23
40155.556898
 33
0.0
  0
SOLID
  5
68
  8
0
  6
BYBLOCK
 62
     9
 10
12307.239998
 20
40158.890231
 30
0.0
 11
12307.239998
 21
40152.223565
 31
0.0
 12
12287.239998
 22
40155.556898
 32
0.0
 13
12287.239998
 23
40155.556898
 33
0.0
  0
POINT
  5
69
  8
DEFPOINTS
  6
BYBLOCK
 62
     0
 10
12235.239998
 20
40192.685052
 30
0.0
  0
POINT
  5
6A
  8
DEFPOINTS
  6
BYBLOCK
 62
     0
 10
12287.239998
 20
40192.685052
 30
0.0
  0
POINT
  5
6B
  8
DEFPOINTS
  6
BYBLOCK
 62
     0
 10
12287.239998
 20
40155.556898
 30
0.0
  0
ENDBLK
  5
6D
  8
0
  0
BLOCK
  8
0
  2
*D4
 70
     1
 10
0.0
 20
0.0
 30
0.0
  3
*D4
  1

  0
LINE
  5
52
  8
0
  6
BYBLOCK
 62
     9
 10
11054.3
 20
40700.0
 30
0.0
 11
10987.656179
 21
40700.0
 31
0.0
  0
LINE
  5
53
  8
0
  6
BYBLOCK
 62
     9
 10
11054.3
 20
40650.0
 30
0.0
 11
10987.656179
 21
40650.0
 31
0.0
  0
LINE
  5
54
  8
0
  6
BYBLOCK
 62
     9
 10
10988.656179
 20
40720.0
 30
0.0
 11
10988.656179
 21
40740.0
 31
0.0
  0
LINE
  5
55
  8
0
  6
BYBLOCK
 62
     9
 10
10988.656179
 20
40630.0
 30
0.0
 11
10988.656179
 21
40610.0
 31
0.0
  0
TEXT
  5
56
  8
0
  6
BYBLOCK
 62
    11
 10
10965.156179
 20
40648.75
 30
0.0
 40
35.0
  1
50
 50
90.0
  0
LINE
  5
57
  8
0
  6
BYBLOCK
 62
     9
 10
10988.656179
 20
40700.0
 30
0.0
 11
10988.656179
 21
40650.0
 31
0.0
  0
SOLID
  5
58
  8
0
  6
BYBLOCK
 62
     9
 10
10985.322846
 20
40720.0
 30
0.0
 11
10991.989512
 21
40720.0
 31
0.0
 12
10988.656179
 22
40700.0
 32
0.0
 13
10988.656179
 23
40700.0
 33
0.0
  0
SOLID
  5
59
  8
0
  6
BYBLOCK
 62
     9
 10
10985.322846
 20
40630.0
 30
0.0
 11
10991.989512
 21
40630.0
 31
0.0
 12
10988.656179
 22
40650.0
 32
0.0
 13
10988.656179
 23
40650.0
 33
0.0
  0
POINT
  5
5A
  8
DEFPOINTS
  6
BYBLOCK
 62
     0
 10
11064.3
 20
40700.0
 30
0.0
  0
POINT
  5
5B
  8
DEFPOINTS
  6
BYBLOCK
 62
     0
 10
11064.3
 20
40650.0
 30
0.0
  0
POINT
  5
5C
  8
DEFPOINTS
  6
BYBLOCK
 62
     0
 10
10988.656179
 20
40650.0
 30
0.0
  0
ENDBLK
  5
5E
  8
0
  0
ENDSEC
  0
SECTION
  2
ENTITIES
  0
DIMENSION
  5
20
  8
TEAM-MAS
  2
*D2
 10
1104.84353
 20
220.0
 30
0.0
 11
1104.84353
 21
460.0
 31
0.0
 12
-12000.0
 22
-40000.0
 32
0.0
 13
1052.3
 23
700.0
 33
0.0
 14
260.072106
 24
220.0
 34
0.0
 50
270.0
1001
ACAD
1000
DSTYLE
1002
{
1070
    40
1040
1.0
1002
}
  0
DIMENSION
  5
2F
  8
TEAM-MAS
  2
*D0
 10
1058.3
 20
746.75095
 30
0.0
 11
58.3
 21
746.75095
 31
0.0
 12
-12000.0
 22
-40000.0
 32
0.0
 70
   128
 13
-941.7
 23
694.0
 33
0.0
 14
1058.3
 24
694.0
 34
0.0
1001
ACAD
1000
DSTYLE
1002
{
1070
    40
1040
1.0
1002
}
  0
DIMENSION
  5
3D
  8
TEAM-MAS
  2
*D1
 10
1155.790347
 20
0.0
 30
0.0
 11
1155.790347
 21
350.0
 31
0.0
 12
-12000.0
 22
-40000.0
 32
0.0
 13
1052.3
 23
700.0
 33
0.0
 14
0.0
 24
0.0
 34
0.0
 50
270.0
1001
ACAD
1000
DSTYLE
1002
{
1070
    40
1040
1.0
1002
}
  0
LINE
  5
4B
  8
TEAM-DET1
 10
-795.044841
 20
650.0
 30
0.0
 11
924.297347
 21
650.0
 31
0.0
  0
ARC
  5
4D
  8
TEAM-BODY
 10
404.127952
 20
1107.289606
 30
0.0
 40
888.721366
 50
265.619003
 51
283.075378
  0
LINE
  5
4F
  8
TEAM-BODY
 10
1052.3
 20
700.0
 30
0.0
 11
-935.7
 21
700.0
 31
0.0
  0
DIMENSION
  5
50
  8
TEAM-MAS
  2
*D4
 10
-1011.343821
 20
650.0
 30
0.0
 11
-1052.343821
 21
675.0
 31
0.0
 12
-12000.0
 22
-40000.0
 32
0.0
 13
-935.7
 23
700.0
 33
0.0
 14
-935.7
 24
650.0
 34
0.0
 50
90.0
1001
ACAD
1000
DSTYLE
1002
{
1070
    40
1040
1.0
1002
}
  0
DIMENSION
  5
5F
  8
TEAM-MAS
  2
*D3
 10
287.239998
 20
155.556898
 30
0.0
 11
125.71876
 21
156.028811
 31
0.0
 12
-12000.0
 22
-40000.0
 32
0.0
 70
   128
 13
235.239998
 23
192.685052
 33
0.0
 14
287.239998
 24
192.685052
 34
0.0
1001
ACAD
1000
DSTYLE
1002
{
1070
    78
1070
     0
1070
    40
1040
1.0
1002
}
  0
POLYLINE
  5
6E
  8
TEAM-DET1
 66
     1
 10
0.0
 20
0.0
 30
0.0
 70
     1
  0
VERTEX
  5
FC
  8
TEAM-DET1
 10
97.928052
 20
700.0
 30
0.0
  0
VERTEX
  5
FD
  8
TEAM-DET1
 10
18.671948
 20
700.0
 30
0.0
  0
VERTEX
  5
FE
  8
TEAM-DET1
 10
18.671948
 20
720.856945
 30
0.0
  0
VERTEX
  5
FF
  8
TEAM-DET1
 10
97.928052
 20
720.856945
 30
0.0
  0
SEQEND
  5
100
  8
TEAM-DET1
  0
ARC
  5
6F
  8
TEAM-BODY
 10
-1255.481591
 20
-422.417339
 30
0.0
 40
1167.082238
 50
72.473129
 51
74.097516
  0
POLYLINE
  5
70
  8
TEAM-BODY
 66
     1
 10
0.0
 20
0.0
 30
0.0
  0
VERTEX
  5
101
  8
TEAM-BODY
 10
-824.011224
 20
661.97847
 30
0.0
  0
VERTEX
  5
102
  8
TEAM-BODY
 10
-824.011224
 20
650.0
 30
0.0
 42
-1.0
  0
VERTEX
  5
103
  8
TEAM-BODY
 10
-904.011224
 20
650.0
 30
0.0
  0
VERTEX
  5
104
  8
TEAM-BODY
 10
-904.011224
 20
690.484063
 30
0.0
  0
SEQEND
  5
105
  8
TEAM-BODY
  0
LINE
  5
71
  8
TEAM-DET1
 10
-864.011224
 20
610.0
 30
0.0
 11
-711.243235
 21
610.0
 31
0.0
  0
LINE
  5
72
  8
TEAM-DET1
 10
336.239998
 20
221.164958
 30
0.0
 11
287.239998
 21
196.726504
 31
0.0
  0
LINE
  5
73
  8
TEAM-BODY
 10
333.904214
 20
220.0
 30
0.0
 11
186.239998
 21
220.0
 31
0.0
  0
LINE
  5
74
  8
TEAM-DET1
 10
235.239998
 20
196.726504
 30
0.0
 11
186.239998
 21
220.0
 31
0.0
  0
LINE
  5
75
  8
TEAM-KAN
 10
235.239998
 20
192.685052
 30
0.0
 11
235.239998
 21
196.726504
 31
0.0
  0
LINE
  5
77
  8
TEAM-AXE
 10
261.239998
 20
177.004764
 30
0.0
 11
261.239998
 21
218.36534
 31
0.0
  0
LINE
  5
7A
  8
TEAM-KAN
 10
287.239998
 20
192.685052
 30
0.0
 11
287.239998
 21
196.726504
 31
0.0
  0
LINE
  5
7B
  8
TEAM-KAN
 10
287.239998
 20
192.685052
 30
0.0
 11
235.239998
 21
192.685052
 31
0.0
  0
LINE
  5
7C
  8
TEAM-BODY
 10
-941.7
 20
694.0
 30
0.0
 11
-941.7
 21
656.0
 31
0.0
  0
ARC
  5
7D
  8
TEAM-BODY
 10
-935.7
 20
656.0
 30
0.0
 40
6.0
 50
180.0
 51
270.0
  0
ARC
  5
7E
  8
TEAM-BODY
 10
-935.7
 20
694.0
 30
0.0
 40
6.0
 50
90.0
 51
180.0
  0
ARC
  5
7F
  8
TEAM-BODY
 10
-245.327854
 20
365.389383
 30
0.0
 40
119.991948
 50
200.561396
 51
253.593277
  0
ARC
  5
80
  8
TEAM-BODY
 10
-1255.481591
 20
-422.417339
 30
0.0
 40
1167.082238
 50
39.710843
 51
68.30288
  0
CIRCLE
  5
81
  8
TEAM-INSP
 10
0.0
 20
0.0
 30
0.0
 40
10.0
  0
TEXT
  5
83
  8
TEAM-TXT
 10
-684.99683
 20
597.75601
 30
0.0
 40
30.0
  1
team 121029
 41
0.8
 51
15.0
  7
TEAM
  0
LINE
  5
86
  8
TEAM-BODY
 10
-279.220062
 20
250.283406
 30
0.0
 11
186.239998
 21
220.0
 31
0.0
  0
LINE
  5
87
  8
TEAM-DET1
 10
-935.7
 20
650.0
 30
0.0
 11
-904.011224
 21
650.0
 31
0.0
  0
POLYLINE
  5
88
  8
TEAM-HIDE
 66
     1
 10
0.0
 20
0.0
 30
0.0
 70
     1
  0
VERTEX
  5
106
  8
TEAM-HIDE
 10
-21.43689
 20
651.4939
 30
0.0
  0
VERTEX
  5
107
  8
TEAM-HIDE
 10
138.03689
 20
651.4939
 30
0.0
  0
VERTEX
  5
108
  8
TEAM-HIDE
 10
138.03689
 20
700.0
 30
0.0
  0
VERTEX
  5
109
  8
TEAM-HIDE
 10
-21.43689
 20
700.0
 30
0.0
  0
SEQEND
  5
10A
  8
TEAM-HIDE
  0
LINE
  5
8B
  8
TEAM-DET1
 10
1020.611224
 20
650.0
 30
0.0
 11
1052.3
 21
650.0
 31
0.0
  0
LINE
  5
8C
  8
TEAM-DET1
 10
980.611224
 20
610.0
 30
0.0
 11
876.203512
 21
610.0
 31
0.0
  0
ARC
  5
8D
  8
TEAM-BODY
 10
1372.081591
 20
-422.417339
 30
0.0
 40
1167.082238
 50
105.902484
 51
107.526871
  0
POLYLINE
  5
8E
  8
TEAM-BODY
 66
     1
 10
0.0
 20
0.0
 30
0.0
  0
VERTEX
  5
10B
  8
TEAM-BODY
 10
940.611224
 20
661.97847
 30
0.0
  0
VERTEX
  5
10C
  8
TEAM-BODY
 10
940.611224
 20
650.0
 30
0.0
 42
1.0
  0
VERTEX
  5
10D
  8
TEAM-BODY
 10
1020.611224
 20
650.0
 30
0.0
  0
VERTEX
  5
10E
  8
TEAM-BODY
 10
1020.611224
 20
690.484063
 30
0.0
  0
SEQEND
  5
10F
  8
TEAM-BODY
  0
LINE
  5
8F
  8
TEAM-DET1
 10
1052.3
 20
650.0
 30
0.0
 11
1020.611224
 21
650.0
 31
0.0
  0
LINE
  5
90
  8
TEAM-BODY
 10
1058.3
 20
694.0
 30
0.0
 11
1058.3
 21
656.0
 31
0.0
  0
ARC
  5
91
  8
TEAM-BODY
 10
1052.3
 20
656.0
 30
0.0
 40
6.0
 50
270.0
 51
0.0
  0
ARC
  5
92
  8
TEAM-BODY
 10
1052.3
 20
694.0
 30
0.0
 40
6.0
 50
0.0
 51
90.0
  0
ARC
  5
93
  8
TEAM-BODY
 10
1052.3
 20
694.0
 30
0.0
 40
6.0
 50
0.0
 51
90.0
  0
ARC
  5
94
  8
TEAM-BODY
 10
1052.3
 20
656.0
 30
0.0
 40
6.0
 50
270.0
 51
0.0
  0
LINE
  5
95
  8
TEAM-BODY
 10
1058.3
 20
694.0
 30
0.0
 11
1058.3
 21
656.0
 31
0.0
  0
ARC
  5
96
  8
TEAM-BODY
 10
594.732642
 20
334.442194
 30
0.0
 40
93.47685
 50
276.732193
 51
348.188933
  0
ARC
  5
97
  8
TEAM-BODY
 10
1337.933962
 20
103.753009
 30
0.0
 40
685.186853
 50
125.441752
 51
162.015673
  0
ENDSEC
  0
EOF
