  0
SECTION
  2
HEADER
  9
$ACADVER
  1
AC1009
  9
$INSBASE
 10
0.0
 20
0.0
 30
0.0
  9
$EXTMIN
 10
-538.804855
 20
-10.052151
 30
0.0
  9
$EXTMAX
 10
652.579079
 20
764.257234
 30
0.000005
  9
$LIMMIN
 10
-538.804855
 20
-10.052151
  9
$LIMMAX
 10
652.579079
 20
764.257234
  9
$ORTHOMODE
 70
     1
  9
$REGENMODE
 70
     1
  9
$FILLMODE
 70
     1
  9
$QTEXTMODE
 70
     0
  9
$MIRRTEXT
 70
     0
  9
$DRAGMODE
 70
     2
  9
$LTSCALE
 40
50.0
  9
$OSMODE
 70
     7
  9
$ATTMODE
 70
     1
  9
$TEXTSIZE
 40
200.0
  9
$TRACEWID
 40
1.0
  9
$TEXTSTYLE
  7
STANDARD
  9
$CLAYER
  8
TEAM-MAS
  9
$CELTYPE
  6
BYLAYER
  9
$CECOLOR
 62
   256
  9
$DIMSCALE
 40
1.0
  9
$DIMASZ
 40
20.0
  9
$DIMEXO
 40
10.0
  9
$DIMDLI
 40
1.0
  9
$DIMRND
 40
0.0
  9
$DIMDLE
 40
0.0
  9
$DIMEXE
 40
1.0
  9
$DIMTP
 40
0.0
  9
$DIMTM
 40
0.0
  9
$DIMTXT
 40
35.0
  9
$DIMCEN
 40
1.0
  9
$DIMTSZ
 40
0.0
  9
$DIMTOL
 70
     0
  9
$DIMLIM
 70
     0
  9
$DIMTIH
 70
     0
  9
$DIMTOH
 70
     0
  9
$DIMSE1
 70
     0
  9
$DIMSE2
 70
     0
  9
$DIMTAD
 70
     0
  9
$DIMZIN
 70
     0
  9
$DIMBLK
  1

  9
$DIMASO
 70
     1
  9
$DIMSHO
 70
     0
  9
$DIMPOST
  1

  9
$DIMAPOST
  1

  9
$DIMALT
 70
     0
  9
$DIMALTD
 70
     2
  9
$DIMALTF
 40
25.4
  9
$DIMLFAC
 40
1.0
  9
$DIMTOFL
 70
     0
  9
$DIMTVP
 40
0.0
  9
$DIMTIX
 70
     0
  9
$DIMSOXD
 70
     0
  9
$DIMSAH
 70
     0
  9
$DIMBLK1
  1

  9
$DIMBLK2
  1

  9
$DIMSTYLE
  2
TEAM
  9
$DIMCLRD
 70
     9
  9
$DIMCLRE
 70
     9
  9
$DIMCLRT
 70
    11
  9
$DIMTFAC
 40
1.0
  9
$DIMGAP
 40
15.0
  9
$LUNITS
 70
     2
  9
$LUPREC
 70
     1
  9
$SKETCHINC
 40
1.0
  9
$FILLETRAD
 40
300.0
  9
$AUNITS
 70
     0
  9
$AUPREC
 70
     0
  9
$MENU
  1
ROPLANS
  9
$ELEVATION
 40
0.0
  9
$PELEVATION
 40
0.0
  9
$THICKNESS
 40
0.0
  9
$LIMCHECK
 70
     0
  9
$BLIPMODE
 70
     1
  9
$CHAMFERA
 40
0.0
  9
$CHAMFERB
 40
0.0
  9
$SKPOLY
 70
     0
  9
$TDCREATE
 40
2450392.957851
  9
$TDUPDATE
 40
2455843.591272
  9
$TDINDWG
 40
2.850297
  9
$TDUSRTIMER
 40
2.850297
  9
$USRTIMER
 70
     1
  9
$ANGBASE
 50
0.0
  9
$ANGDIR
 70
     0
  9
$PDMODE
 70
     0
  9
$PDSIZE
 40
0.0
  9
$PLINEWID
 40
0.0
  9
$COORDS
 70
     2
  9
$SPLFRAME
 70
     0
  9
$SPLINETYPE
 70
     6
  9
$SPLINESEGS
 70
     8
  9
$ATTDIA
 70
     0
  9
$ATTREQ
 70
     0
  9
$HANDLING
 70
     1
  9
$HANDSEED
  5
104
  9
$SURFTAB1
 70
    64
  9
$SURFTAB2
 70
    64
  9
$SURFTYPE
 70
     6
  9
$SURFU
 70
     6
  9
$SURFV
 70
     6
  9
$UCSNAME
  2

  9
$UCSORG
 10
0.0
 20
0.0
 30
0.0
  9
$UCSXDIR
 10
1.0
 20
0.0
 30
0.0
  9
$UCSYDIR
 10
0.0
 20
1.0
 30
0.0
  9
$PUCSNAME
  2

  9
$PUCSORG
 10
0.0
 20
0.0
 30
0.0
  9
$PUCSXDIR
 10
1.0
 20
0.0
 30
0.0
  9
$PUCSYDIR
 10
0.0
 20
1.0
 30
0.0
  9
$USERI1
 70
     0
  9
$USERI2
 70
     0
  9
$USERI3
 70
     0
  9
$USERI4
 70
     0
  9
$USERI5
 70
     0
  9
$USERR1
 40
0.0
  9
$USERR2
 40
0.0
  9
$USERR3
 40
0.0
  9
$USERR4
 40
0.0
  9
$USERR5
 40
0.0
  9
$WORLDVIEW
 70
     1
  9
$SHADEDGE
 70
     0
  9
$SHADEDIF
 70
    70
  9
$TILEMODE
 70
     1
  9
$MAXACTVP
 70
    16
  9
$PLIMCHECK
 70
     0
  9
$PEXTMIN
 10
-0.805942
 20
0.005011
 30
0.0
  9
$PEXTMAX
 10
20.250094
 20
11.356329
 30
0.0
  9
$PLIMMIN
 10
0.0
 20
0.0
  9
$PLIMMAX
 10
12.0
 20
9.0
  9
$UNITMODE
 70
     0
  9
$VISRETAIN
 70
     0
  9
$PLINEGEN
 70
     0
  9
$PSLTSCALE
 70
     0
  0
ENDSEC
  0
SECTION
  2
TABLES
  0
TABLE
  2
VPORT
 70
     2
  0
VPORT
  2
*ACTIVE
 70
     0
 10
0.0
 20
0.0
 11
1.0
 21
1.0
 12
56.887112
 22
377.102541
 13
0.0
 23
0.0
 14
1.0
 24
1.0
 15
50.0
 25
50.0
 16
0.0
 26
0.0
 36
1.0
 17
0.0
 27
0.0
 37
0.0
 40
779.163989
 41
1.903766
 42
50.0
 43
0.0
 44
0.0
 50
0.0
 51
0.0
 71
     0
 72
   100
 73
     1
 74
     1
 75
     0
 76
     0
 77
     0
 78
     0
  0
ENDTAB
  0
TABLE
  2
LTYPE
 70
     3
  0
LTYPE
  2
CONTINUOUS
 70
     0
  3
Solid Line
 72
    65
 73
     0
 40
0.0
  0
LTYPE
  2
31
 70
     0
  3

 72
    65
 73
     4
 40
2.1
 49
1.5
 49
-0.3
 49
0.0
 49
-0.3
  0
LTYPE
  2
22
 70
     0
  3

 72
    65
 73
     2
 40
1.4
 49
1.2
 49
-0.2
  0
ENDTAB
  0
TABLE
  2
LAYER
 70
    10
  0
LAYER
  2
0
 70
     0
 62
     7
  6
CONTINUOUS
  0
LAYER
  2
DEFPOINTS
 70
     0
 62
     7
  6
CONTINUOUS
  0
LAYER
  2
TEAM-BODY
 70
     0
 62
     2
  6
CONTINUOUS
  0
LAYER
  2
TEAM-AXE
 70
     0
 62
    10
  6
31
  0
LAYER
  2
TEAM-MAS
 70
     0
 62
     9
  6
CONTINUOUS
  0
LAYER
  2
TEAM-TXT
 70
     0
 62
    11
  6
CONTINUOUS
  0
LAYER
  2
TEAM-DET1
 70
     0
 62
     4
  6
CONTINUOUS
  0
LAYER
  2
TEAM-HIDE
 70
     0
 62
     8
  6
22
  0
LAYER
  2
TEAM-KAN
 70
     0
 62
     6
  6
CONTINUOUS
  0
LAYER
  2
TEAM-INSP
 70
     0
 62
     5
  6
CONTINUOUS
  0
ENDTAB
  0
TABLE
  2
STYLE
 70
     2
  0
STYLE
  2
STANDARD
 70
     0
 40
0.0
 41
1.0
 50
0.0
 71
     0
 42
200.0
  3
txt
  4

  0
STYLE
  2
TEAM
 70
     0
 40
0.0
 41
0.8
 50
15.0
 71
     0
 42
7.0
  3
ROMANS.shx
  4

  0
ENDTAB
  0
TABLE
  2
VIEW
 70
     0
  0
ENDTAB
  0
TABLE
  2
UCS
 70
     0
  0
ENDTAB
  0
TABLE
  2
APPID
 70
     1
  0
APPID
  2
ACAD
 70
     0
  0
ENDTAB
  0
TABLE
  2
DIMSTYLE
 70
     1
  0
DIMSTYLE
  2
TEAM
 70
     0
  3

  4

  5

  6

  7

 40
1.0
 41
20.0
 42
10.0
 43
1.0
 44
1.0
 45
0.0
 46
0.0
 47
0.0
 48
0.0
140
35.0
141
1.0
142
0.0
143
25.4
144
1.0
145
0.0
146
1.0
147
15.0
 71
     0
 72
     0
 73
     0
 74
     0
 75
     0
 76
     0
 77
     0
 78
     0
170
     0
171
     2
172
     0
173
     0
174
     0
175
     0
176
     9
177
     9
178
    11
  0
ENDTAB
  0
ENDSEC
  0
SECTION
  2
BLOCKS
  0
BLOCK
  8
0
  2
$MODEL_SPACE
 70
     0
 10
0.0
 20
0.0
 30
0.0
  3
$MODEL_SPACE
  1

  0
ENDBLK
  5
E9
  8
0
  0
BLOCK
 67
     1
  8
0
  2
$PAPER_SPACE
 70
     0
 10
0.0
 20
0.0
 30
0.0
  3
$PAPER_SPACE
  1

  0
ENDBLK
  5
E7
 67
     1
  8
0
  0
BLOCK
  8
0
  2
*D0
 70
     1
 10
0.0
 20
0.0
 30
0.0
  3
*D0
  1

  0
LINE
  5
32
  8
0
  6
BYBLOCK
 62
     9
 10
7462.5
 20
48704.0
 30
0.0
 11
7462.5
 21
48747.75095
 31
0.0
  0
LINE
  5
33
  8
0
  6
BYBLOCK
 62
     9
 10
8537.5
 20
48704.0
 30
0.0
 11
8537.5
 21
48747.75095
 31
0.0
  0
LINE
  5
34
  8
0
  6
BYBLOCK
 62
     9
 10
7482.5
 20
48746.75095
 30
0.0
 11
7929.583333
 21
48746.75095
 31
0.0
  0
LINE
  5
35
  8
0
  6
BYBLOCK
 62
     9
 10
8517.5
 20
48746.75095
 30
0.0
 11
8070.416667
 21
48746.75095
 31
0.0
  0
TEXT
  5
36
  8
0
  6
BYBLOCK
 62
    11
 10
7944.583333
 20
48729.25095
 30
0.0
 40
35.0
  1
1075
  0
SOLID
  5
37
  8
0
  6
BYBLOCK
 62
     9
 10
7482.5
 20
48750.084283
 30
0.0
 11
7482.5
 21
48743.417616
 31
0.0
 12
7462.5
 22
48746.75095
 32
0.0
 13
7462.5
 23
48746.75095
 33
0.0
  0
SOLID
  5
38
  8
0
  6
BYBLOCK
 62
     9
 10
8517.5
 20
48750.084283
 30
0.0
 11
8517.5
 21
48743.417616
 31
0.0
 12
8537.5
 22
48746.75095
 32
0.0
 13
8537.5
 23
48746.75095
 33
0.0
  0
POINT
  5
39
  8
DEFPOINTS
  6
BYBLOCK
 62
     0
 10
7462.5
 20
48694.0
 30
0.0
  0
POINT
  5
3A
  8
DEFPOINTS
  6
BYBLOCK
 62
     0
 10
8537.5
 20
48694.0
 30
0.0
  0
POINT
  5
3B
  8
DEFPOINTS
  6
BYBLOCK
 62
     0
 10
8537.5
 20
48746.75095
 30
0.0
  0
ENDBLK
  5
3D
  8
0
  0
BLOCK
  8
0
  2
*D1
 70
     1
 10
0.0
 20
0.0
 30
0.0
  3
*D1
  1

  0
LINE
  5
40
  8
0
  6
BYBLOCK
 62
     9
 10
8541.5
 20
48700.0
 30
0.0
 11
8635.990347
 21
48700.0
 31
0.0
  0
LINE
  5
41
  8
0
  6
BYBLOCK
 62
     9
 10
8010.0
 20
48000.0
 30
0.0
 11
8635.990347
 21
48000.0
 31
0.0
  0
LINE
  5
42
  8
0
  6
BYBLOCK
 62
     9
 10
8634.990347
 20
48680.0
 30
0.0
 11
8634.990347
 21
48405.833333
 31
0.0
  0
LINE
  5
43
  8
0
  6
BYBLOCK
 62
     9
 10
8634.990347
 20
48020.0
 30
0.0
 11
8634.990347
 21
48294.166667
 31
0.0
  0
SOLID
  5
44
  8
0
  6
BYBLOCK
 62
     9
 10
8631.657014
 20
48680.0
 30
0.0
 11
8638.32368
 21
48680.0
 31
0.0
 12
8634.990347
 22
48700.0
 32
0.0
 13
8634.990347
 23
48700.0
 33
0.0
  0
SOLID
  5
45
  8
0
  6
BYBLOCK
 62
     9
 10
8631.657014
 20
48020.0
 30
0.0
 11
8638.32368
 21
48020.0
 31
0.0
 12
8634.990347
 22
48000.0
 32
0.0
 13
8634.990347
 23
48000.0
 33
0.0
  0
TEXT
  5
46
  8
0
  6
BYBLOCK
 62
    11
 10
8652.490347
 20
48309.166667
 30
0.0
 40
35.0
  1
700
 50
90.0
  0
POINT
  5
47
  8
DEFPOINTS
  6
BYBLOCK
 62
     0
 10
8531.5
 20
48700.0
 30
0.0
  0
POINT
  5
48
  8
DEFPOINTS
  6
BYBLOCK
 62
     0
 10
8000.0
 20
48000.0
 30
0.0
  0
POINT
  5
49
  8
DEFPOINTS
  6
BYBLOCK
 62
     0
 10
8634.990347
 20
48000.0
 30
0.0
  0
ENDBLK
  5
4B
  8
0
  0
BLOCK
  8
0
  2
*D2
 70
     1
 10
0.0
 20
0.0
 30
0.0
  3
*D2
  1

  0
LINE
  5
68
  8
0
  6
BYBLOCK
 62
     9
 10
8541.5
 20
48700.0
 30
0.0
 11
8585.04353
 21
48700.0
 31
0.0
  0
LINE
  5
69
  8
0
  6
BYBLOCK
 62
     9
 10
8168.832108
 20
48220.0
 30
0.0
 11
8585.04353
 21
48220.0
 31
0.0
  0
LINE
  5
6A
  8
0
  6
BYBLOCK
 62
     9
 10
8584.04353
 20
48680.0
 30
0.0
 11
8584.04353
 21
48518.75
 31
0.0
  0
LINE
  5
6B
  8
0
  6
BYBLOCK
 62
     9
 10
8584.04353
 20
48240.0
 30
0.0
 11
8584.04353
 21
48401.25
 31
0.0
  0
SOLID
  5
6C
  8
0
  6
BYBLOCK
 62
     9
 10
8580.710196
 20
48680.0
 30
0.0
 11
8587.376863
 21
48680.0
 31
0.0
 12
8584.04353
 22
48700.0
 32
0.0
 13
8584.04353
 23
48700.0
 33
0.0
  0
SOLID
  5
6D
  8
0
  6
BYBLOCK
 62
     9
 10
8580.710196
 20
48240.0
 30
0.0
 11
8587.376863
 21
48240.0
 31
0.0
 12
8584.04353
 22
48220.0
 32
0.0
 13
8584.04353
 23
48220.0
 33
0.0
  0
TEXT
  5
6E
  8
0
  6
BYBLOCK
 62
    11
 10
8601.54353
 20
48416.25
 30
0.0
 40
35.0
  1
480
 50
90.0
  0
POINT
  5
6F
  8
DEFPOINTS
  6
BYBLOCK
 62
     0
 10
8531.5
 20
48700.0
 30
0.0
  0
POINT
  5
70
  8
DEFPOINTS
  6
BYBLOCK
 62
     0
 10
8158.832108
 20
48220.0
 30
0.0
  0
POINT
  5
71
  8
DEFPOINTS
  6
BYBLOCK
 62
     0
 10
8584.04353
 20
48220.0
 30
0.0
  0
ENDBLK
  5
73
  8
0
  0
BLOCK
  8
0
  2
*D3
 70
     1
 10
0.0
 20
0.0
 30
0.0
  3
*D3
  1

  0
LINE
  5
22
  8
0
  6
BYBLOCK
 62
     9
 10
8134.0
 20
48182.685052
 30
0.0
 11
8134.0
 21
48154.556898
 31
0.0
  0
LINE
  5
23
  8
0
  6
BYBLOCK
 62
     9
 10
8186.0
 20
48182.685052
 30
0.0
 11
8186.0
 21
48154.556898
 31
0.0
  0
LINE
  5
24
  8
0
  6
BYBLOCK
 62
     9
 10
8114.0
 20
48155.556898
 30
0.0
 11
8094.0
 21
48155.556898
 31
0.0
  0
LINE
  5
25
  8
0
  6
BYBLOCK
 62
     9
 10
8206.0
 20
48155.556898
 30
0.0
 11
8226.0
 21
48155.556898
 31
0.0
  0
TEXT
  5
26
  8
0
  6
BYBLOCK
 62
    11
 10
7995.312095
 20
48138.528811
 30
0.0
 40
35.0
  1
52
  0
LINE
  5
27
  8
0
  6
BYBLOCK
 62
     9
 10
8134.0
 20
48155.556898
 30
0.0
 11
8186.0
 21
48155.556898
 31
0.0
  0
SOLID
  5
28
  8
0
  6
BYBLOCK
 62
     9
 10
8114.0
 20
48158.890231
 30
0.0
 11
8114.0
 21
48152.223565
 31
0.0
 12
8134.0
 22
48155.556898
 32
0.0
 13
8134.0
 23
48155.556898
 33
0.0
  0
SOLID
  5
29
  8
0
  6
BYBLOCK
 62
     9
 10
8206.0
 20
48158.890231
 30
0.0
 11
8206.0
 21
48152.223565
 31
0.0
 12
8186.0
 22
48155.556898
 32
0.0
 13
8186.0
 23
48155.556898
 33
0.0
  0
POINT
  5
2A
  8
DEFPOINTS
  6
BYBLOCK
 62
     0
 10
8134.0
 20
48192.685052
 30
0.0
  0
POINT
  5
2C
  8
DEFPOINTS
  6
BYBLOCK
 62
     0
 10
8186.0
 20
48192.685052
 30
0.0
  0
POINT
  5
2D
  8
DEFPOINTS
  6
BYBLOCK
 62
     0
 10
8186.0
 20
48155.556898
 30
0.0
  0
ENDBLK
  5
2F
  8
0
  0
ENDSEC
  0
SECTION
  2
ENTITIES
  0
DIMENSION
  5
20
  8
TEAM-MAS
  2
*D3
 10
186.0
 20
155.556898
 30
0.0
 11
24.478762
 21
156.028811
 31
0.0
 12
-8000.0
 22
-48000.0
 32
0.0
 70
   128
 13
134.0
 23
192.685052
 33
0.0
 14
186.0
 24
192.685052
 34
0.0
1001
ACAD
1000
DSTYLE
1002
{
1070
    78
1070
     0
1070
    40
1040
1.0
1002
}
  0
DIMENSION
  5
30
  8
TEAM-MAS
  2
*D0
 10
537.5
 20
746.75095
 30
0.0
 11
0.0
 21
746.75095
 31
0.0
 12
-8000.0
 22
-48000.0
 32
0.0
 70
   128
 13
-537.5
 23
694.0
 33
0.0
 14
537.5
 24
694.0
 34
0.0
1001
ACAD
1000
DSTYLE
1002
{
1070
    40
1040
1.0
1002
}
  0
DIMENSION
  5
3E
  8
TEAM-MAS
  2
*D1
 10
634.990347
 20
0.0
 30
0.0
 11
634.990347
 21
350.0
 31
0.0
 12
-8000.0
 22
-48000.0
 32
0.0
 13
531.5
 23
700.0
 33
0.0
 14
0.0
 24
0.0
 34
0.0
 50
270.0
1001
ACAD
1000
DSTYLE
1002
{
1070
    40
1040
1.0
1002
}
  0
LINE
  5
4C
  8
TEAM-DET1
 10
-414.738269
 20
650.0
 30
0.0
 11
415.146065
 21
650.0
 31
0.0
  0
LINE
  5
4E
  8
TEAM-BODY
 10
-225.101651
 20
238.682939
 30
0.0
 11
85.0
 21
220.0
 31
0.0
  0
LINE
  5
50
  8
TEAM-BODY
 10
531.5
 20
700.0
 30
0.0
 11
-531.5
 21
700.0
 31
0.0
  0
POLYLINE
  5
51
  8
TEAM-HIDE
 66
     1
 10
0.0
 20
0.0
 30
0.0
 70
     1
  0
VERTEX
  5
EF
  8
TEAM-HIDE
 10
-79.73689
 20
651.4939
 30
0.0
  0
VERTEX
  5
F0
  8
TEAM-HIDE
 10
79.73689
 20
651.4939
 30
0.0
  0
VERTEX
  5
F1
  8
TEAM-HIDE
 10
79.73689
 20
700.0
 30
0.0
  0
VERTEX
  5
F2
  8
TEAM-HIDE
 10
-79.73689
 20
700.0
 30
0.0
  0
SEQEND
  5
F3
  8
TEAM-HIDE
  0
ARC
  5
54
  8
TEAM-BODY
 10
-191.209443
 20
353.788916
 30
0.0
 40
119.991948
 50
200.561396
 51
253.593277
  0
CIRCLE
  5
55
  8
TEAM-INSP
 10
0.0
 20
0.0
 30
0.0
 40
10.0
  0
LINE
  5
57
  8
TEAM-DET1
 10
-459.811224
 20
610.0
 30
0.0
 11
-398.391352
 21
610.0
 31
0.0
  0
ARC
  5
58
  8
TEAM-BODY
 10
-2464.456911
 20
-211.004819
 30
0.0
 40
2223.212947
 50
13.596832
 51
23.120576
  0
POLYLINE
  5
59
  8
TEAM-BODY
 66
     1
 10
0.0
 20
0.0
 30
0.0
  0
VERTEX
  5
F4
  8
TEAM-BODY
 10
-419.811224
 20
661.97847
 30
0.0
  0
VERTEX
  5
F5
  8
TEAM-BODY
 10
-419.811224
 20
650.0
 30
0.0
 42
-1.0
  0
VERTEX
  5
F6
  8
TEAM-BODY
 10
-499.811224
 20
650.0
 30
0.0
  0
VERTEX
  5
F7
  8
TEAM-BODY
 10
-499.811224
 20
690.484063
 30
0.0
  0
SEQEND
  5
F8
  8
TEAM-BODY
  0
ARC
  5
5A
  8
TEAM-BODY
 10
-851.281591
 20
-422.417339
 30
0.0
 40
1167.082238
 50
72.473129
 51
74.097516
  0
LINE
  5
5B
  8
TEAM-DET1
 10
-531.5
 20
650.0
 30
0.0
 11
-499.811224
 21
650.0
 31
0.0
  0
LINE
  5
5C
  8
TEAM-BODY
 10
-537.5
 20
694.0
 30
0.0
 11
-537.5
 21
656.0
 31
0.0
  0
ARC
  5
5D
  8
TEAM-BODY
 10
-531.5
 20
656.0
 30
0.0
 40
6.0
 50
180.0
 51
270.0
  0
ARC
  5
5E
  8
TEAM-BODY
 10
-531.5
 20
694.0
 30
0.0
 40
6.0
 50
90.0
 51
180.0
  0
ARC
  5
5F
  8
TEAM-BODY
 10
-531.5
 20
694.0
 30
0.0
 40
6.0
 50
90.0
 51
180.0
  0
ARC
  5
60
  8
TEAM-BODY
 10
-531.5
 20
656.0
 30
0.0
 40
6.0
 50
180.0
 51
270.0
  0
LINE
  5
61
  8
TEAM-BODY
 10
-537.5
 20
694.0
 30
0.0
 11
-537.5
 21
656.0
 31
0.0
  0
LINE
  5
62
  8
TEAM-DET1
 10
-531.5
 20
650.0
 30
0.0
 11
-499.811224
 21
650.0
 31
0.0
  0
TEXT
  5
63
  8
TEAM-TXT
 10
-280.79683
 20
597.75601
 30
0.0
 40
30.0
  1
team 121031
 41
0.8
 51
15.0
  7
TEAM
  0
DIMENSION
  5
66
  8
TEAM-MAS
  2
*D2
 10
584.04353
 20
220.0
 30
0.0
 11
584.04353
 21
460.0
 31
0.0
 12
-8000.0
 22
-48000.0
 32
0.0
 13
531.5
 23
700.0
 33
0.0
 14
158.832108
 24
220.0
 34
0.0
 50
270.0
1001
ACAD
1000
DSTYLE
1002
{
1070
    40
1040
1.0
1002
}
  0
ARC
  5
74
  8
TEAM-BODY
 10
224.690128
 20
331.117206
 30
0.0
 40
111.40296
 50
274.104672
 51
359.866758
  0
LINE
  5
75
  8
TEAM-KAN
 10
186.0
 20
192.685052
 30
0.0
 11
134.0
 21
192.685052
 31
0.0
  0
LINE
  5
77
  8
TEAM-KAN
 10
186.0
 20
192.685052
 30
0.0
 11
186.0
 21
196.726504
 31
0.0
  0
LINE
  5
78
  8
TEAM-AXE
 10
160.0
 20
177.004764
 30
0.0
 11
160.0
 21
218.36534
 31
0.0
  0
LINE
  5
7B
  8
TEAM-KAN
 10
134.0
 20
192.685052
 30
0.0
 11
134.0
 21
196.726504
 31
0.0
  0
LINE
  5
7C
  8
TEAM-DET1
 10
134.0
 20
196.726504
 30
0.0
 11
85.0
 21
220.0
 31
0.0
  0
LINE
  5
7D
  8
TEAM-BODY
 10
232.664216
 20
220.0
 30
0.0
 11
85.0
 21
220.0
 31
0.0
  0
LINE
  5
7E
  8
TEAM-DET1
 10
235.0
 20
221.164958
 30
0.0
 11
186.0
 21
196.726504
 31
0.0
  0
LINE
  5
7F
  8
TEAM-DET1
 10
459.811224
 20
610.0
 30
0.0
 11
400.518914
 21
610.0
 31
0.0
  0
ARC
  5
80
  8
TEAM-BODY
 10
1658.54495
 20
172.641023
 30
0.0
 40
1331.88302
 50
158.444475
 51
173.177607
  0
POLYLINE
  5
81
  8
TEAM-BODY
 66
     1
 10
0.0
 20
0.0
 30
0.0
  0
VERTEX
  5
F9
  8
TEAM-BODY
 10
419.811224
 20
661.97847
 30
0.0
  0
VERTEX
  5
FA
  8
TEAM-BODY
 10
419.811224
 20
650.0
 30
0.0
 42
1.0
  0
VERTEX
  5
FB
  8
TEAM-BODY
 10
499.811224
 20
650.0
 30
0.0
  0
VERTEX
  5
FC
  8
TEAM-BODY
 10
499.811224
 20
690.484063
 30
0.0
  0
SEQEND
  5
FD
  8
TEAM-BODY
  0
POLYLINE
  5
82
  8
TEAM-DET1
 66
     1
 10
0.0
 20
0.0
 30
0.0
 70
     1
  0
VERTEX
  5
FE
  8
TEAM-DET1
 10
531.5
 20
700.0
 30
0.0
  0
VERTEX
  5
FF
  8
TEAM-DET1
 10
452.243896
 20
700.0
 30
0.0
  0
VERTEX
  5
100
  8
TEAM-DET1
 10
452.243896
 20
720.856945
 30
0.0
  0
VERTEX
  5
101
  8
TEAM-DET1
 10
531.5
 20
720.856945
 30
0.0
  0
SEQEND
  5
102
  8
TEAM-DET1
  0
LINE
  5
83
  8
TEAM-DET1
 10
499.811224
 20
650.0
 30
0.0
 11
531.5
 21
650.0
 31
0.0
  0
ARC
  5
84
  8
TEAM-BODY
 10
531.5
 20
694.0
 30
0.0
 40
6.0
 50
0.0
 51
90.0
  0
ARC
  5
85
  8
TEAM-BODY
 10
531.5
 20
656.0
 30
0.0
 40
6.0
 50
270.0
 51
0.0
  0
LINE
  5
86
  8
TEAM-BODY
 10
537.5
 20
694.0
 30
0.0
 11
537.5
 21
656.0
 31
0.0
  0
LINE
  5
87
  8
TEAM-DET1
 10
531.5
 20
650.0
 30
0.0
 11
499.811224
 21
650.0
 31
0.0
  0
ARC
  5
88
  8
TEAM-BODY
 10
851.281591
 20
-422.417339
 30
0.0
 40
1167.082238
 50
105.902484
 51
107.526871
  0
LINE
  5
89
  8
TEAM-BODY
 10
537.5
 20
694.0
 30
0.0
 11
537.5
 21
656.0
 31
0.0
  0
ARC
  5
8A
  8
TEAM-BODY
 10
531.5
 20
656.0
 30
0.0
 40
6.0
 50
270.0
 51
0.0
  0
ARC
  5
8B
  8
TEAM-BODY
 10
531.5
 20
694.0
 30
0.0
 40
6.0
 50
0.0
 51
90.0
  0
ENDSEC
  0
EOF
