  0
SECTION
  2
HEADER
  9
$ACADVER
  1
AC1009
  9
$INSBASE
 10
0.0
 20
0.0
 30
0.0
  9
$EXTMIN
 10
-952.057777
 20
-673.908629
 30
-0.000003
  9
$EXTMAX
 10
999.561975
 20
602.144241
 30
0.000007
  9
$LIMMIN
 10
-952.057777
 20
-673.908629
  9
$LIMMAX
 10
999.561975
 20
602.144241
  9
$ORTHOMODE
 70
     1
  9
$REGENMODE
 70
     1
  9
$FILLMODE
 70
     1
  9
$QTEXTMODE
 70
     0
  9
$MIRRTEXT
 70
     0
  9
$DRAGMODE
 70
     2
  9
$LTSCALE
 40
50.0
  9
$OSMODE
 70
     7
  9
$ATTMODE
 70
     1
  9
$TEXTSIZE
 40
200.0
  9
$TRACEWID
 40
1.0
  9
$TEXTSTYLE
  7
STANDARD
  9
$CLAYER
  8
TEAM-MAS
  9
$CELTYPE
  6
BYLAYER
  9
$CECOLOR
 62
   256
  9
$DIMSCALE
 40
0.0
  9
$DIMASZ
 40
20.0
  9
$DIMEXO
 40
10.0
  9
$DIMDLI
 40
1.0
  9
$DIMRND
 40
0.0
  9
$DIMDLE
 40
0.0
  9
$DIMEXE
 40
1.0
  9
$DIMTP
 40
0.0
  9
$DIMTM
 40
0.0
  9
$DIMTXT
 40
35.0
  9
$DIMCEN
 40
1.0
  9
$DIMTSZ
 40
0.0
  9
$DIMTOL
 70
     0
  9
$DIMLIM
 70
     0
  9
$DIMTIH
 70
     0
  9
$DIMTOH
 70
     0
  9
$DIMSE1
 70
     0
  9
$DIMSE2
 70
     0
  9
$DIMTAD
 70
     0
  9
$DIMZIN
 70
     0
  9
$DIMBLK
  1

  9
$DIMASO
 70
     1
  9
$DIMSHO
 70
     0
  9
$DIMPOST
  1

  9
$DIMAPOST
  1

  9
$DIMALT
 70
     0
  9
$DIMALTD
 70
     2
  9
$DIMALTF
 40
25.4
  9
$DIMLFAC
 40
1.0
  9
$DIMTOFL
 70
     0
  9
$DIMTVP
 40
0.0
  9
$DIMTIX
 70
     0
  9
$DIMSOXD
 70
     0
  9
$DIMSAH
 70
     0
  9
$DIMBLK1
  1

  9
$DIMBLK2
  1

  9
$DIMSTYLE
  2
TEAM
  9
$DIMCLRD
 70
     9
  9
$DIMCLRE
 70
     9
  9
$DIMCLRT
 70
    11
  9
$DIMTFAC
 40
1.0
  9
$DIMGAP
 40
7.0
  9
$LUNITS
 70
     2
  9
$LUPREC
 70
     1
  9
$SKETCHINC
 40
1.0
  9
$FILLETRAD
 40
5.0
  9
$AUNITS
 70
     0
  9
$AUPREC
 70
     0
  9
$MENU
  1
ROPLANS
  9
$ELEVATION
 40
0.0
  9
$PELEVATION
 40
0.0
  9
$THICKNESS
 40
0.0
  9
$LIMCHECK
 70
     0
  9
$BLIPMODE
 70
     1
  9
$CHAMFERA
 40
0.0
  9
$CHAMFERB
 40
0.0
  9
$SKPOLY
 70
     0
  9
$TDCREATE
 40
2450392.957851
  9
$TDUPDATE
 40
2456004.599416
  9
$TDINDWG
 40
2.546599
  9
$TDUSRTIMER
 40
2.546599
  9
$USRTIMER
 70
     1
  9
$ANGBASE
 50
0.0
  9
$ANGDIR
 70
     0
  9
$PDMODE
 70
     0
  9
$PDSIZE
 40
0.0
  9
$PLINEWID
 40
0.0
  9
$COORDS
 70
     2
  9
$SPLFRAME
 70
     0
  9
$SPLINETYPE
 70
     6
  9
$SPLINESEGS
 70
     8
  9
$ATTDIA
 70
     0
  9
$ATTREQ
 70
     0
  9
$HANDLING
 70
     1
  9
$HANDSEED
  5
13D
  9
$SURFTAB1
 70
    36
  9
$SURFTAB2
 70
    36
  9
$SURFTYPE
 70
     6
  9
$SURFU
 70
     6
  9
$SURFV
 70
     6
  9
$UCSNAME
  2

  9
$UCSORG
 10
0.0
 20
0.0
 30
0.0
  9
$UCSXDIR
 10
1.0
 20
0.0
 30
0.0
  9
$UCSYDIR
 10
0.0
 20
1.0
 30
0.0
  9
$PUCSNAME
  2

  9
$PUCSORG
 10
0.0
 20
0.0
 30
0.0
  9
$PUCSXDIR
 10
1.0
 20
0.0
 30
0.0
  9
$PUCSYDIR
 10
0.0
 20
1.0
 30
0.0
  9
$USERI1
 70
     0
  9
$USERI2
 70
     0
  9
$USERI3
 70
     0
  9
$USERI4
 70
     0
  9
$USERI5
 70
     0
  9
$USERR1
 40
0.0
  9
$USERR2
 40
0.0
  9
$USERR3
 40
0.0
  9
$USERR4
 40
0.0
  9
$USERR5
 40
0.0
  9
$WORLDVIEW
 70
     1
  9
$SHADEDGE
 70
     0
  9
$SHADEDIF
 70
    70
  9
$TILEMODE
 70
     1
  9
$MAXACTVP
 70
    16
  9
$PLIMCHECK
 70
     0
  9
$PEXTMIN
 10
-0.805942
 20
0.005011
 30
0.0
  9
$PEXTMAX
 10
20.250094
 20
11.356329
 30
0.0
  9
$PLIMMIN
 10
0.0
 20
0.0
  9
$PLIMMAX
 10
12.0
 20
9.0
  9
$UNITMODE
 70
     0
  9
$VISRETAIN
 70
     0
  9
$PLINEGEN
 70
     0
  9
$PSLTSCALE
 70
     0
  0
ENDSEC
  0
SECTION
  2
TABLES
  0
TABLE
  2
VPORT
 70
     2
  0
VPORT
  2
*ACTIVE
 70
     0
 10
0.0
 20
0.0
 11
1.0
 21
1.0
 12
23.752099
 22
-35.882194
 13
0.0
 23
0.0
 14
1.0
 24
1.0
 15
50.0
 25
50.0
 16
0.0
 26
0.0
 36
1.0
 17
0.0
 27
0.0
 37
0.0
 40
1284.053202
 41
1.903766
 42
50.0
 43
0.0
 44
0.0
 50
0.0
 51
0.0
 71
     0
 72
   100
 73
     1
 74
     1
 75
     0
 76
     0
 77
     0
 78
     0
  0
ENDTAB
  0
TABLE
  2
LTYPE
 70
     2
  0
LTYPE
  2
CONTINUOUS
 70
     0
  3
Solid Line
 72
    65
 73
     0
 40
0.0
  0
LTYPE
  2
31
 70
     0
  3

 72
    65
 73
     4
 40
2.1
 49
1.5
 49
-0.3
 49
0.0
 49
-0.3
  0
ENDTAB
  0
TABLE
  2
LAYER
 70
     7
  0
LAYER
  2
0
 70
     0
 62
     7
  6
CONTINUOUS
  0
LAYER
  2
DEFPOINTS
 70
     0
 62
     7
  6
CONTINUOUS
  0
LAYER
  2
TEAM-BODY
 70
     0
 62
     2
  6
CONTINUOUS
  0
LAYER
  2
TEAM-AXE
 70
     0
 62
    10
  6
31
  0
LAYER
  2
TEAM-MAS
 70
     0
 62
     9
  6
CONTINUOUS
  0
LAYER
  2
TEAM-TXT
 70
     0
 62
    11
  6
CONTINUOUS
  0
LAYER
  2
TEAM-DET1
 70
     0
 62
     4
  6
CONTINUOUS
  0
ENDTAB
  0
TABLE
  2
STYLE
 70
     2
  0
STYLE
  2
STANDARD
 70
     0
 40
0.0
 41
1.0
 50
0.0
 71
     0
 42
200.0
  3
txt
  4

  0
STYLE
  2
TEAM
 70
     0
 40
0.0
 41
0.8
 50
15.0
 71
     0
 42
7.0
  3
ROMANS.shx
  4

  0
ENDTAB
  0
TABLE
  2
VIEW
 70
     0
  0
ENDTAB
  0
TABLE
  2
UCS
 70
     0
  0
ENDTAB
  0
TABLE
  2
APPID
 70
     1
  0
APPID
  2
ACAD
 70
     0
  0
ENDTAB
  0
TABLE
  2
DIMSTYLE
 70
     1
  0
DIMSTYLE
  2
TEAM
 70
     0
  3

  4

  5

  6

  7

 40
0.0
 41
20.0
 42
10.0
 43
1.0
 44
1.0
 45
0.0
 46
0.0
 47
0.0
 48
0.0
140
35.0
141
1.0
142
0.0
143
25.4
144
1.0
145
0.0
146
1.0
147
7.0
 71
     0
 72
     0
 73
     0
 74
     0
 75
     0
 76
     0
 77
     0
 78
     0
170
     0
171
     2
172
     0
173
     0
174
     0
175
     0
176
     9
177
     9
178
    11
  0
ENDTAB
  0
ENDSEC
  0
SECTION
  2
BLOCKS
  0
BLOCK
  8
0
  2
$MODEL_SPACE
 70
     0
 10
0.0
 20
0.0
 30
0.0
  3
$MODEL_SPACE
  1

  0
ENDBLK
  5
10D
  8
0
  0
BLOCK
 67
     1
  8
0
  2
$PAPER_SPACE
 70
     0
 10
0.0
 20
0.0
 30
0.0
  3
$PAPER_SPACE
  1

  0
ENDBLK
  5
10B
 67
     1
  8
0
  0
BLOCK
  8
0
  2
*D0
 70
     1
 10
0.0
 20
0.0
 30
0.0
  3
*D0
  1

  0
LINE
  5
7B
  8
0
  6
BYBLOCK
 62
     9
 10
4950.082985
 20
67400.0
 30
0.0
 11
4982.970372
 21
67400.0
 31
0.0
  0
LINE
  5
7C
  8
0
  6
BYBLOCK
 62
     9
 10
4950.082985
 20
68600.0
 30
0.0
 11
4982.970372
 21
68600.0
 31
0.0
  0
LINE
  5
7D
  8
0
  6
BYBLOCK
 62
     9
 10
4981.970372
 20
67420.0
 30
0.0
 11
4981.970372
 21
67905.5
 31
0.0
  0
LINE
  5
7E
  8
0
  6
BYBLOCK
 62
     9
 10
4981.970372
 20
68580.0
 30
0.0
 11
4981.970372
 21
68094.5
 31
0.0
  0
SOLID
  5
7F
  8
0
  6
BYBLOCK
 62
     9
 10
4978.637039
 20
67420.0
 30
0.0
 11
4985.303705
 21
67420.0
 31
0.0
 12
4981.970372
 22
67400.0
 32
0.0
 13
4981.970372
 23
67400.0
 33
0.0
  0
SOLID
  5
80
  8
0
  6
BYBLOCK
 62
     9
 10
4978.637039
 20
68580.0
 30
0.0
 11
4985.303705
 21
68580.0
 31
0.0
 12
4981.970372
 22
68600.0
 32
0.0
 13
4981.970372
 23
68600.0
 33
0.0
  0
TEXT
  5
81
  8
0
  6
BYBLOCK
 62
    11
 10
4999.470372
 20
67912.5
 30
0.0
 40
35.0
  1
1200.00
 50
90.0
  0
POINT
  5
82
  8
DEFPOINTS
  6
BYBLOCK
 62
     0
 10
4940.082985
 20
67400.0
 30
0.0
  0
POINT
  5
83
  8
DEFPOINTS
  6
BYBLOCK
 62
     0
 10
4940.082985
 20
68600.0
 30
0.0
  0
POINT
  5
84
  8
DEFPOINTS
  6
BYBLOCK
 62
     0
 10
4981.970372
 20
68600.0
 30
0.0
  0
ENDBLK
  5
86
  8
0
  0
BLOCK
  8
0
  2
*D1
 70
     1
 10
0.0
 20
0.0
 30
0.0
  3
*D1
  1

  0
LINE
  5
22
  8
0
  6
BYBLOCK
 62
     9
 10
4950.082985
 20
67400.0
 30
0.0
 11
4950.082985
 21
67342.661612
 31
0.0
  0
LINE
  5
23
  8
0
  6
BYBLOCK
 62
     9
 10
3050.082985
 20
67400.0
 30
0.0
 11
3050.082985
 21
67342.661612
 31
0.0
  0
LINE
  5
24
  8
0
  6
BYBLOCK
 62
     9
 10
4930.082985
 20
67343.661612
 30
0.0
 11
4094.582985
 21
67343.661612
 31
0.0
  0
LINE
  5
25
  8
0
  6
BYBLOCK
 62
     9
 10
3070.082985
 20
67343.661612
 30
0.0
 11
3905.582985
 21
67343.661612
 31
0.0
  0
SOLID
  5
26
  8
0
  6
BYBLOCK
 62
     9
 10
4930.082985
 20
67346.994945
 30
0.0
 11
4930.082985
 21
67340.328279
 31
0.0
 12
4950.082985
 22
67343.661612
 32
0.0
 13
4950.082985
 23
67343.661612
 33
0.0
  0
SOLID
  5
27
  8
0
  6
BYBLOCK
 62
     9
 10
3070.082985
 20
67346.994945
 30
0.0
 11
3070.082985
 21
67340.328279
 31
0.0
 12
3050.082985
 22
67343.661612
 32
0.0
 13
3050.082985
 23
67343.661612
 33
0.0
  0
TEXT
  5
28
  8
0
  6
BYBLOCK
 62
    11
 10
3912.582985
 20
67326.161612
 30
0.0
 40
35.0
  1
1900.00
  0
POINT
  5
29
  8
DEFPOINTS
  6
BYBLOCK
 62
     0
 10
4950.082985
 20
67410.0
 30
0.0
  0
POINT
  5
2B
  8
DEFPOINTS
  6
BYBLOCK
 62
     0
 10
3050.082985
 20
67410.0
 30
0.0
  0
POINT
  5
2C
  8
DEFPOINTS
  6
BYBLOCK
 62
     0
 10
3050.082985
 20
67343.661612
 30
0.0
  0
ENDBLK
  5
2E
  8
0
  0
BLOCK
  8
0
  2
*D2
 70
     1
 10
0.0
 20
0.0
 30
0.0
  3
*D2
  1

  0
LINE
  5
39
  8
0
  6
BYBLOCK
 62
     9
 10
4567.762846
 20
67625.0
 30
0.0
 11
4127.342901
 21
67625.0
 31
0.0
  0
LINE
  5
3A
  8
0
  6
BYBLOCK
 62
     9
 10
4070.098636
 20
68000.0
 30
0.0
 11
4129.342901
 21
68000.0
 31
0.0
  0
LINE
  5
3B
  8
0
  6
BYBLOCK
 62
     9
 10
4128.342901
 20
67645.0
 30
0.0
 11
4128.342901
 21
67723.833333
 31
0.0
  0
LINE
  5
3C
  8
0
  6
BYBLOCK
 62
     9
 10
4128.342901
 20
67980.0
 30
0.0
 11
4128.342901
 21
67901.166667
 31
0.0
  0
SOLID
  5
3D
  8
0
  6
BYBLOCK
 62
     9
 10
4125.009568
 20
67645.0
 30
0.0
 11
4131.676234
 21
67645.0
 31
0.0
 12
4128.342901
 22
67625.0
 32
0.0
 13
4128.342901
 23
67625.0
 33
0.0
  0
SOLID
  5
3E
  8
0
  6
BYBLOCK
 62
     9
 10
4125.009568
 20
67980.0
 30
0.0
 11
4131.676234
 21
67980.0
 31
0.0
 12
4128.342901
 22
68000.0
 32
0.0
 13
4128.342901
 23
68000.0
 33
0.0
  0
TEXT
  5
3F
  8
0
  6
BYBLOCK
 62
    11
 10
4145.842901
 20
67730.833333
 30
0.0
 40
35.0
  1
375.00
 50
90.0
  0
POINT
  5
40
  8
DEFPOINTS
  6
BYBLOCK
 62
     0
 10
4577.762846
 20
67625.0
 30
0.0
  0
POINT
  5
41
  8
DEFPOINTS
  6
BYBLOCK
 62
     0
 10
4060.098636
 20
68000.0
 30
0.0
  0
POINT
  5
42
  8
DEFPOINTS
  6
BYBLOCK
 62
     0
 10
4128.342901
 20
68000.0
 30
0.0
  0
ENDBLK
  5
44
  8
0
  0
BLOCK
  8
0
  2
*D3
 70
     1
 10
0.0
 20
0.0
 30
0.0
  3
*D3
  1

  0
LINE
  5
47
  8
0
  6
BYBLOCK
 62
     9
 10
4950.082985
 20
67400.0
 30
0.0
 11
4950.082985
 21
67372.62953
 31
0.0
  0
LINE
  5
48
  8
0
  6
BYBLOCK
 62
     9
 10
4000.082985
 20
67928.952589
 30
0.0
 11
4000.082985
 21
67372.62953
 31
0.0
  0
LINE
  5
49
  8
0
  6
BYBLOCK
 62
     9
 10
4930.082985
 20
67373.62953
 30
0.0
 11
4560.832985
 21
67373.62953
 31
0.0
  0
LINE
  5
4A
  8
0
  6
BYBLOCK
 62
     9
 10
4020.082985
 20
67373.62953
 30
0.0
 11
4389.332985
 21
67373.62953
 31
0.0
  0
SOLID
  5
4B
  8
0
  6
BYBLOCK
 62
     9
 10
4930.082985
 20
67376.962863
 30
0.0
 11
4930.082985
 21
67370.296196
 31
0.0
 12
4950.082985
 22
67373.62953
 32
0.0
 13
4950.082985
 23
67373.62953
 33
0.0
  0
SOLID
  5
4C
  8
0
  6
BYBLOCK
 62
     9
 10
4020.082985
 20
67376.962863
 30
0.0
 11
4020.082985
 21
67370.296196
 31
0.0
 12
4000.082985
 22
67373.62953
 32
0.0
 13
4000.082985
 23
67373.62953
 33
0.0
  0
TEXT
  5
4D
  8
0
  6
BYBLOCK
 62
    11
 10
4396.332985
 20
67356.12953
 30
0.0
 40
35.0
  1
950.00
  0
POINT
  5
4E
  8
DEFPOINTS
  6
BYBLOCK
 62
     0
 10
4950.082985
 20
67410.0
 30
0.0
  0
POINT
  5
4F
  8
DEFPOINTS
  6
BYBLOCK
 62
     0
 10
4000.082985
 20
67938.952589
 30
0.0
  0
POINT
  5
50
  8
DEFPOINTS
  6
BYBLOCK
 62
     0
 10
4000.082985
 20
67373.62953
 30
0.0
  0
ENDBLK
  5
52
  8
0
  0
ENDSEC
  0
SECTION
  2
ENTITIES
  0
DIMENSION
  5
20
  8
TEAM-MAS
  2
*D1
 10
-949.917015
 20
-656.338388
 30
0.0
 11
0.082985
 21
-656.338388
 31
0.0
 12
-4000.0
 22
-68000.0
 32
0.0
 13
950.082985
 23
-590.0
 33
0.0
 14
-949.917015
 24
-590.0
 34
0.0
1001
ACAD
1000
DSTYLE
1002
{
1070
    40
1040
1.0
1002
}
  0
LINE
  5
2F
  8
TEAM-DET1
 10
-905.014741
 20
-575.0
 30
0.0
 11
582.131878
 21
-575.0
 31
0.0
  0
LINE
  5
31
  8
TEAM-BODY
 10
584.198344
 20
-500.0
 30
0.0
 11
-407.704932
 21
-500.0
 31
0.0
  0
LINE
  5
33
  8
TEAM-BODY
 10
-584.032375
 20
500.0
 30
0.0
 11
407.870901
 21
500.0
 31
0.0
  0
LINE
  5
34
  8
TEAM-BODY
 10
403.818307
 20
-414.473422
 30
0.0
 11
-440.325313
 21
-414.473425
 31
0.0
  0
LINE
  5
35
  8
TEAM-BODY
 10
-403.652337
 20
414.473423
 30
0.0
 11
440.491281
 21
414.473426
 31
0.0
  0
LINE
  5
36
  8
TEAM-BODY
 10
-939.917015
 20
-600.0
 30
0.0
 11
940.082985
 21
-600.0
 31
0.0
  0
DIMENSION
  5
37
  8
TEAM-MAS
  2
*D2
 10
128.342901
 20
0.0
 30
0.0
 11
128.342901
 21
-187.5
 31
0.0
 12
-4000.0
 22
-68000.0
 32
0.0
 13
577.762846
 23
-375.0
 33
0.0
 14
60.098636
 24
0.0
 34
0.0
 50
90.0
1001
ACAD
1000
DSTYLE
1002
{
1070
    40
1040
1.0
1002
}
  0
DIMENSION
  5
45
  8
TEAM-MAS
  2
*D3
 10
0.082985
 20
-626.37047
 30
0.0
 11
475.082985
 21
-626.37047
 31
0.0
 12
-4000.0
 22
-68000.0
 32
0.0
 13
950.082985
 23
-590.0
 33
0.0
 14
0.082985
 24
-61.047411
 34
0.0
1001
ACAD
1000
DSTYLE
1002
{
1070
    40
1040
1.0
1002
}
  0
LINE
  5
53
  8
TEAM-DET1
 10
905.18071
 20
575.0
 30
0.0
 11
-581.965909
 21
575.0
 31
0.0
  0
LINE
  5
54
  8
TEAM-BODY
 10
-939.917015
 20
600.0
 30
0.0
 11
940.082985
 21
600.0
 31
0.0
  0
LINE
  5
55
  8
TEAM-BODY
 10
-599.917015
 20
590.0
 30
0.0
 11
-599.917015
 21
290.0
 31
0.0
  0
TEXT
  5
56
  8
TEAM-TXT
 10
-375.315643
 20
313.049878
 30
0.0
 40
30.0
  1
team 121059
 41
0.8
 51
15.0
  7
TEAM
  0
ARC
  5
59
  8
TEAM-BODY
 10
-639.917015
 20
290.0
 30
0.0
 40
40.0
 50
270.0
 51
0.0
  0
ARC
  5
5A
  8
TEAM-BODY
 10
-953.652338
 20
311.441868
 30
0.0
 40
450.0
 50
317.165812
 51
0.0
  0
ARC
  5
5B
  8
TEAM-BODY
 10
-935.387709
 20
250.0
 30
0.0
 40
335.470694
 50
321.851802
 51
0.0
  0
LINE
  5
5C
  8
TEAM-BODY
 10
-639.917015
 20
250.0
 30
0.0
 11
-939.917015
 21
250.0
 31
0.0
  0
ARC
  5
5D
  8
TEAM-BODY
 10
-403.652337
 20
314.473423
 30
0.0
 40
100.0
 50
90.0
 51
180.0
  0
LINE
  5
5E
  8
TEAM-BODY
 10
-503.652337
 20
311.441868
 30
0.0
 11
-503.652337
 21
314.473423
 31
0.0
  0
CIRCLE
  5
5F
  8
TEAM-BODY
 10
0.082985
 20
0.0
 30
0.0
 40
52.0
  0
CIRCLE
  5
60
  8
TEAM-DET1
 10
0.082985
 20
0.0
 30
0.0
 40
26.0
  0
LINE
  5
61
  8
TEAM-AXE
 10
-60.098636
 20
0.0
 30
0.0
 11
60.098636
 21
0.0
 31
0.0
  0
LINE
  5
64
  8
TEAM-AXE
 10
0.082985
 20
-61.047411
 30
0.0
 11
0.082985
 21
60.321365
 31
0.0
  0
LINE
  5
65
  8
TEAM-BODY
 10
-545.207462
 20
600.0
 30
0.0
 11
-451.966333
 21
600.0
 31
0.0
  0
LINE
  5
66
  8
TEAM-BODY
 10
-463.374831
 20
599.903648
 30
0.0
 11
-463.419646
 21
599.88124
 31
0.0
  0
ARC
  5
67
  8
TEAM-BODY
 10
-939.917015
 20
590.0
 30
0.0
 40
10.0
 50
90.0
 51
180.0
  0
ARC
  5
68
  8
TEAM-BODY
 10
-939.917015
 20
-590.0
 30
0.0
 40
10.0
 50
180.0
 51
270.0
  0
LINE
  5
69
  8
TEAM-BODY
 10
-949.917015
 20
-590.0
 30
0.0
 11
-949.917015
 21
590.0
 31
0.0
  0
LINE
  5
6A
  8
TEAM-DET1
 10
-924.917015
 20
-555.949216
 30
0.0
 11
-924.917015
 21
233.536997
 31
0.0
  0
ARC
  5
6B
  8
TEAM-BODY
 10
-407.704932
 20
-164.473425
 30
0.0
 40
335.526574
 50
141.851802
 51
270.0
  0
ARC
  5
6C
  8
TEAM-BODY
 10
-440.325314
 20
-164.473425
 30
0.0
 40
250.0
 50
137.165812
 51
270.0
  0
LINE
  5
6D
  8
TEAM-DET1
 10
925.082985
 20
555.949217
 30
0.0
 11
925.082985
 21
-233.536996
 31
0.0
  0
ARC
  5
6E
  8
TEAM-BODY
 10
407.870901
 20
164.473426
 30
0.0
 40
335.526574
 50
321.851802
 51
90.0
  0
ARC
  5
6F
  8
TEAM-BODY
 10
640.082985
 20
-290.0
 30
0.0
 40
40.0
 50
90.0
 51
180.0
  0
LINE
  5
70
  8
TEAM-BODY
 10
503.818307
 20
-311.441868
 30
0.0
 11
503.818307
 21
-314.473422
 31
0.0
  0
ARC
  5
71
  8
TEAM-BODY
 10
953.818307
 20
-311.441868
 30
0.0
 40
450.0
 50
137.165812
 51
180.0
  0
ARC
  5
72
  8
TEAM-BODY
 10
935.553679
 20
-250.0
 30
0.0
 40
335.470694
 50
141.851802
 51
182.126042
  0
LINE
  5
73
  8
TEAM-BODY
 10
640.082985
 20
-250.0
 30
0.0
 11
940.082985
 21
-250.0
 31
0.0
  0
ARC
  5
74
  8
TEAM-BODY
 10
440.491282
 20
164.473426
 30
0.0
 40
250.0
 50
317.165812
 51
90.0
  0
ARC
  5
75
  8
TEAM-BODY
 10
940.082985
 20
590.0
 30
0.0
 40
10.0
 50
0.0
 51
90.0
  0
POLYLINE
  5
76
  8
TEAM-DET1
 66
     1
 10
0.0
 20
0.0
 30
0.0
 70
     1
  0
VERTEX
  5
113
  8
TEAM-DET1
 10
587.082984
 20
-349.0
 30
0.0
  0
VERTEX
  5
114
  8
TEAM-DET1
 10
586.300813
 20
-349.320103
 30
0.0
  0
VERTEX
  5
115
  8
TEAM-DET1
 10
585.5379
 20
-350.27253
 30
0.0
  0
VERTEX
  5
116
  8
TEAM-DET1
 10
584.813032
 20
-351.83383
 30
0.0
  0
VERTEX
  5
117
  8
TEAM-DET1
 10
584.144058
 20
-353.965558
 30
0.0
  0
VERTEX
  5
118
  8
TEAM-DET1
 10
583.54745
 20
-356.615223
 30
0.0
  0
VERTEX
  5
119
  8
TEAM-DET1
 10
583.0379
 20
-359.717583
 30
0.0
  0
VERTEX
  5
11A
  8
TEAM-DET1
 10
582.627951
 20
-363.196247
 30
0.0
  0
VERTEX
  5
11B
  8
TEAM-DET1
 10
582.327701
 20
-366.965558
 30
0.0
  0
VERTEX
  5
11C
  8
TEAM-DET1
 10
582.144542
 20
-370.932704
 30
0.0
  0
VERTEX
  5
11D
  8
TEAM-DET1
 10
582.082984
 20
-375.0
 30
0.0
  0
VERTEX
  5
11E
  8
TEAM-DET1
 10
582.144542
 20
-379.067296
 30
0.0
  0
VERTEX
  5
11F
  8
TEAM-DET1
 10
582.327701
 20
-383.034442
 30
0.0
  0
VERTEX
  5
120
  8
TEAM-DET1
 10
582.627951
 20
-386.803753
 30
0.0
  0
VERTEX
  5
121
  8
TEAM-DET1
 10
583.0379
 20
-390.282416
 30
0.0
  0
VERTEX
  5
122
  8
TEAM-DET1
 10
583.54745
 20
-393.384776
 30
0.0
  0
VERTEX
  5
123
  8
TEAM-DET1
 10
584.144058
 20
-396.034442
 30
0.0
  0
VERTEX
  5
124
  8
TEAM-DET1
 10
584.813032
 20
-398.166169
 30
0.0
  0
VERTEX
  5
125
  8
TEAM-DET1
 10
585.5379
 20
-399.727469
 30
0.0
  0
VERTEX
  5
126
  8
TEAM-DET1
 10
586.300813
 20
-400.679897
 30
0.0
  0
VERTEX
  5
127
  8
TEAM-DET1
 10
587.082984
 20
-401.0
 30
0.0
  0
VERTEX
  5
128
  8
TEAM-DET1
 10
587.865156
 20
-400.679897
 30
0.0
  0
VERTEX
  5
129
  8
TEAM-DET1
 10
588.628069
 20
-399.727469
 30
0.0
  0
VERTEX
  5
12A
  8
TEAM-DET1
 10
589.352937
 20
-398.166169
 30
0.0
  0
VERTEX
  5
12B
  8
TEAM-DET1
 10
590.021911
 20
-396.034442
 30
0.0
  0
VERTEX
  5
12C
  8
TEAM-DET1
 10
590.618519
 20
-393.384776
 30
0.0
  0
VERTEX
  5
12D
  8
TEAM-DET1
 10
591.128069
 20
-390.282416
 30
0.0
  0
VERTEX
  5
12E
  8
TEAM-DET1
 10
591.538018
 20
-386.803753
 30
0.0
  0
VERTEX
  5
12F
  8
TEAM-DET1
 10
591.838268
 20
-383.034442
 30
0.0
  0
VERTEX
  5
130
  8
TEAM-DET1
 10
592.021427
 20
-379.067296
 30
0.0
  0
VERTEX
  5
131
  8
TEAM-DET1
 10
592.082984
 20
-375.0
 30
0.0
  0
VERTEX
  5
132
  8
TEAM-DET1
 10
592.021427
 20
-370.932704
 30
0.0
  0
VERTEX
  5
133
  8
TEAM-DET1
 10
591.838268
 20
-366.965558
 30
0.0
  0
VERTEX
  5
134
  8
TEAM-DET1
 10
591.538018
 20
-363.196247
 30
0.0
  0
VERTEX
  5
135
  8
TEAM-DET1
 10
591.128069
 20
-359.717583
 30
0.0
  0
VERTEX
  5
136
  8
TEAM-DET1
 10
590.618519
 20
-356.615223
 30
0.0
  0
VERTEX
  5
137
  8
TEAM-DET1
 10
590.021911
 20
-353.965558
 30
0.0
  0
VERTEX
  5
138
  8
TEAM-DET1
 10
589.352937
 20
-351.83383
 30
0.0
  0
VERTEX
  5
139
  8
TEAM-DET1
 10
588.628069
 20
-350.27253
 30
0.0
  0
VERTEX
  5
13A
  8
TEAM-DET1
 10
587.865156
 20
-349.320103
 30
0.0
  0
SEQEND
  5
13B
  8
TEAM-DET1
  0
LINE
  5
77
  8
TEAM-AXE
 10
597.795723
 20
-375.0
 30
0.0
 11
577.762846
 21
-375.0
 31
0.0
  0
ARC
  5
78
  8
TEAM-BODY
 10
940.082985
 20
-590.0
 30
0.0
 40
10.0
 50
270.0
 51
0.0
  0
DIMENSION
  5
79
  8
TEAM-MAS
  2
*D0
 10
981.970372
 20
600.0
 30
0.0
 11
981.970372
 21
0.0
 31
0.0
 12
-4000.0
 22
-68000.0
 32
0.0
 13
940.082985
 23
-600.0
 33
0.0
 14
940.082985
 24
600.0
 34
0.0
 50
90.0
1001
ACAD
1000
DSTYLE
1002
{
1070
    40
1040
1.0
1002
}
  0
LINE
  5
87
  8
TEAM-BODY
 10
950.082985
 20
-590.0
 30
0.0
 11
950.082985
 21
590.0
 31
0.0
  0
LINE
  5
88
  8
TEAM-BODY
 10
600.082985
 20
-590.0
 30
0.0
 11
600.082985
 21
-290.0
 31
0.0
  0
ARC
  5
89
  8
TEAM-BODY
 10
403.818307
 20
-314.473422
 30
0.0
 40
100.0
 50
270.0
 51
0.0
  0
ENDSEC
  0
EOF
