  0
SECTION
  2
HEADER
  9
$ACADVER
  1
AC1009
  9
$INSBASE
 10
0.0
 20
0.0
 30
0.0
  9
$EXTMIN
 10
-601.335609
 20
-10.048461
 30
-0.000003
  9
$EXTMAX
 10
713.727671
 20
699.201976
 30
0.000007
  9
$LIMMIN
 10
-601.335609
 20
-10.048461
  9
$LIMMAX
 10
713.727671
 20
699.201976
  9
$ORTHOMODE
 70
     1
  9
$REGENMODE
 70
     1
  9
$FILLMODE
 70
     1
  9
$QTEXTMODE
 70
     0
  9
$MIRRTEXT
 70
     0
  9
$DRAGMODE
 70
     2
  9
$LTSCALE
 40
50.0
  9
$OSMODE
 70
     7
  9
$ATTMODE
 70
     1
  9
$TEXTSIZE
 40
200.0
  9
$TRACEWID
 40
1.0
  9
$TEXTSTYLE
  7
STANDARD
  9
$CLAYER
  8
TEAM-MAS
  9
$CELTYPE
  6
BYLAYER
  9
$CECOLOR
 62
   256
  9
$DIMSCALE
 40
0.0
  9
$DIMASZ
 40
20.0
  9
$DIMEXO
 40
10.0
  9
$DIMDLI
 40
1.0
  9
$DIMRND
 40
0.0
  9
$DIMDLE
 40
0.0
  9
$DIMEXE
 40
1.0
  9
$DIMTP
 40
0.0
  9
$DIMTM
 40
0.0
  9
$DIMTXT
 40
35.0
  9
$DIMCEN
 40
1.0
  9
$DIMTSZ
 40
0.0
  9
$DIMTOL
 70
     0
  9
$DIMLIM
 70
     0
  9
$DIMTIH
 70
     0
  9
$DIMTOH
 70
     0
  9
$DIMSE1
 70
     0
  9
$DIMSE2
 70
     0
  9
$DIMTAD
 70
     0
  9
$DIMZIN
 70
     0
  9
$DIMBLK
  1

  9
$DIMASO
 70
     1
  9
$DIMSHO
 70
     0
  9
$DIMPOST
  1

  9
$DIMAPOST
  1

  9
$DIMALT
 70
     0
  9
$DIMALTD
 70
     2
  9
$DIMALTF
 40
25.4
  9
$DIMLFAC
 40
1.0
  9
$DIMTOFL
 70
     0
  9
$DIMTVP
 40
0.0
  9
$DIMTIX
 70
     0
  9
$DIMSOXD
 70
     0
  9
$DIMSAH
 70
     0
  9
$DIMBLK1
  1

  9
$DIMBLK2
  1

  9
$DIMSTYLE
  2
TEAM
  9
$DIMCLRD
 70
     9
  9
$DIMCLRE
 70
     9
  9
$DIMCLRT
 70
    11
  9
$DIMTFAC
 40
1.0
  9
$DIMGAP
 40
7.0
  9
$LUNITS
 70
     2
  9
$LUPREC
 70
     1
  9
$SKETCHINC
 40
1.0
  9
$FILLETRAD
 40
5.0
  9
$AUNITS
 70
     0
  9
$AUPREC
 70
     0
  9
$MENU
  1
ROPLANS
  9
$ELEVATION
 40
0.0
  9
$PELEVATION
 40
0.0
  9
$THICKNESS
 40
0.0
  9
$LIMCHECK
 70
     0
  9
$BLIPMODE
 70
     1
  9
$CHAMFERA
 40
0.0
  9
$CHAMFERB
 40
0.0
  9
$SKPOLY
 70
     0
  9
$TDCREATE
 40
2450392.957851
  9
$TDUPDATE
 40
2456004.599416
  9
$TDINDWG
 40
2.546599
  9
$TDUSRTIMER
 40
2.546599
  9
$USRTIMER
 70
     1
  9
$ANGBASE
 50
0.0
  9
$ANGDIR
 70
     0
  9
$PDMODE
 70
     0
  9
$PDSIZE
 40
0.0
  9
$PLINEWID
 40
0.0
  9
$COORDS
 70
     2
  9
$SPLFRAME
 70
     0
  9
$SPLINETYPE
 70
     6
  9
$SPLINESEGS
 70
     8
  9
$ATTDIA
 70
     0
  9
$ATTREQ
 70
     0
  9
$HANDLING
 70
     1
  9
$HANDSEED
  5
28A
  9
$SURFTAB1
 70
    36
  9
$SURFTAB2
 70
    36
  9
$SURFTYPE
 70
     6
  9
$SURFU
 70
     6
  9
$SURFV
 70
     6
  9
$UCSNAME
  2

  9
$UCSORG
 10
0.0
 20
0.0
 30
0.0
  9
$UCSXDIR
 10
1.0
 20
0.0
 30
0.0
  9
$UCSYDIR
 10
0.0
 20
1.0
 30
0.0
  9
$PUCSNAME
  2

  9
$PUCSORG
 10
0.0
 20
0.0
 30
0.0
  9
$PUCSXDIR
 10
1.0
 20
0.0
 30
0.0
  9
$PUCSYDIR
 10
0.0
 20
1.0
 30
0.0
  9
$USERI1
 70
     0
  9
$USERI2
 70
     0
  9
$USERI3
 70
     0
  9
$USERI4
 70
     0
  9
$USERI5
 70
     0
  9
$USERR1
 40
0.0
  9
$USERR2
 40
0.0
  9
$USERR3
 40
0.0
  9
$USERR4
 40
0.0
  9
$USERR5
 40
0.0
  9
$WORLDVIEW
 70
     1
  9
$SHADEDGE
 70
     0
  9
$SHADEDIF
 70
    70
  9
$TILEMODE
 70
     1
  9
$MAXACTVP
 70
    16
  9
$PLIMCHECK
 70
     0
  9
$PEXTMIN
 10
-0.805942
 20
0.005011
 30
0.0
  9
$PEXTMAX
 10
20.250094
 20
11.356329
 30
0.0
  9
$PLIMMIN
 10
0.0
 20
0.0
  9
$PLIMMAX
 10
12.0
 20
9.0
  9
$UNITMODE
 70
     0
  9
$VISRETAIN
 70
     0
  9
$PLINEGEN
 70
     0
  9
$PSLTSCALE
 70
     0
  0
ENDSEC
  0
SECTION
  2
TABLES
  0
TABLE
  2
VPORT
 70
     2
  0
VPORT
  2
*ACTIVE
 70
     0
 10
0.0
 20
0.0
 11
1.0
 21
1.0
 12
56.196031
 22
344.576757
 13
0.0
 23
0.0
 14
1.0
 24
1.0
 15
50.0
 25
50.0
 16
0.0
 26
0.0
 36
1.0
 17
0.0
 27
0.0
 37
0.0
 40
713.697148
 41
1.903766
 42
50.0
 43
0.0
 44
0.0
 50
0.0
 51
0.0
 71
     0
 72
   100
 73
     1
 74
     1
 75
     0
 76
     0
 77
     0
 78
     0
  0
ENDTAB
  0
TABLE
  2
LTYPE
 70
     2
  0
LTYPE
  2
CONTINUOUS
 70
     0
  3
Solid Line
 72
    65
 73
     0
 40
0.0
  0
LTYPE
  2
22
 70
     0
  3

 72
    65
 73
     2
 40
1.4
 49
1.2
 49
-0.2
  0
ENDTAB
  0
TABLE
  2
LAYER
 70
    10
  0
LAYER
  2
0
 70
     0
 62
     7
  6
CONTINUOUS
  0
LAYER
  2
DEFPOINTS
 70
     0
 62
     7
  6
CONTINUOUS
  0
LAYER
  2
TEAM-BODY
 70
     0
 62
     2
  6
CONTINUOUS
  0
LAYER
  2
TEAM-MAS
 70
     0
 62
     9
  6
CONTINUOUS
  0
LAYER
  2
TEAM-TXT
 70
     0
 62
    11
  6
CONTINUOUS
  0
LAYER
  2
TEAM-DET1
 70
     0
 62
     4
  6
CONTINUOUS
  0
LAYER
  2
TEAM-HIDE
 70
     0
 62
     8
  6
22
  0
LAYER
  2
TEAM-KAN
 70
     0
 62
     6
  6
CONTINUOUS
  0
LAYER
  2
TEAM-DET3
 70
     0
 62
    14
  6
CONTINUOUS
  0
LAYER
  2
TEAM-INSP
 70
     0
 62
     5
  6
CONTINUOUS
  0
ENDTAB
  0
TABLE
  2
STYLE
 70
     2
  0
STYLE
  2
STANDARD
 70
     0
 40
0.0
 41
1.0
 50
0.0
 71
     0
 42
200.0
  3
txt
  4

  0
STYLE
  2
TEAM
 70
     0
 40
0.0
 41
0.8
 50
15.0
 71
     0
 42
7.0
  3
ROMANS.shx
  4

  0
ENDTAB
  0
TABLE
  2
VIEW
 70
     0
  0
ENDTAB
  0
TABLE
  2
UCS
 70
     0
  0
ENDTAB
  0
TABLE
  2
APPID
 70
     1
  0
APPID
  2
ACAD
 70
     0
  0
ENDTAB
  0
TABLE
  2
DIMSTYLE
 70
     1
  0
DIMSTYLE
  2
TEAM
 70
     0
  3

  4

  5

  6

  7

 40
0.0
 41
20.0
 42
10.0
 43
1.0
 44
1.0
 45
0.0
 46
0.0
 47
0.0
 48
0.0
140
35.0
141
1.0
142
0.0
143
25.4
144
1.0
145
0.0
146
1.0
147
7.0
 71
     0
 72
     0
 73
     0
 74
     0
 75
     0
 76
     0
 77
     0
 78
     0
170
     0
171
     2
172
     0
173
     0
174
     0
175
     0
176
     9
177
     9
178
    11
  0
ENDTAB
  0
ENDSEC
  0
SECTION
  2
BLOCKS
  0
BLOCK
  8
0
  2
$MODEL_SPACE
 70
     0
 10
0.0
 20
0.0
 30
0.0
  3
$MODEL_SPACE
  1

  0
ENDBLK
  5
21E
  8
0
  0
BLOCK
 67
     1
  8
0
  2
$PAPER_SPACE
 70
     0
 10
0.0
 20
0.0
 30
0.0
  3
$PAPER_SPACE
  1

  0
ENDBLK
  5
21C
 67
     1
  8
0
  0
BLOCK
  8
0
  2
*D0
 70
     1
 10
0.0
 20
0.0
 30
0.0
  3
*D0
  1

  0
LINE
  5
7E
  8
0
  6
BYBLOCK
 62
     9
 10
8604.505
 20
68600.0
 30
0.0
 11
8648.278604
 21
68600.0
 31
0.0
  0
LINE
  5
7F
  8
0
  6
BYBLOCK
 62
     9
 10
8010.0
 20
68100.0
 30
0.0
 11
8648.278604
 21
68100.0
 31
0.0
  0
LINE
  5
80
  8
0
  6
BYBLOCK
 62
     9
 10
8647.278604
 20
68580.0
 30
0.0
 11
8647.278604
 21
68432.833333
 31
0.0
  0
LINE
  5
81
  8
0
  6
BYBLOCK
 62
     9
 10
8647.278604
 20
68120.0
 30
0.0
 11
8647.278604
 21
68267.166667
 31
0.0
  0
SOLID
  5
82
  8
0
  6
BYBLOCK
 62
     9
 10
8643.945271
 20
68580.0
 30
0.0
 11
8650.611938
 21
68580.0
 31
0.0
 12
8647.278604
 22
68600.0
 32
0.0
 13
8647.278604
 23
68600.0
 33
0.0
  0
SOLID
  5
83
  8
0
  6
BYBLOCK
 62
     9
 10
8643.945271
 20
68120.0
 30
0.0
 11
8650.611938
 21
68120.0
 31
0.0
 12
8647.278604
 22
68100.0
 32
0.0
 13
8647.278604
 23
68100.0
 33
0.0
  0
TEXT
  5
84
  8
0
  6
BYBLOCK
 62
    11
 10
8664.778604
 20
68274.166667
 30
0.0
 40
35.0
  1
500.00
 50
90.0
  0
POINT
  5
85
  8
DEFPOINTS
  6
BYBLOCK
 62
     0
 10
8594.505
 20
68600.0
 30
0.0
  0
POINT
  5
86
  8
DEFPOINTS
  6
BYBLOCK
 62
     0
 10
8000.0
 20
68100.0
 30
0.0
  0
POINT
  5
87
  8
DEFPOINTS
  6
BYBLOCK
 62
     0
 10
8647.278604
 20
68100.0
 30
0.0
  0
ENDBLK
  5
89
  8
0
  0
BLOCK
  8
0
  2
*D1
 70
     1
 10
0.0
 20
0.0
 30
0.0
  3
*D1
  1

  0
LINE
  5
8C
  8
0
  6
BYBLOCK
 62
     9
 10
8604.0
 20
68650.0
 30
0.0
 11
8697.170741
 21
68650.0
 31
0.0
  0
LINE
  5
8D
  8
0
  6
BYBLOCK
 62
     9
 10
8010.0
 20
68000.0
 30
0.0
 11
8697.170741
 21
68000.0
 31
0.0
  0
LINE
  5
8E
  8
0
  6
BYBLOCK
 62
     9
 10
8696.170741
 20
68630.0
 30
0.0
 11
8696.170741
 21
68410.75
 31
0.0
  0
LINE
  5
8F
  8
0
  6
BYBLOCK
 62
     9
 10
8696.170741
 20
68020.0
 30
0.0
 11
8696.170741
 21
68239.25
 31
0.0
  0
SOLID
  5
90
  8
0
  6
BYBLOCK
 62
     9
 10
8692.837408
 20
68630.0
 30
0.0
 11
8699.504075
 21
68630.0
 31
0.0
 12
8696.170741
 22
68650.0
 32
0.0
 13
8696.170741
 23
68650.0
 33
0.0
  0
SOLID
  5
91
  8
0
  6
BYBLOCK
 62
     9
 10
8692.837408
 20
68020.0
 30
0.0
 11
8699.504075
 21
68020.0
 31
0.0
 12
8696.170741
 22
68000.0
 32
0.0
 13
8696.170741
 23
68000.0
 33
0.0
  0
TEXT
  5
92
  8
0
  6
BYBLOCK
 62
    11
 10
8713.670741
 20
68246.25
 30
0.0
 40
35.0
  1
650.00
 50
90.0
  0
POINT
  5
93
  8
DEFPOINTS
  6
BYBLOCK
 62
     0
 10
8594.0
 20
68650.0
 30
0.0
  0
POINT
  5
94
  8
DEFPOINTS
  6
BYBLOCK
 62
     0
 10
8000.0
 20
68000.0
 30
0.0
  0
POINT
  5
95
  8
DEFPOINTS
  6
BYBLOCK
 62
     0
 10
8696.170741
 20
68000.0
 30
0.0
  0
ENDBLK
  5
97
  8
0
  0
BLOCK
  8
0
  2
*D2
 70
     1
 10
0.0
 20
0.0
 30
0.0
  3
*D2
  1

  0
LINE
  5
AC
  8
0
  6
BYBLOCK
 62
     9
 10
8025.995
 20
68129.222854
 30
0.0
 11
8025.995
 21
68079.216762
 31
0.0
  0
LINE
  5
AD
  8
0
  6
BYBLOCK
 62
     9
 10
7973.995
 20
68129.222854
 30
0.0
 11
7973.995
 21
68079.216762
 31
0.0
  0
LINE
  5
AE
  8
0
  6
BYBLOCK
 62
     9
 10
8045.995
 20
68080.216762
 30
0.0
 11
8065.995
 21
68080.216762
 31
0.0
  0
LINE
  5
AF
  8
0
  6
BYBLOCK
 62
     9
 10
7953.995
 20
68080.216762
 30
0.0
 11
7933.995
 21
68080.216762
 31
0.0
  0
TEXT
  5
B0
  8
0
  6
BYBLOCK
 62
    11
 10
8042.428054
 20
68062.716762
 30
0.0
 40
35.0
  1
52.00
  0
LINE
  5
B1
  8
0
  6
BYBLOCK
 62
     9
 10
8025.995
 20
68080.216762
 30
0.0
 11
7973.995
 21
68080.216762
 31
0.0
  0
SOLID
  5
B2
  8
0
  6
BYBLOCK
 62
     9
 10
8045.995
 20
68083.550096
 30
0.0
 11
8045.995
 21
68076.883429
 31
0.0
 12
8025.995
 22
68080.216762
 32
0.0
 13
8025.995
 23
68080.216762
 33
0.0
  0
SOLID
  5
B3
  8
0
  6
BYBLOCK
 62
     9
 10
7953.995
 20
68083.550096
 30
0.0
 11
7953.995
 21
68076.883429
 31
0.0
 12
7973.995
 22
68080.216762
 32
0.0
 13
7973.995
 23
68080.216762
 33
0.0
  0
POINT
  5
B4
  8
DEFPOINTS
  6
BYBLOCK
 62
     0
 10
8025.995
 20
68139.222854
 30
0.0
  0
POINT
  5
B5
  8
DEFPOINTS
  6
BYBLOCK
 62
     0
 10
7973.995
 20
68139.222854
 30
0.0
  0
POINT
  5
B6
  8
DEFPOINTS
  6
BYBLOCK
 62
     0
 10
7973.995
 20
68080.216762
 30
0.0
  0
ENDBLK
  5
B8
  8
0
  0
BLOCK
  8
0
  2
*D3
 70
     1
 10
0.0
 20
0.0
 30
0.0
  3
*D3
  1

  0
LINE
  5
29
  8
0
  6
BYBLOCK
 62
     9
 10
8600.0
 20
68604.0
 30
0.0
 11
8600.0
 21
68632.698771
 31
0.0
  0
LINE
  5
2A
  8
0
  6
BYBLOCK
 62
     9
 10
7400.0
 20
68604.0
 30
0.0
 11
7400.0
 21
68632.698771
 31
0.0
  0
LINE
  5
2B
  8
0
  6
BYBLOCK
 62
     9
 10
8580.0
 20
68631.698771
 30
0.0
 11
8094.5
 21
68631.698771
 31
0.0
  0
LINE
  5
2C
  8
0
  6
BYBLOCK
 62
     9
 10
7420.0
 20
68631.698771
 30
0.0
 11
7905.5
 21
68631.698771
 31
0.0
  0
SOLID
  5
2D
  8
0
  6
BYBLOCK
 62
     9
 10
8580.0
 20
68635.032105
 30
0.0
 11
8580.0
 21
68628.365438
 31
0.0
 12
8600.0
 22
68631.698771
 32
0.0
 13
8600.0
 23
68631.698771
 33
0.0
  0
SOLID
  5
2E
  8
0
  6
BYBLOCK
 62
     9
 10
7420.0
 20
68635.032105
 30
0.0
 11
7420.0
 21
68628.365438
 31
0.0
 12
7400.0
 22
68631.698771
 32
0.0
 13
7400.0
 23
68631.698771
 33
0.0
  0
TEXT
  5
2F
  8
0
  6
BYBLOCK
 62
    11
 10
7912.5
 20
68614.198771
 30
0.0
 40
35.0
  1
1200.00
  0
POINT
  5
30
  8
DEFPOINTS
  6
BYBLOCK
 62
     0
 10
8600.0
 20
68594.0
 30
0.0
  0
POINT
  5
32
  8
DEFPOINTS
  6
BYBLOCK
 62
     0
 10
7400.0
 20
68594.0
 30
0.0
  0
POINT
  5
33
  8
DEFPOINTS
  6
BYBLOCK
 62
     0
 10
7400.0
 20
68631.698771
 30
0.0
  0
ENDBLK
  5
35
  8
0
  0
ENDSEC
  0
SECTION
  2
ENTITIES
  0
ARC
  5
20
  8
TEAM-DET1
 10
4.336475
 20
2600.580488
 30
0.0
 40
2293.398263
 50
258.143186
 51
281.850792
  0
ARC
  5
22
  8
TEAM-BODY
 10
-47.835965
 20
7336.902916
 30
0.0
 40
7186.90374
 50
267.443837
 51
270.027446
  0
LINE
  5
24
  8
TEAM-DET3
 10
-393.345809
 20
144.466162
 30
0.0
 11
-71.16419
 21
135.174006
 31
0.0
  0
LINE
  5
26
  8
TEAM-BODY
 10
-594.0
 20
650.0
 30
0.0
 11
594.0
 21
650.0
 31
0.0
  0
DIMENSION
  5
27
  8
TEAM-MAS
  2
*D3
 10
-600.0
 20
681.698771
 30
0.0
 11
0.0
 21
631.698771
 31
0.0
 12
-8000.0
 22
-67950.0
 32
0.0
 13
600.0
 23
644.0
 33
0.0
 14
-600.0
 24
644.0
 34
0.0
1001
ACAD
1000
DSTYLE
1002
{
1070
    40
1040
1.0
1002
}
  0
POLYLINE
  5
36
  8
TEAM-DET3
 66
     1
 10
0.0
 20
0.0
 30
0.0
  0
VERTEX
  5
224
  8
TEAM-DET3
 10
-375.8761
 20
124.99984
 30
0.0
  0
VERTEX
  5
225
  8
TEAM-DET3
 10
-375.8761
 20
149.99984
 30
0.0
  0
VERTEX
  5
226
  8
TEAM-DET3
 10
375.8761
 20
149.99984
 30
0.0
  0
VERTEX
  5
227
  8
TEAM-DET3
 10
375.8761
 20
124.99984
 30
0.0
  0
SEQEND
  5
228
  8
TEAM-DET3
  0
LINE
  5
37
  8
TEAM-DET3
 10
-375.8761
 20
124.99984
 30
0.0
 11
375.8761
 21
124.99984
 31
0.0
  0
LINE
  5
38
  8
TEAM-HIDE
 10
-460.8761
 20
-0.00016
 30
0.0
 11
460.8761
 21
-0.00016
 31
0.0
  0
ARC
  5
3B
  8
TEAM-DET1
 10
-819.987736
 20
650.0
 30
0.0
 40
500.0
 50
338.34666
 51
0.0
  0
ARC
  5
3C
  8
TEAM-BODY
 10
2355.097048
 20
784.161276
 30
0.0
 40
2856.291079
 50
182.692199
 51
191.354735
  0
ARC
  5
3D
  8
TEAM-DET1
 10
865.285368
 20
-3066.289701
 30
0.0
 40
3686.2897
 50
110.762911
 51
111.220913
  0
ARC
  5
3E
  8
TEAM-DET1
 10
-494.686056
 20
520.853507
 30
0.0
 40
150.0
 50
290.762911
 51
338.34666
  0
LINE
  5
3F
  8
TEAM-DET3
 10
-393.345809
 20
144.466162
 30
0.0
 11
-419.540551
 21
178.041931
 31
0.0
  0
ARC
  5
40
  8
TEAM-BODY
 10
-366.773565
 20
237.122855
 30
0.0
 40
80.000001
 50
191.0378
 51
268.5003
  0
LINE
  5
41
  8
TEAM-BODY
 10
-495.349001
 20
600.0
 30
0.0
 11
-594.0
 21
600.0
 31
0.0
  0
LINE
  5
42
  8
TEAM-BODY
 10
-600.0
 20
644.0
 30
0.0
 11
-600.0
 21
606.0
 31
0.0
  0
ARC
  5
43
  8
TEAM-BODY
 10
-594.0
 20
606.0
 30
0.0
 40
6.0
 50
180.0
 51
270.0
  0
ARC
  5
44
  8
TEAM-BODY
 10
-594.0
 20
644.0
 30
0.0
 40
6.0
 50
90.0
 51
180.0
  0
POLYLINE
  5
45
  8
TEAM-DET3
 66
     1
 10
0.0
 20
0.0
 30
0.0
  0
VERTEX
  5
229
  8
TEAM-DET3
 10
-292.87671
 20
142.695992
 30
0.0
  0
VERTEX
  5
22A
  8
TEAM-DET3
 10
-286.87671
 20
142.695992
 30
0.0
  0
VERTEX
  5
22B
  8
TEAM-DET3
 10
-283.87671
 20
137.49984
 30
0.0
  0
VERTEX
  5
22C
  8
TEAM-DET3
 10
-286.87671
 20
132.303688
 30
0.0
  0
VERTEX
  5
22D
  8
TEAM-DET3
 10
-292.87671
 20
132.303688
 30
0.0
  0
VERTEX
  5
22E
  8
TEAM-DET3
 10
-295.87671
 20
137.49984
 30
0.0
  0
VERTEX
  5
22F
  8
TEAM-DET3
 10
-292.87671
 20
142.695992
 30
0.0
  0
SEQEND
  5
230
  8
TEAM-DET3
  0
POLYLINE
  5
46
  8
TEAM-DET3
 66
     1
 10
0.0
 20
0.0
 30
0.0
  0
VERTEX
  5
231
  8
TEAM-DET3
 10
-352.87671
 20
142.695992
 30
0.0
  0
VERTEX
  5
232
  8
TEAM-DET3
 10
-346.87671
 20
142.695992
 30
0.0
  0
VERTEX
  5
233
  8
TEAM-DET3
 10
-343.87671
 20
137.49984
 30
0.0
  0
VERTEX
  5
234
  8
TEAM-DET3
 10
-346.87671
 20
132.303688
 30
0.0
  0
VERTEX
  5
235
  8
TEAM-DET3
 10
-352.87671
 20
132.303688
 30
0.0
  0
VERTEX
  5
236
  8
TEAM-DET3
 10
-355.87671
 20
137.49984
 30
0.0
  0
VERTEX
  5
237
  8
TEAM-DET3
 10
-352.87671
 20
142.695992
 30
0.0
  0
SEQEND
  5
238
  8
TEAM-DET3
  0
POINT
  5
47
  8
TEAM-DET3
 10
-346.87671
 20
132.303688
 30
0.0
  0
POINT
  5
48
  8
TEAM-DET3
 10
-352.87671
 20
132.303688
 30
0.0
  0
POINT
  5
49
  8
TEAM-DET3
 10
-355.87671
 20
137.49984
 30
0.0
  0
POINT
  5
4A
  8
TEAM-DET3
 10
-352.87671
 20
142.695992
 30
0.0
  0
POINT
  5
4B
  8
TEAM-DET3
 10
-346.87671
 20
142.695992
 30
0.0
  0
POINT
  5
4C
  8
TEAM-DET3
 10
-343.87671
 20
137.49984
 30
0.0
  0
CIRCLE
  5
4D
  8
TEAM-DET3
 10
-349.87671
 20
137.49984
 30
0.0
 40
6.0
  0
LINE
  5
4E
  8
TEAM-DET3
 10
-344.81605
 20
51.99984
 30
0.0
 11
-344.81605
 21
124.99984
 31
0.0
  0
LINE
  5
4F
  8
TEAM-DET3
 10
-343.87671
 20
51.99984
 30
0.0
 11
-343.87671
 21
124.99984
 31
0.0
  0
LINE
  5
50
  8
TEAM-DET3
 10
-354.93617
 20
124.99984
 30
0.0
 11
-354.93617
 21
51.99984
 31
0.0
  0
LINE
  5
51
  8
TEAM-DET3
 10
-355.87671
 20
124.99984
 30
0.0
 11
-355.87671
 21
51.99984
 31
0.0
  0
CIRCLE
  5
52
  8
TEAM-DET3
 10
-289.87671
 20
137.49984
 30
0.0
 40
6.0
  0
POINT
  5
53
  8
TEAM-DET3
 10
-283.87671
 20
137.49984
 30
0.0
  0
POINT
  5
54
  8
TEAM-DET3
 10
-286.87671
 20
142.695992
 30
0.0
  0
POINT
  5
55
  8
TEAM-DET3
 10
-292.87671
 20
142.695992
 30
0.0
  0
POINT
  5
56
  8
TEAM-DET3
 10
-295.87671
 20
137.49984
 30
0.0
  0
POINT
  5
57
  8
TEAM-DET3
 10
-292.87671
 20
132.303688
 30
0.0
  0
POINT
  5
58
  8
TEAM-DET3
 10
-286.87671
 20
132.303688
 30
0.0
  0
LINE
  5
59
  8
TEAM-DET3
 10
-345.110139
 20
40.99984
 30
0.0
 11
-344.110139
 21
13.99984
 31
0.0
  0
LINE
  5
5A
  8
TEAM-DET3
 10
-354.643281
 20
40.99984
 30
0.0
 11
-355.643281
 21
13.99984
 31
0.0
  0
LINE
  5
5B
  8
TEAM-DET3
 10
-349.87671
 20
40.99984
 30
0.0
 11
-349.87671
 21
13.99984
 31
0.0
  0
LINE
  5
5C
  8
TEAM-DET3
 10
-345.018488
 20
51.99984
 30
0.0
 11
-345.018488
 21
47.99984
 31
0.0
  0
LINE
  5
5D
  8
TEAM-DET3
 10
-354.734932
 20
51.99984
 30
0.0
 11
-354.734932
 21
47.99984
 31
0.0
  0
LINE
  5
5E
  8
TEAM-DET3
 10
-359.87671
 20
40.99984
 30
0.0
 11
-360.87671
 21
13.99984
 31
0.0
  0
LINE
  5
5F
  8
TEAM-DET3
 10
-337.0
 20
9.99984
 30
0.0
 11
-338.87671
 21
13.99984
 31
0.0
  0
LINE
  5
60
  8
TEAM-DET3
 10
-363.0
 20
9.99984
 30
0.0
 11
-360.87671
 21
13.99984
 31
0.0
  0
LINE
  5
61
  8
TEAM-DET3
 10
-358.87671
 20
51.99984
 30
0.0
 11
-358.87671
 21
40.99984
 31
0.0
  0
LINE
  5
62
  8
TEAM-DET3
 10
-340.87671
 20
40.99984
 30
0.0
 11
-340.87671
 21
51.99984
 31
0.0
  0
LINE
  5
63
  8
TEAM-DET3
 10
-338.87671
 20
13.99984
 30
0.0
 11
-339.87671
 21
40.99984
 31
0.0
  0
LINE
  5
64
  8
TEAM-DET3
 10
-358.87671
 20
47.99984
 30
0.0
 11
-340.87671
 21
47.99984
 31
0.0
  0
LINE
  5
65
  8
TEAM-DET3
 10
-359.87671
 20
40.99984
 30
0.0
 11
-339.87671
 21
40.99984
 31
0.0
  0
LINE
  5
66
  8
TEAM-DET3
 10
-360.87671
 20
13.99984
 30
0.0
 11
-338.87671
 21
13.99984
 31
0.0
  0
LINE
  5
67
  8
TEAM-DET3
 10
-358.87671
 20
51.99984
 30
0.0
 11
-340.87671
 21
51.99984
 31
0.0
  0
LINE
  5
68
  8
TEAM-DET3
 10
-343.87671
 20
0.0
 30
0.0
 11
-343.87671
 21
9.99984
 31
0.0
  0
LINE
  5
69
  8
TEAM-DET3
 10
-355.87671
 20
9.99984
 30
0.0
 11
-355.87671
 21
0.0
 31
0.0
  0
LINE
  5
6A
  8
TEAM-DET3
 10
-363.0
 20
9.99984
 30
0.0
 11
-337.0
 21
9.99984
 31
0.0
  0
LINE
  5
6B
  8
TEAM-DET3
 10
-363.0
 20
9.99984
 30
0.0
 11
-363.0
 21
0.0
 31
0.0
  0
LINE
  5
6C
  8
TEAM-DET3
 10
-337.0
 20
9.99984
 30
0.0
 11
-337.0
 21
0.0
 31
0.0
  0
LINE
  5
6D
  8
TEAM-DET3
 10
-363.0
 20
9.99984
 30
0.0
 11
-337.0
 21
9.99984
 31
0.0
  0
LINE
  5
6E
  8
TEAM-DET3
 10
-363.0
 20
0.0
 30
0.0
 11
-337.0
 21
0.0
 31
0.0
  0
POLYLINE
  5
6F
  8
TEAM-DET3
 66
     1
 10
0.0
 20
0.0
 30
0.0
  0
VERTEX
  5
239
  8
TEAM-DET3
 10
-352.87671
 20
142.695992
 30
0.0
  0
VERTEX
  5
23A
  8
TEAM-DET3
 10
-346.87671
 20
142.695992
 30
0.0
  0
VERTEX
  5
23B
  8
TEAM-DET3
 10
-343.87671
 20
137.49984
 30
0.0
  0
VERTEX
  5
23C
  8
TEAM-DET3
 10
-346.87671
 20
132.303688
 30
0.0
  0
VERTEX
  5
23D
  8
TEAM-DET3
 10
-352.87671
 20
132.303688
 30
0.0
  0
VERTEX
  5
23E
  8
TEAM-DET3
 10
-355.87671
 20
137.49984
 30
0.0
  0
VERTEX
  5
23F
  8
TEAM-DET3
 10
-352.87671
 20
142.695992
 30
0.0
  0
SEQEND
  5
240
  8
TEAM-DET3
  0
CIRCLE
  5
70
  8
TEAM-DET3
 10
-349.87671
 20
137.49984
 30
0.0
 40
6.0
  0
POINT
  5
71
  8
TEAM-DET3
 10
-343.87671
 20
137.49984
 30
0.0
  0
POINT
  5
72
  8
TEAM-DET3
 10
-346.87671
 20
142.695992
 30
0.0
  0
POINT
  5
73
  8
TEAM-DET3
 10
-352.87671
 20
142.695992
 30
0.0
  0
POINT
  5
74
  8
TEAM-DET3
 10
-355.87671
 20
137.49984
 30
0.0
  0
POINT
  5
75
  8
TEAM-DET3
 10
-352.87671
 20
132.303688
 30
0.0
  0
POINT
  5
76
  8
TEAM-DET3
 10
-346.87671
 20
132.303688
 30
0.0
  0
ARC
  5
77
  8
TEAM-DET1
 10
819.987736
 20
650.0
 30
0.0
 40
500.0
 50
180.0
 51
201.65334
  0
ARC
  5
78
  8
TEAM-BODY
 10
-1238.052557
 20
667.602066
 30
0.0
 40
1741.375405
 50
345.167028
 51
359.420836
  0
TEXT
  5
79
  8
TEAM-TXT
 10
-209.603117
 20
588.050749
 30
0.0
 40
30.0
  1
team 121059
 41
0.8
 51
15.0
  7
TEAM
  0
DIMENSION
  5
7C
  8
TEAM-MAS
  2
*D0
 10
647.278604
 20
150.0
 30
0.0
 11
647.278604
 21
350.0
 31
0.0
 12
-8000.0
 22
-67950.0
 32
0.0
 13
594.505
 23
650.0
 33
0.0
 14
0.0
 24
150.0
 34
0.0
 50
90.0
1001
ACAD
1000
DSTYLE
1002
{
1070
    40
1040
1.0
1002
}
  0
DIMENSION
  5
8A
  8
TEAM-MAS
  2
*D1
 10
696.170741
 20
0.0
 30
0.0
 11
696.170741
 21
325.0
 31
0.0
 12
-8000.0
 22
-68000.0
 32
0.0
 13
594.0
 23
650.0
 33
0.0
 14
0.0
 24
0.0
 34
0.0
 50
90.0
1001
ACAD
1000
DSTYLE
1002
{
1070
    40
1040
1.0
1002
}
  0
ARC
  5
98
  8
TEAM-DET1
 10
634.48134
 20
865.861989
 30
0.0
 40
522.227426
 50
248.314328
 51
252.486643
  0
ARC
  5
99
  8
TEAM-DET1
 10
494.686056
 20
520.853507
 30
0.0
 40
150.0
 50
201.65334
 51
249.237089
  0
ARC
  5
9A
  8
TEAM-BODY
 10
47.835965
 20
7336.902916
 30
0.0
 40
7186.90374
 50
269.972554
 51
272.556163
  0
ARC
  5
9B
  8
TEAM-BODY
 10
366.773565
 20
237.122855
 30
0.0
 40
80.000001
 50
271.4997
 51
348.9622
  0
LINE
  5
9C
  8
TEAM-DET3
 10
393.345809
 20
144.466162
 30
0.0
 11
419.540551
 21
178.041931
 31
0.0
  0
LINE
  5
9D
  8
TEAM-DET3
 10
393.345809
 20
144.466162
 30
0.0
 11
71.16419
 21
135.174006
 31
0.0
  0
LINE
  5
9E
  8
TEAM-DET3
 10
71.16419
 20
135.174006
 30
0.0
 11
55.957995
 21
150.008313
 31
0.0
  0
LINE
  5
9F
  8
TEAM-DET3
 10
-71.16419
 20
135.174006
 30
0.0
 11
-55.957995
 21
150.008313
 31
0.0
  0
ARC
  5
A0
  8
TEAM-KAN
 10
-24.152355
 20
163.456783
 30
0.0
 40
24.304642
 50
237.816095
 51
265.628333
  0
ARC
  5
A2
  8
TEAM-KAN
 10
-65.581053
 20
115.720445
 30
0.0
 40
39.354925
 50
43.646085
 51
60.576871
  0
LINE
  5
A3
  8
TEAM-KAN
 10
25.995
 20
139.222854
 30
0.0
 11
-26.005
 21
139.222854
 31
0.0
  0
LINE
  5
A4
  8
TEAM-BODY
 10
-44.393302
 20
150.0
 30
0.0
 11
44.393302
 21
150.0
 31
0.0
  0
LINE
  5
A5
  8
TEAM-KAN
 10
-26.005
 20
139.222854
 30
0.0
 11
-26.005
 21
142.222854
 31
0.0
  0
LINE
  5
A6
  8
TEAM-KAN
 10
25.995
 20
139.222854
 30
0.0
 11
25.995
 21
142.222854
 31
0.0
  0
ARC
  5
A7
  8
TEAM-KAN
 10
25.138399
 20
157.316117
 30
0.0
 40
18.113529
 50
272.710569
 51
307.192542
  0
ARC
  5
A8
  8
TEAM-KAN
 10
73.37157
 20
100.489502
 30
0.0
 40
56.452745
 50
118.716087
 51
131.326352
  0
DIMENSION
  5
A9
  8
TEAM-INSP
  2
*D2
 10
-26.005
 20
80.216762
 30
0.0
 11
106.594721
 21
80.216762
 31
0.0
 12
-8000.0
 22
-68000.0
 32
0.0
 70
   128
 13
25.995
 23
139.222854
 33
0.0
 14
-26.005
 24
139.222854
 34
0.0
1001
ACAD
1000
DSTYLE
1002
{
1070
    40
1040
1.0
1002
}
  0
CIRCLE
  5
B9
  8
TEAM-INSP
 10
0.0
 20
0.0
 30
0.0
 40
10.0
  0
LINE
  5
BA
  8
TEAM-BODY
 10
594.0
 20
600.0
 30
0.0
 11
501.209621
 21
600.0
 31
0.0
  0
LINE
  5
BB
  8
TEAM-BODY
 10
600.0
 20
644.0
 30
0.0
 11
600.0
 21
606.0
 31
0.0
  0
ARC
  5
BC
  8
TEAM-BODY
 10
594.0
 20
606.0
 30
0.0
 40
6.0
 50
270.0
 51
0.0
  0
ARC
  5
BD
  8
TEAM-BODY
 10
594.0
 20
644.0
 30
0.0
 40
6.0
 50
0.0
 51
90.0
  0
POLYLINE
  5
BE
  8
TEAM-DET3
 66
     1
 10
0.0
 20
0.0
 30
0.0
  0
VERTEX
  5
241
  8
TEAM-DET3
 10
-170.5
 20
142.695992
 30
0.0
  0
VERTEX
  5
242
  8
TEAM-DET3
 10
-164.5
 20
142.695992
 30
0.0
  0
VERTEX
  5
243
  8
TEAM-DET3
 10
-161.5
 20
137.49984
 30
0.0
  0
VERTEX
  5
244
  8
TEAM-DET3
 10
-164.5
 20
132.303688
 30
0.0
  0
VERTEX
  5
245
  8
TEAM-DET3
 10
-170.5
 20
132.303688
 30
0.0
  0
VERTEX
  5
246
  8
TEAM-DET3
 10
-173.5
 20
137.49984
 30
0.0
  0
VERTEX
  5
247
  8
TEAM-DET3
 10
-170.5
 20
142.695992
 30
0.0
  0
SEQEND
  5
248
  8
TEAM-DET3
  0
POLYLINE
  5
BF
  8
TEAM-DET3
 66
     1
 10
0.0
 20
0.0
 30
0.0
  0
VERTEX
  5
249
  8
TEAM-DET3
 10
-108.0
 20
142.695992
 30
0.0
  0
VERTEX
  5
24A
  8
TEAM-DET3
 10
-102.0
 20
142.695992
 30
0.0
  0
VERTEX
  5
24B
  8
TEAM-DET3
 10
-99.0
 20
137.49984
 30
0.0
  0
VERTEX
  5
24C
  8
TEAM-DET3
 10
-102.0
 20
132.303688
 30
0.0
  0
VERTEX
  5
24D
  8
TEAM-DET3
 10
-108.0
 20
132.303688
 30
0.0
  0
VERTEX
  5
24E
  8
TEAM-DET3
 10
-111.0
 20
137.49984
 30
0.0
  0
VERTEX
  5
24F
  8
TEAM-DET3
 10
-108.0
 20
142.695992
 30
0.0
  0
SEQEND
  5
250
  8
TEAM-DET3
  0
POLYLINE
  5
C0
  8
TEAM-DET3
 66
     1
 10
0.0
 20
0.0
 30
0.0
  0
VERTEX
  5
251
  8
TEAM-DET3
 10
102.0
 20
142.695992
 30
0.0
  0
VERTEX
  5
252
  8
TEAM-DET3
 10
108.0
 20
142.695992
 30
0.0
  0
VERTEX
  5
253
  8
TEAM-DET3
 10
111.0
 20
137.49984
 30
0.0
  0
VERTEX
  5
254
  8
TEAM-DET3
 10
108.0
 20
132.303688
 30
0.0
  0
VERTEX
  5
255
  8
TEAM-DET3
 10
102.0
 20
132.303688
 30
0.0
  0
VERTEX
  5
256
  8
TEAM-DET3
 10
99.0
 20
137.49984
 30
0.0
  0
VERTEX
  5
257
  8
TEAM-DET3
 10
102.0
 20
142.695992
 30
0.0
  0
SEQEND
  5
258
  8
TEAM-DET3
  0
POLYLINE
  5
C1
  8
TEAM-DET3
 66
     1
 10
0.0
 20
0.0
 30
0.0
  0
VERTEX
  5
259
  8
TEAM-DET3
 10
286.87671
 20
142.695992
 30
0.0
  0
VERTEX
  5
25A
  8
TEAM-DET3
 10
292.87671
 20
142.695992
 30
0.0
  0
VERTEX
  5
25B
  8
TEAM-DET3
 10
295.87671
 20
137.49984
 30
0.0
  0
VERTEX
  5
25C
  8
TEAM-DET3
 10
292.87671
 20
132.303688
 30
0.0
  0
VERTEX
  5
25D
  8
TEAM-DET3
 10
286.87671
 20
132.303688
 30
0.0
  0
VERTEX
  5
25E
  8
TEAM-DET3
 10
283.87671
 20
137.49984
 30
0.0
  0
VERTEX
  5
25F
  8
TEAM-DET3
 10
286.87671
 20
142.695992
 30
0.0
  0
SEQEND
  5
260
  8
TEAM-DET3
  0
POLYLINE
  5
C2
  8
TEAM-DET3
 66
     1
 10
0.0
 20
0.0
 30
0.0
  0
VERTEX
  5
261
  8
TEAM-DET3
 10
346.87671
 20
142.695992
 30
0.0
  0
VERTEX
  5
262
  8
TEAM-DET3
 10
352.87671
 20
142.695992
 30
0.0
  0
VERTEX
  5
263
  8
TEAM-DET3
 10
355.87671
 20
137.49984
 30
0.0
  0
VERTEX
  5
264
  8
TEAM-DET3
 10
352.87671
 20
132.303688
 30
0.0
  0
VERTEX
  5
265
  8
TEAM-DET3
 10
346.87671
 20
132.303688
 30
0.0
  0
VERTEX
  5
266
  8
TEAM-DET3
 10
343.87671
 20
137.49984
 30
0.0
  0
VERTEX
  5
267
  8
TEAM-DET3
 10
346.87671
 20
142.695992
 30
0.0
  0
SEQEND
  5
268
  8
TEAM-DET3
  0
POLYLINE
  5
C3
  8
TEAM-DET3
 66
     1
 10
0.0
 20
0.0
 30
0.0
  0
VERTEX
  5
269
  8
TEAM-DET3
 10
-3.0
 20
142.695992
 30
0.0
  0
VERTEX
  5
26A
  8
TEAM-DET3
 10
3.0
 20
142.695992
 30
0.0
  0
VERTEX
  5
26B
  8
TEAM-DET3
 10
6.0
 20
137.49984
 30
0.0
  0
VERTEX
  5
26C
  8
TEAM-DET3
 10
3.0
 20
132.303688
 30
0.0
  0
VERTEX
  5
26D
  8
TEAM-DET3
 10
-3.0
 20
132.303688
 30
0.0
  0
VERTEX
  5
26E
  8
TEAM-DET3
 10
-6.0
 20
137.49984
 30
0.0
  0
VERTEX
  5
26F
  8
TEAM-DET3
 10
-3.0
 20
142.695992
 30
0.0
  0
SEQEND
  5
270
  8
TEAM-DET3
  0
CIRCLE
  5
C4
  8
TEAM-DET3
 10
0.0
 20
137.49984
 30
0.0
 40
6.0
  0
POINT
  5
C5
  8
TEAM-DET3
 10
6.0
 20
137.49984
 30
0.0
  0
POINT
  5
C6
  8
TEAM-DET3
 10
3.0
 20
142.695992
 30
0.0
  0
POINT
  5
C7
  8
TEAM-DET3
 10
-3.0
 20
142.695992
 30
0.0
  0
POINT
  5
C8
  8
TEAM-DET3
 10
-6.0
 20
137.49984
 30
0.0
  0
POINT
  5
C9
  8
TEAM-DET3
 10
-3.0
 20
132.303688
 30
0.0
  0
POINT
  5
CA
  8
TEAM-DET3
 10
3.0
 20
132.303688
 30
0.0
  0
POINT
  5
CB
  8
TEAM-DET3
 10
352.87671
 20
132.303688
 30
0.0
  0
POINT
  5
CC
  8
TEAM-DET3
 10
346.87671
 20
132.303688
 30
0.0
  0
POINT
  5
CD
  8
TEAM-DET3
 10
343.87671
 20
137.49984
 30
0.0
  0
POINT
  5
CE
  8
TEAM-DET3
 10
346.87671
 20
142.695992
 30
0.0
  0
POINT
  5
CF
  8
TEAM-DET3
 10
352.87671
 20
142.695992
 30
0.0
  0
POINT
  5
D0
  8
TEAM-DET3
 10
355.87671
 20
137.49984
 30
0.0
  0
CIRCLE
  5
D1
  8
TEAM-DET3
 10
349.87671
 20
137.49984
 30
0.0
 40
6.0
  0
LINE
  5
D2
  8
TEAM-DET3
 10
343.87671
 20
51.99984
 30
0.0
 11
343.87671
 21
124.99984
 31
0.0
  0
LINE
  5
D3
  8
TEAM-DET3
 10
344.81605
 20
51.99984
 30
0.0
 11
344.81605
 21
124.99984
 31
0.0
  0
LINE
  5
D4
  8
TEAM-DET3
 10
355.87671
 20
124.99984
 30
0.0
 11
355.87671
 21
51.99984
 31
0.0
  0
LINE
  5
D5
  8
TEAM-DET3
 10
354.93617
 20
124.99984
 30
0.0
 11
354.93617
 21
51.99984
 31
0.0
  0
CIRCLE
  5
D6
  8
TEAM-DET3
 10
289.87671
 20
137.49984
 30
0.0
 40
6.0
  0
POINT
  5
D7
  8
TEAM-DET3
 10
295.87671
 20
137.49984
 30
0.0
  0
POINT
  5
D8
  8
TEAM-DET3
 10
292.87671
 20
142.695992
 30
0.0
  0
POINT
  5
D9
  8
TEAM-DET3
 10
286.87671
 20
142.695992
 30
0.0
  0
POINT
  5
DA
  8
TEAM-DET3
 10
283.87671
 20
137.49984
 30
0.0
  0
POINT
  5
DB
  8
TEAM-DET3
 10
286.87671
 20
132.303688
 30
0.0
  0
POINT
  5
DC
  8
TEAM-DET3
 10
292.87671
 20
132.303688
 30
0.0
  0
CIRCLE
  5
DD
  8
TEAM-DET3
 10
105.0
 20
137.49984
 30
0.0
 40
6.0
  0
POINT
  5
DE
  8
TEAM-DET3
 10
111.0
 20
137.49984
 30
0.0
  0
POINT
  5
DF
  8
TEAM-DET3
 10
108.0
 20
142.695992
 30
0.0
  0
POINT
  5
E0
  8
TEAM-DET3
 10
102.0
 20
142.695992
 30
0.0
  0
POINT
  5
E1
  8
TEAM-DET3
 10
99.0
 20
137.49984
 30
0.0
  0
POINT
  5
E2
  8
TEAM-DET3
 10
102.0
 20
132.303688
 30
0.0
  0
POINT
  5
E3
  8
TEAM-DET3
 10
108.0
 20
132.303688
 30
0.0
  0
CIRCLE
  5
E4
  8
TEAM-DET3
 10
-105.0
 20
137.49984
 30
0.0
 40
6.0
  0
POINT
  5
E5
  8
TEAM-DET3
 10
-99.0
 20
137.49984
 30
0.0
  0
POINT
  5
E6
  8
TEAM-DET3
 10
-102.0
 20
142.695992
 30
0.0
  0
POINT
  5
E7
  8
TEAM-DET3
 10
-108.0
 20
142.695992
 30
0.0
  0
POINT
  5
E8
  8
TEAM-DET3
 10
-111.0
 20
137.49984
 30
0.0
  0
POINT
  5
E9
  8
TEAM-DET3
 10
-108.0
 20
132.303688
 30
0.0
  0
POINT
  5
EA
  8
TEAM-DET3
 10
-102.0
 20
132.303688
 30
0.0
  0
POINT
  5
EB
  8
TEAM-DET3
 10
-164.5
 20
132.303688
 30
0.0
  0
POINT
  5
EC
  8
TEAM-DET3
 10
-170.5
 20
132.303688
 30
0.0
  0
POINT
  5
ED
  8
TEAM-DET3
 10
-173.5
 20
137.49984
 30
0.0
  0
POINT
  5
EE
  8
TEAM-DET3
 10
-170.5
 20
142.695992
 30
0.0
  0
POINT
  5
EF
  8
TEAM-DET3
 10
-164.5
 20
142.695992
 30
0.0
  0
POINT
  5
F0
  8
TEAM-DET3
 10
-161.5
 20
137.49984
 30
0.0
  0
CIRCLE
  5
F1
  8
TEAM-DET3
 10
-167.5
 20
137.49984
 30
0.0
 40
6.0
  0
LINE
  5
F2
  8
TEAM-DET3
 10
363.0
 20
0.0
 30
0.0
 11
337.0
 21
0.0
 31
0.0
  0
LINE
  5
F3
  8
TEAM-DET3
 10
363.0
 20
9.99984
 30
0.0
 11
337.0
 21
9.99984
 31
0.0
  0
LINE
  5
F4
  8
TEAM-DET3
 10
337.0
 20
9.99984
 30
0.0
 11
337.0
 21
0.0
 31
0.0
  0
LINE
  5
F5
  8
TEAM-DET3
 10
363.0
 20
9.99984
 30
0.0
 11
363.0
 21
0.0
 31
0.0
  0
LINE
  5
F6
  8
TEAM-DET3
 10
363.0
 20
9.99984
 30
0.0
 11
337.0
 21
9.99984
 31
0.0
  0
LINE
  5
F7
  8
TEAM-DET3
 10
355.87671
 20
9.99984
 30
0.0
 11
355.87671
 21
0.0
 31
0.0
  0
LINE
  5
F8
  8
TEAM-DET3
 10
343.87671
 20
0.0
 30
0.0
 11
343.87671
 21
9.99984
 31
0.0
  0
LINE
  5
F9
  8
TEAM-DET3
 10
358.87671
 20
51.99984
 30
0.0
 11
340.87671
 21
51.99984
 31
0.0
  0
LINE
  5
FA
  8
TEAM-DET3
 10
360.87671
 20
13.99984
 30
0.0
 11
338.87671
 21
13.99984
 31
0.0
  0
LINE
  5
FB
  8
TEAM-DET3
 10
359.87671
 20
40.99984
 30
0.0
 11
339.87671
 21
40.99984
 31
0.0
  0
LINE
  5
FC
  8
TEAM-DET3
 10
358.87671
 20
47.99984
 30
0.0
 11
340.87671
 21
47.99984
 31
0.0
  0
LINE
  5
FD
  8
TEAM-DET3
 10
338.87671
 20
13.99984
 30
0.0
 11
339.87671
 21
40.99984
 31
0.0
  0
LINE
  5
FE
  8
TEAM-DET3
 10
340.87671
 20
40.99984
 30
0.0
 11
340.87671
 21
51.99984
 31
0.0
  0
LINE
  5
FF
  8
TEAM-DET3
 10
358.87671
 20
51.99984
 30
0.0
 11
358.87671
 21
40.99984
 31
0.0
  0
LINE
  5
100
  8
TEAM-DET3
 10
363.0
 20
9.99984
 30
0.0
 11
360.87671
 21
13.99984
 31
0.0
  0
LINE
  5
101
  8
TEAM-DET3
 10
337.0
 20
9.99984
 30
0.0
 11
338.87671
 21
13.99984
 31
0.0
  0
LINE
  5
102
  8
TEAM-DET3
 10
359.87671
 20
40.99984
 30
0.0
 11
360.87671
 21
13.99984
 31
0.0
  0
LINE
  5
103
  8
TEAM-DET3
 10
354.734932
 20
51.99984
 30
0.0
 11
354.734932
 21
47.99984
 31
0.0
  0
LINE
  5
104
  8
TEAM-DET3
 10
345.018488
 20
51.99984
 30
0.0
 11
345.018488
 21
47.99984
 31
0.0
  0
LINE
  5
105
  8
TEAM-DET3
 10
349.87671
 20
40.99984
 30
0.0
 11
349.87671
 21
13.99984
 31
0.0
  0
LINE
  5
106
  8
TEAM-DET3
 10
354.643281
 20
40.99984
 30
0.0
 11
355.643281
 21
13.99984
 31
0.0
  0
LINE
  5
107
  8
TEAM-DET3
 10
345.110139
 20
40.99984
 30
0.0
 11
344.110139
 21
13.99984
 31
0.0
  0
POLYLINE
  5
108
  8
TEAM-DET3
 66
     1
 10
0.0
 20
0.0
 30
0.0
  0
VERTEX
  5
271
  8
TEAM-DET3
 10
226.87671
 20
142.695992
 30
0.0
  0
VERTEX
  5
272
  8
TEAM-DET3
 10
232.87671
 20
142.695992
 30
0.0
  0
VERTEX
  5
273
  8
TEAM-DET3
 10
235.87671
 20
137.49984
 30
0.0
  0
VERTEX
  5
274
  8
TEAM-DET3
 10
232.87671
 20
132.303688
 30
0.0
  0
VERTEX
  5
275
  8
TEAM-DET3
 10
226.87671
 20
132.303688
 30
0.0
  0
VERTEX
  5
276
  8
TEAM-DET3
 10
223.87671
 20
137.49984
 30
0.0
  0
VERTEX
  5
277
  8
TEAM-DET3
 10
226.87671
 20
142.695992
 30
0.0
  0
SEQEND
  5
278
  8
TEAM-DET3
  0
CIRCLE
  5
109
  8
TEAM-DET3
 10
229.87671
 20
137.49984
 30
0.0
 40
6.0
  0
POINT
  5
10A
  8
TEAM-DET3
 10
235.87671
 20
137.49984
 30
0.0
  0
POINT
  5
10B
  8
TEAM-DET3
 10
232.87671
 20
142.695992
 30
0.0
  0
POINT
  5
10C
  8
TEAM-DET3
 10
226.87671
 20
142.695992
 30
0.0
  0
POINT
  5
10D
  8
TEAM-DET3
 10
223.87671
 20
137.49984
 30
0.0
  0
POINT
  5
10E
  8
TEAM-DET3
 10
226.87671
 20
132.303688
 30
0.0
  0
POINT
  5
10F
  8
TEAM-DET3
 10
232.87671
 20
132.303688
 30
0.0
  0
POLYLINE
  5
110
  8
TEAM-DET3
 66
     1
 10
0.0
 20
0.0
 30
0.0
  0
VERTEX
  5
279
  8
TEAM-DET3
 10
-232.87671
 20
142.695992
 30
0.0
  0
VERTEX
  5
27A
  8
TEAM-DET3
 10
-226.87671
 20
142.695992
 30
0.0
  0
VERTEX
  5
27B
  8
TEAM-DET3
 10
-223.87671
 20
137.49984
 30
0.0
  0
VERTEX
  5
27C
  8
TEAM-DET3
 10
-226.87671
 20
132.303688
 30
0.0
  0
VERTEX
  5
27D
  8
TEAM-DET3
 10
-232.87671
 20
132.303688
 30
0.0
  0
VERTEX
  5
27E
  8
TEAM-DET3
 10
-235.87671
 20
137.49984
 30
0.0
  0
VERTEX
  5
27F
  8
TEAM-DET3
 10
-232.87671
 20
142.695992
 30
0.0
  0
SEQEND
  5
280
  8
TEAM-DET3
  0
CIRCLE
  5
111
  8
TEAM-DET3
 10
-229.87671
 20
137.49984
 30
0.0
 40
6.0
  0
POINT
  5
112
  8
TEAM-DET3
 10
-223.87671
 20
137.49984
 30
0.0
  0
POINT
  5
113
  8
TEAM-DET3
 10
-226.87671
 20
142.695992
 30
0.0
  0
POINT
  5
114
  8
TEAM-DET3
 10
-232.87671
 20
142.695992
 30
0.0
  0
POINT
  5
115
  8
TEAM-DET3
 10
-235.87671
 20
137.49984
 30
0.0
  0
POINT
  5
116
  8
TEAM-DET3
 10
-232.87671
 20
132.303688
 30
0.0
  0
POINT
  5
117
  8
TEAM-DET3
 10
-226.87671
 20
132.303688
 30
0.0
  0
POLYLINE
  5
118
  8
TEAM-DET3
 66
     1
 10
0.0
 20
0.0
 30
0.0
  0
VERTEX
  5
281
  8
TEAM-DET3
 10
170.5
 20
142.695992
 30
0.0
  0
VERTEX
  5
282
  8
TEAM-DET3
 10
164.5
 20
142.695992
 30
0.0
  0
VERTEX
  5
283
  8
TEAM-DET3
 10
161.5
 20
137.49984
 30
0.0
  0
VERTEX
  5
284
  8
TEAM-DET3
 10
164.5
 20
132.303688
 30
0.0
  0
VERTEX
  5
285
  8
TEAM-DET3
 10
170.5
 20
132.303688
 30
0.0
  0
VERTEX
  5
286
  8
TEAM-DET3
 10
173.5
 20
137.49984
 30
0.0
  0
VERTEX
  5
287
  8
TEAM-DET3
 10
170.5
 20
142.695992
 30
0.0
  0
SEQEND
  5
288
  8
TEAM-DET3
  0
POINT
  5
119
  8
TEAM-DET3
 10
164.5
 20
132.303688
 30
0.0
  0
POINT
  5
11A
  8
TEAM-DET3
 10
170.5
 20
132.303688
 30
0.0
  0
POINT
  5
11B
  8
TEAM-DET3
 10
173.5
 20
137.49984
 30
0.0
  0
POINT
  5
11C
  8
TEAM-DET3
 10
170.5
 20
142.695992
 30
0.0
  0
POINT
  5
11D
  8
TEAM-DET3
 10
164.5
 20
142.695992
 30
0.0
  0
POINT
  5
11E
  8
TEAM-DET3
 10
161.5
 20
137.49984
 30
0.0
  0
CIRCLE
  5
11F
  8
TEAM-DET3
 10
167.5
 20
137.49984
 30
0.0
 40
6.0
  0
ENDSEC
  0
EOF
