  0
SECTION
  2
HEADER
  9
$ACADVER
  1
AC1009
  9
$INSBASE
 10
0.0
 20
0.0
 30
0.0
  9
$EXTMIN
 10
-1002.964783
 20
-10.048461
 30
-0.000003
  9
$EXTMAX
 10
996.902833
 20
699.201976
 30
0.000007
  9
$LIMMIN
 10
-1002.964783
 20
-10.048461
  9
$LIMMAX
 10
996.902833
 20
699.201976
  9
$ORTHOMODE
 70
     1
  9
$REGENMODE
 70
     1
  9
$FILLMODE
 70
     1
  9
$QTEXTMODE
 70
     0
  9
$MIRRTEXT
 70
     0
  9
$DRAGMODE
 70
     2
  9
$LTSCALE
 40
50.0
  9
$OSMODE
 70
     7
  9
$ATTMODE
 70
     1
  9
$TEXTSIZE
 40
200.0
  9
$TRACEWID
 40
1.0
  9
$TEXTSTYLE
  7
STANDARD
  9
$CLAYER
  8
TEAM-MAS
  9
$CELTYPE
  6
BYLAYER
  9
$CECOLOR
 62
   256
  9
$DIMSCALE
 40
0.0
  9
$DIMASZ
 40
20.0
  9
$DIMEXO
 40
10.0
  9
$DIMDLI
 40
1.0
  9
$DIMRND
 40
0.0
  9
$DIMDLE
 40
0.0
  9
$DIMEXE
 40
1.0
  9
$DIMTP
 40
0.0
  9
$DIMTM
 40
0.0
  9
$DIMTXT
 40
35.0
  9
$DIMCEN
 40
1.0
  9
$DIMTSZ
 40
0.0
  9
$DIMTOL
 70
     0
  9
$DIMLIM
 70
     0
  9
$DIMTIH
 70
     0
  9
$DIMTOH
 70
     0
  9
$DIMSE1
 70
     0
  9
$DIMSE2
 70
     0
  9
$DIMTAD
 70
     0
  9
$DIMZIN
 70
     0
  9
$DIMBLK
  1

  9
$DIMASO
 70
     1
  9
$DIMSHO
 70
     0
  9
$DIMPOST
  1

  9
$DIMAPOST
  1

  9
$DIMALT
 70
     0
  9
$DIMALTD
 70
     2
  9
$DIMALTF
 40
25.4
  9
$DIMLFAC
 40
1.0
  9
$DIMTOFL
 70
     0
  9
$DIMTVP
 40
0.0
  9
$DIMTIX
 70
     0
  9
$DIMSOXD
 70
     0
  9
$DIMSAH
 70
     0
  9
$DIMBLK1
  1

  9
$DIMBLK2
  1

  9
$DIMSTYLE
  2
TEAM
  9
$DIMCLRD
 70
     9
  9
$DIMCLRE
 70
     9
  9
$DIMCLRT
 70
    11
  9
$DIMTFAC
 40
1.0
  9
$DIMGAP
 40
7.0
  9
$LUNITS
 70
     2
  9
$LUPREC
 70
     1
  9
$SKETCHINC
 40
1.0
  9
$FILLETRAD
 40
5.0
  9
$AUNITS
 70
     0
  9
$AUPREC
 70
     0
  9
$MENU
  1
ROPLANS
  9
$ELEVATION
 40
0.0
  9
$PELEVATION
 40
0.0
  9
$THICKNESS
 40
0.0
  9
$LIMCHECK
 70
     0
  9
$BLIPMODE
 70
     1
  9
$CHAMFERA
 40
0.0
  9
$CHAMFERB
 40
0.0
  9
$SKPOLY
 70
     0
  9
$TDCREATE
 40
2450392.957851
  9
$TDUPDATE
 40
2456004.599416
  9
$TDINDWG
 40
2.546599
  9
$TDUSRTIMER
 40
2.546599
  9
$USRTIMER
 70
     1
  9
$ANGBASE
 50
0.0
  9
$ANGDIR
 70
     0
  9
$PDMODE
 70
     0
  9
$PDSIZE
 40
0.0
  9
$PLINEWID
 40
0.0
  9
$COORDS
 70
     2
  9
$SPLFRAME
 70
     0
  9
$SPLINETYPE
 70
     6
  9
$SPLINESEGS
 70
     8
  9
$ATTDIA
 70
     0
  9
$ATTREQ
 70
     0
  9
$HANDLING
 70
     1
  9
$HANDSEED
  5
2B7
  9
$SURFTAB1
 70
    36
  9
$SURFTAB2
 70
    36
  9
$SURFTYPE
 70
     6
  9
$SURFU
 70
     6
  9
$SURFV
 70
     6
  9
$UCSNAME
  2

  9
$UCSORG
 10
0.0
 20
0.0
 30
0.0
  9
$UCSXDIR
 10
1.0
 20
0.0
 30
0.0
  9
$UCSYDIR
 10
0.0
 20
1.0
 30
0.0
  9
$PUCSNAME
  2

  9
$PUCSORG
 10
0.0
 20
0.0
 30
0.0
  9
$PUCSXDIR
 10
1.0
 20
0.0
 30
0.0
  9
$PUCSYDIR
 10
0.0
 20
1.0
 30
0.0
  9
$USERI1
 70
     0
  9
$USERI2
 70
     0
  9
$USERI3
 70
     0
  9
$USERI4
 70
     0
  9
$USERI5
 70
     0
  9
$USERR1
 40
0.0
  9
$USERR2
 40
0.0
  9
$USERR3
 40
0.0
  9
$USERR4
 40
0.0
  9
$USERR5
 40
0.0
  9
$WORLDVIEW
 70
     1
  9
$SHADEDGE
 70
     0
  9
$SHADEDIF
 70
    70
  9
$TILEMODE
 70
     1
  9
$MAXACTVP
 70
    16
  9
$PLIMCHECK
 70
     0
  9
$PEXTMIN
 10
-0.805942
 20
0.005011
 30
0.0
  9
$PEXTMAX
 10
20.250094
 20
11.356329
 30
0.0
  9
$PLIMMIN
 10
0.0
 20
0.0
  9
$PLIMMAX
 10
12.0
 20
9.0
  9
$UNITMODE
 70
     0
  9
$VISRETAIN
 70
     0
  9
$PLINEGEN
 70
     0
  9
$PSLTSCALE
 70
     0
  0
ENDSEC
  0
SECTION
  2
TABLES
  0
TABLE
  2
VPORT
 70
     2
  0
VPORT
  2
*ACTIVE
 70
     0
 10
0.0
 20
0.0
 11
1.0
 21
1.0
 12
-3.030975
 22
344.576757
 13
0.0
 23
0.0
 14
1.0
 24
1.0
 15
50.0
 25
50.0
 16
0.0
 26
0.0
 36
1.0
 17
0.0
 27
0.0
 37
0.0
 40
1053.939414
 41
1.903766
 42
50.0
 43
0.0
 44
0.0
 50
0.0
 51
0.0
 71
     0
 72
   100
 73
     1
 74
     1
 75
     0
 76
     0
 77
     0
 78
     0
  0
ENDTAB
  0
TABLE
  2
LTYPE
 70
     4
  0
LTYPE
  2
CONTINUOUS
 70
     0
  3
Solid Line
 72
    65
 73
     0
 40
0.0
  0
LTYPE
  2
31
 70
     0
  3

 72
    65
 73
     4
 40
2.1
 49
1.5
 49
-0.3
 49
0.0
 49
-0.3
  0
LTYPE
  2
22
 70
     0
  3

 72
    65
 73
     2
 40
1.4
 49
1.2
 49
-0.2
  0
LTYPE
  2
DASHDOT
 70
     0
  3
__ . __ . __ . __ . __ . __ . __ . __ . __ . __
 72
    65
 73
     4
 40
1.0
 49
0.5
 49
-0.25
 49
0.0
 49
-0.25
  0
ENDTAB
  0
TABLE
  2
LAYER
 70
    11
  0
LAYER
  2
0
 70
     0
 62
     7
  6
CONTINUOUS
  0
LAYER
  2
DEFPOINTS
 70
     0
 62
     7
  6
CONTINUOUS
  0
LAYER
  2
TEAM-BODY
 70
     0
 62
     2
  6
CONTINUOUS
  0
LAYER
  2
TEAM-AXE
 70
     0
 62
    10
  6
31
  0
LAYER
  2
TEAM-MAS
 70
     0
 62
     9
  6
CONTINUOUS
  0
LAYER
  2
TEAM-TXT
 70
     0
 62
    11
  6
CONTINUOUS
  0
LAYER
  2
TEAM-DET1
 70
     0
 62
     4
  6
CONTINUOUS
  0
LAYER
  2
TEAM-HIDE
 70
     0
 62
     8
  6
22
  0
LAYER
  2
TEAM-KAN
 70
     0
 62
     6
  6
CONTINUOUS
  0
LAYER
  2
TEAM-DET3
 70
     0
 62
    14
  6
CONTINUOUS
  0
LAYER
  2
TEAM-INSP
 70
     0
 62
     5
  6
CONTINUOUS
  0
ENDTAB
  0
TABLE
  2
STYLE
 70
     2
  0
STYLE
  2
STANDARD
 70
     0
 40
0.0
 41
1.0
 50
0.0
 71
     0
 42
200.0
  3
txt
  4

  0
STYLE
  2
TEAM
 70
     0
 40
0.0
 41
0.8
 50
15.0
 71
     0
 42
7.0
  3
ROMANS.shx
  4

  0
ENDTAB
  0
TABLE
  2
VIEW
 70
     0
  0
ENDTAB
  0
TABLE
  2
UCS
 70
     0
  0
ENDTAB
  0
TABLE
  2
APPID
 70
     1
  0
APPID
  2
ACAD
 70
     0
  0
ENDTAB
  0
TABLE
  2
DIMSTYLE
 70
     1
  0
DIMSTYLE
  2
TEAM
 70
     0
  3

  4

  5

  6

  7

 40
0.0
 41
20.0
 42
10.0
 43
1.0
 44
1.0
 45
0.0
 46
0.0
 47
0.0
 48
0.0
140
35.0
141
1.0
142
0.0
143
25.4
144
1.0
145
0.0
146
1.0
147
7.0
 71
     0
 72
     0
 73
     0
 74
     0
 75
     0
 76
     0
 77
     0
 78
     0
170
     0
171
     2
172
     0
173
     0
174
     0
175
     0
176
     9
177
     9
178
    11
  0
ENDTAB
  0
ENDSEC
  0
SECTION
  2
BLOCKS
  0
BLOCK
  8
0
  2
$MODEL_SPACE
 70
     0
 10
0.0
 20
0.0
 30
0.0
  3
$MODEL_SPACE
  1

  0
ENDBLK
  5
260
  8
0
  0
BLOCK
 67
     1
  8
0
  2
$PAPER_SPACE
 70
     0
 10
0.0
 20
0.0
 30
0.0
  3
$PAPER_SPACE
  1

  0
ENDBLK
  5
25E
 67
     1
  8
0
  0
BLOCK
  8
0
  2
*D0
 70
     1
 10
0.0
 20
0.0
 30
0.0
  3
*D0
  1

  0
LINE
  5
47
  8
0
  6
BYBLOCK
 62
     9
 10
12949.300274
 20
68600.0
 30
0.0
 11
12980.315766
 21
68600.0
 31
0.0
  0
LINE
  5
48
  8
0
  6
BYBLOCK
 62
     9
 10
12010.0
 20
68100.0
 30
0.0
 11
12980.315766
 21
68100.0
 31
0.0
  0
LINE
  5
49
  8
0
  6
BYBLOCK
 62
     9
 10
12979.315766
 20
68580.0
 30
0.0
 11
12979.315766
 21
68432.833333
 31
0.0
  0
LINE
  5
4A
  8
0
  6
BYBLOCK
 62
     9
 10
12979.315766
 20
68120.0
 30
0.0
 11
12979.315766
 21
68267.166667
 31
0.0
  0
SOLID
  5
4B
  8
0
  6
BYBLOCK
 62
     9
 10
12975.982433
 20
68580.0
 30
0.0
 11
12982.649099
 21
68580.0
 31
0.0
 12
12979.315766
 22
68600.0
 32
0.0
 13
12979.315766
 23
68600.0
 33
0.0
  0
SOLID
  5
4C
  8
0
  6
BYBLOCK
 62
     9
 10
12975.982433
 20
68120.0
 30
0.0
 11
12982.649099
 21
68120.0
 31
0.0
 12
12979.315766
 22
68100.0
 32
0.0
 13
12979.315766
 23
68100.0
 33
0.0
  0
TEXT
  5
4D
  8
0
  6
BYBLOCK
 62
    11
 10
12996.815766
 20
68274.166667
 30
0.0
 40
35.0
  1
500.00
 50
90.0
  0
POINT
  5
4E
  8
DEFPOINTS
  6
BYBLOCK
 62
     0
 10
12939.300274
 20
68600.0
 30
0.0
  0
POINT
  5
4F
  8
DEFPOINTS
  6
BYBLOCK
 62
     0
 10
12000.0
 20
68100.0
 30
0.0
  0
POINT
  5
50
  8
DEFPOINTS
  6
BYBLOCK
 62
     0
 10
12979.315766
 20
68100.0
 30
0.0
  0
ENDBLK
  5
52
  8
0
  0
BLOCK
  8
0
  2
*D1
 70
     1
 10
0.0
 20
0.0
 30
0.0
  3
*D1
  1

  0
LINE
  5
22
  8
0
  6
BYBLOCK
 62
     9
 10
11050.0
 20
68560.0
 30
0.0
 11
11050.0
 21
68632.698771
 31
0.0
  0
LINE
  5
23
  8
0
  6
BYBLOCK
 62
     9
 10
12950.0
 20
68560.0
 30
0.0
 11
12950.0
 21
68632.698771
 31
0.0
  0
LINE
  5
24
  8
0
  6
BYBLOCK
 62
     9
 10
11070.0
 20
68631.698771
 30
0.0
 11
11905.5
 21
68631.698771
 31
0.0
  0
LINE
  5
25
  8
0
  6
BYBLOCK
 62
     9
 10
12930.0
 20
68631.698771
 30
0.0
 11
12094.5
 21
68631.698771
 31
0.0
  0
SOLID
  5
26
  8
0
  6
BYBLOCK
 62
     9
 10
11070.0
 20
68635.032105
 30
0.0
 11
11070.0
 21
68628.365438
 31
0.0
 12
11050.0
 22
68631.698771
 32
0.0
 13
11050.0
 23
68631.698771
 33
0.0
  0
SOLID
  5
27
  8
0
  6
BYBLOCK
 62
     9
 10
12930.0
 20
68635.032105
 30
0.0
 11
12930.0
 21
68628.365438
 31
0.0
 12
12950.0
 22
68631.698771
 32
0.0
 13
12950.0
 23
68631.698771
 33
0.0
  0
TEXT
  5
28
  8
0
  6
BYBLOCK
 62
    11
 10
11912.5
 20
68614.198771
 30
0.0
 40
35.0
  1
1900.00
  0
POINT
  5
29
  8
DEFPOINTS
  6
BYBLOCK
 62
     0
 10
11050.0
 20
68550.0
 30
0.0
  0
POINT
  5
2B
  8
DEFPOINTS
  6
BYBLOCK
 62
     0
 10
12950.0
 20
68550.0
 30
0.0
  0
POINT
  5
2C
  8
DEFPOINTS
  6
BYBLOCK
 62
     0
 10
12950.0
 20
68631.698771
 30
0.0
  0
ENDBLK
  5
2E
  8
0
  0
BLOCK
  8
0
  2
*D2
 70
     1
 10
0.0
 20
0.0
 30
0.0
  3
*D2
  1

  0
LINE
  5
34
  8
0
  6
BYBLOCK
 62
     9
 10
11050.699726
 20
68600.0
 30
0.0
 11
11013.670814
 21
68600.0
 31
0.0
  0
LINE
  5
35
  8
0
  6
BYBLOCK
 62
     9
 10
11045.000762
 20
68550.0
 30
0.0
 11
11013.670814
 21
68550.0
 31
0.0
  0
LINE
  5
36
  8
0
  6
BYBLOCK
 62
     9
 10
11014.670814
 20
68620.0
 30
0.0
 11
11014.670814
 21
68640.0
 31
0.0
  0
LINE
  5
37
  8
0
  6
BYBLOCK
 62
     9
 10
11014.670814
 20
68530.0
 30
0.0
 11
11014.670814
 21
68510.0
 31
0.0
  0
TEXT
  5
38
  8
0
  6
BYBLOCK
 62
    11
 10
11032.170814
 20
68404.286193
 30
0.0
 40
35.0
  1
50.00
 50
90.0
  0
LINE
  5
39
  8
0
  6
BYBLOCK
 62
     9
 10
11014.670814
 20
68600.0
 30
0.0
 11
11014.670814
 21
68550.0
 31
0.0
  0
SOLID
  5
3A
  8
0
  6
BYBLOCK
 62
     9
 10
11011.337481
 20
68620.0
 30
0.0
 11
11018.004147
 21
68620.0
 31
0.0
 12
11014.670814
 22
68600.0
 32
0.0
 13
11014.670814
 23
68600.0
 33
0.0
  0
SOLID
  5
3B
  8
0
  6
BYBLOCK
 62
     9
 10
11011.337481
 20
68530.0
 30
0.0
 11
11018.004147
 21
68530.0
 31
0.0
 12
11014.670814
 22
68550.0
 32
0.0
 13
11014.670814
 23
68550.0
 33
0.0
  0
POINT
  5
3C
  8
DEFPOINTS
  6
BYBLOCK
 62
     0
 10
11060.699726
 20
68600.0
 30
0.0
  0
POINT
  5
3D
  8
DEFPOINTS
  6
BYBLOCK
 62
     0
 10
11055.000762
 20
68550.0
 30
0.0
  0
POINT
  5
3E
  8
DEFPOINTS
  6
BYBLOCK
 62
     0
 10
11014.670814
 20
68550.0
 30
0.0
  0
ENDBLK
  5
40
  8
0
  0
BLOCK
  8
0
  2
*D3
 70
     1
 10
0.0
 20
0.0
 30
0.0
  3
*D3
  1

  0
LINE
  5
80
  8
0
  6
BYBLOCK
 62
     9
 10
11974.0
 20
68072.958548
 30
0.0
 11
11974.0
 21
68042.907701
 31
0.0
  0
LINE
  5
81
  8
0
  6
BYBLOCK
 62
     9
 10
12026.0
 20
68072.958548
 30
0.0
 11
12026.0
 21
68042.907701
 31
0.0
  0
LINE
  5
82
  8
0
  6
BYBLOCK
 62
     9
 10
11954.0
 20
68043.907701
 30
0.0
 11
11934.0
 21
68043.907701
 31
0.0
  0
LINE
  5
83
  8
0
  6
BYBLOCK
 62
     9
 10
12046.0
 20
68043.907701
 30
0.0
 11
12066.0
 21
68043.907701
 31
0.0
  0
TEXT
  5
84
  8
0
  6
BYBLOCK
 62
    11
 10
12041.488059
 20
68026.407701
 30
0.0
 40
35.0
  1
52.00
  0
LINE
  5
85
  8
0
  6
BYBLOCK
 62
     9
 10
11974.0
 20
68043.907701
 30
0.0
 11
12026.0
 21
68043.907701
 31
0.0
  0
SOLID
  5
86
  8
0
  6
BYBLOCK
 62
     9
 10
11954.0
 20
68047.241035
 30
0.0
 11
11954.0
 21
68040.574368
 31
0.0
 12
11974.0
 22
68043.907701
 32
0.0
 13
11974.0
 23
68043.907701
 33
0.0
  0
SOLID
  5
87
  8
0
  6
BYBLOCK
 62
     9
 10
12046.0
 20
68047.241035
 30
0.0
 11
12046.0
 21
68040.574368
 31
0.0
 12
12026.0
 22
68043.907701
 32
0.0
 13
12026.0
 23
68043.907701
 33
0.0
  0
POINT
  5
88
  8
DEFPOINTS
  6
BYBLOCK
 62
     0
 10
11974.0
 20
68082.958548
 30
0.0
  0
POINT
  5
89
  8
DEFPOINTS
  6
BYBLOCK
 62
     0
 10
12026.0
 20
68082.958548
 30
0.0
  0
POINT
  5
8A
  8
DEFPOINTS
  6
BYBLOCK
 62
     0
 10
12026.0
 20
68043.907701
 30
0.0
  0
ENDBLK
  5
8C
  8
0
  0
ENDSEC
  0
SECTION
  2
ENTITIES
  0
DIMENSION
  5
20
  8
TEAM-MAS
  2
*D1
 10
950.0
 20
681.698771
 30
0.0
 11
0.0
 21
631.698771
 31
0.0
 12
-12000.0
 22
-67950.0
 32
0.0
 13
-950.0
 23
600.0
 33
0.0
 14
950.0
 24
600.0
 34
0.0
1001
ACAD
1000
DSTYLE
1002
{
1070
    40
1040
1.0
1002
}
  0
LINE
  5
2F
  8
TEAM-BODY
 10
-939.300274
 20
650.0
 30
0.0
 11
939.300274
 21
650.0
 31
0.0
  0
ARC
  5
31
  8
TEAM-BODY
 10
1672.94005
 20
2148.328768
 30
0.0
 40
3000.0
 50
210.214294
 51
216.23576
  0
DIMENSION
  5
32
  8
TEAM-MAS
  2
*D2
 10
-985.329186
 20
600.0
 30
0.0
 11
-985.329186
 21
515.536193
 31
0.0
 12
-12000.0
 22
-67950.0
 32
0.0
 70
   128
 13
-939.300274
 23
650.0
 33
0.0
 14
-944.999238
 24
600.0
 34
0.0
 50
90.0
1001
ACAD
1000
DSTYLE
1002
{
1070
    40
1040
1.0
1002
}
  0
ARC
  5
41
  8
TEAM-BODY
 10
-939.300245
 20
627.096033
 30
0.0
 40
22.903966
 50
30.214294
 51
90.0
  0
LINE
  5
42
  8
TEAM-BODY
 10
-950.0
 20
600.0
 30
0.0
 11
-896.627623
 21
600.0
 31
0.0
  0
LINE
  5
43
  8
TEAM-BODY
 10
-950.0
 20
600.0
 30
0.0
 11
-949.298751
 21
640.174524
 31
0.0
  0
ARC
  5
44
  8
TEAM-BODY
 10
-939.300274
 20
640.0
 30
0.0
 40
10.0
 50
90.0
 51
179.0
  0
DIMENSION
  5
45
  8
TEAM-MAS
  2
*D0
 10
979.315766
 20
150.0
 30
0.0
 11
979.315766
 21
350.0
 31
0.0
 12
-12000.0
 22
-67950.0
 32
0.0
 13
939.300274
 23
650.0
 33
0.0
 14
0.0
 24
150.0
 34
0.0
 50
90.0
1001
ACAD
1000
DSTYLE
1002
{
1070
    40
1040
1.0
1002
}
  0
ARC
  5
53
  8
TEAM-BODY
 10
-1753.230629
 20
2171.722091
 30
0.0
 40
3083.685537
 50
324.222027
 51
330.240569
  0
LINE
  5
54
  8
TEAM-BODY
 10
939.241332
 20
649.999826
 30
0.0
 11
608.248084
 21
648.048864
 31
0.0
  0
LINE
  5
55
  8
TEAM-BODY
 10
429.591126
 20
163.395814
 30
0.0
 11
50.842522
 21
149.993745
 31
0.0
  0
ARC
  5
56
  8
TEAM-DET1
 10
-590.99278
 20
-3066.289701
 30
0.0
 40
3686.2897
 50
71.696404
 51
90.0
  0
LINE
  5
58
  8
TEAM-AXE
  6
DASHDOT
 10
0.0
 20
650.0
 30
0.0
 11
0.0
 21
132.958548
 31
0.0
  0
ARC
  5
5C
  8
TEAM-DET1
 10
-1094.280324
 20
650.0
 30
0.0
 40
500.0
 50
338.34666
 51
358.538233
  0
ARC
  5
5D
  8
TEAM-BODY
 10
2389.473107
 20
961.793941
 30
0.0
 40
3000.0
 50
186.175413
 51
193.935486
  0
LINE
  5
5E
  8
TEAM-DET3
 10
389.317725
 20
137.955714
 30
0.0
 11
92.379872
 21
127.448529
 31
0.0
  0
LINE
  5
60
  8
TEAM-DET3
 10
92.379872
 20
127.448529
 30
0.0
 11
69.185584
 21
150.642817
 31
0.0
  0
LINE
  5
61
  8
TEAM-DET3
 10
389.317725
 20
137.955714
 30
0.0
 11
414.213692
 21
162.851681
 31
0.0
  0
LINE
  5
62
  8
TEAM-DET3
 10
-100.610744
 20
127.739779
 30
0.0
 11
-512.539291
 21
142.315926
 31
0.0
  0
LINE
  5
63
  8
TEAM-DET3
 10
-77.416456
 20
150.934067
 30
0.0
 11
-100.610744
 21
127.739779
 31
0.0
  0
LINE
  5
64
  8
TEAM-DET3
 10
-512.539291
 20
142.315926
 30
0.0
 11
-537.43526
 21
167.211894
 31
0.0
  0
LINE
  5
65
  8
TEAM-BODY
 10
-616.503617
 20
170.009738
 30
0.0
 11
-50.842522
 21
149.993745
 31
0.0
  0
LINE
  5
66
  8
TEAM-KAN
 10
26.0
 20
137.0
 30
0.0
 11
0.0
 21
137.0
 31
0.0
  0
LINE
  5
68
  8
TEAM-BODY
 10
26.0
 20
132.958548
 30
0.0
 11
26.0
 21
137.0
 31
0.0
  0
LINE
  5
69
  8
TEAM-KAN
 10
26.0
 20
132.958548
 30
0.0
 11
0.0
 21
132.958548
 31
0.0
  0
ARC
  5
6A
  8
TEAM-BODY
 10
51.196152
 20
140.0
 30
0.0
 40
10.0
 50
92.026573
 51
120.0
  0
LINE
  5
6B
  8
TEAM-BODY
 10
26.0
 20
137.0
 30
0.0
 11
46.196152
 21
148.660254
 31
0.0
  0
LINE
  5
6C
  8
TEAM-KAN
 10
-26.0
 20
137.0
 30
0.0
 11
0.0
 21
137.0
 31
0.0
  0
LINE
  5
6D
  8
TEAM-BODY
 10
-26.0
 20
132.958548
 30
0.0
 11
-26.0
 21
137.0
 31
0.0
  0
LINE
  5
6E
  8
TEAM-KAN
 10
-26.0
 20
132.958548
 30
0.0
 11
0.0
 21
132.958548
 31
0.0
  0
ARC
  5
6F
  8
TEAM-BODY
 10
-51.196152
 20
140.0
 30
0.0
 40
10.0
 50
60.0
 51
87.973427
  0
LINE
  5
70
  8
TEAM-BODY
 10
-26.0
 20
137.0
 30
0.0
 11
-46.196152
 21
148.660254
 31
0.0
  0
LINE
  5
71
  8
TEAM-BODY
 10
51.196152
 20
150.0
 30
0.0
 11
-51.196152
 21
150.0
 31
0.0
  0
ARC
  5
72
  8
TEAM-BODY
 10
-771.03232
 20
357.267893
 30
0.0
 40
30.0
 50
13.837924
 51
36.23576
  0
ARC
  5
73
  8
TEAM-DET1
 10
-768.978644
 20
520.853507
 30
0.0
 40
150.0
 50
290.762911
 51
338.34666
  0
ARC
  5
74
  8
TEAM-DET1
 10
590.99278
 20
-3066.289701
 30
0.0
 40
3686.2897
 50
110.762911
 51
111.220913
  0
ARC
  5
75
  8
TEAM-BODY
 10
2171.025509
 20
1081.971785
 30
0.0
 40
3000.0
 50
193.837924
 51
196.260711
  0
ARC
  5
76
  8
TEAM-BODY
 10
-425.172679
 20
263.389258
 30
0.0
 40
100.0
 50
193.935486
 51
268.0
  0
ARC
  5
77
  8
TEAM-BODY
 10
-612.967317
 20
269.947191
 30
0.0
 40
100.0
 50
196.260711
 51
267.973427
  0
LINE
  5
78
  8
TEAM-BODY
 10
-616.457267
 20
170.008108
 30
0.0
 11
-174.497484
 21
154.574532
 31
0.0
  0
TEXT
  5
79
  8
TEAM-TXT
 10
-461.102556
 20
552.75601
 30
0.0
 40
30.0
  1
team 121059
 41
0.8
 51
15.0
  7
TEAM
  0
CIRCLE
  5
7C
  8
TEAM-INSP
 10
0.0
 20
0.0
 30
0.0
 40
10.0
  0
DIMENSION
  5
7E
  8
TEAM-MAS
  2
*D3
 10
26.0
 20
93.907701
 30
0.0
 11
105.654726
 21
93.907701
 31
0.0
 12
-12000.0
 22
-67950.0
 32
0.0
 70
   128
 13
-26.0
 23
132.958548
 33
0.0
 14
26.0
 24
132.958548
 34
0.0
1001
ACAD
1000
DSTYLE
1002
{
1070
    78
1070
     0
1070
    40
1040
1.0
1002
}
  0
ARC
  5
8D
  8
TEAM-BODY
 10
-603.060516
 20
638.0
 30
0.0
 40
10.0
 50
6.175413
 51
89.654279
  0
LINE
  5
8E
  8
TEAM-BODY
 10
-642.175493
 20
650.0
 30
0.0
 11
-654.937109
 21
650.0
 31
0.0
  0
ARC
  5
8F
  8
TEAM-DET1
 10
1094.280324
 20
650.0
 30
0.0
 40
500.0
 50
186.560907
 51
201.65334
  0
ARC
  5
90
  8
TEAM-BODY
 10
-2380.726481
 20
992.701963
 30
0.0
 40
3000.0
 50
345.433326
 51
353.233413
  0
ARC
  5
91
  8
TEAM-DET1
 10
-590.99278
 20
-3066.289701
 30
0.0
 40
3686.2897
 50
68.779087
 51
69.237089
  0
ARC
  5
92
  8
TEAM-DET1
 10
768.978644
 20
520.853507
 30
0.0
 40
150.0
 50
201.65334
 51
249.237089
  0
LINE
  5
93
  8
TEAM-BODY
 10
616.680432
 20
165.012865
 30
0.0
 11
429.591126
 21
163.395814
 31
0.0
  0
ARC
  5
94
  8
TEAM-BODY
 10
612.967317
 20
269.947191
 30
0.0
 40
105.0
 50
272.026573
 51
343.739289
  0
ARC
  5
95
  8
TEAM-BODY
 10
-2171.025509
 20
1081.971785
 30
0.0
 40
3005.0
 50
343.739289
 51
346.237459
  0
ARC
  5
96
  8
TEAM-BODY
 10
752.557459
 20
365.897329
 30
0.0
 40
5.0
 50
143.688857
 51
166.237459
  0
ARC
  5
97
  8
TEAM-BODY
 10
426.054826
 20
263.333268
 30
0.0
 40
100.0
 50
272.026573
 51
345.433326
  0
LINE
  5
98
  8
TEAM-AXE
  6
DASHDOT
 10
609.031831
 20
582.492496
 30
0.0
 11
582.17871
 21
586.32022
 31
0.0
  0
ARC
  5
99
  8
TEAM-BODY
 10
608.307025
 20
638.049037
 30
0.0
 40
10.0
 50
90.337713
 51
173.233413
  0
POLYLINE
  5
9A
  8
TEAM-DET3
 66
     1
 10
0.0
 20
0.0
 30
0.0
  0
VERTEX
  5
266
  8
TEAM-DET3
 10
-663.0
 20
159.99984
 30
0.0
  0
VERTEX
  5
267
  8
TEAM-DET3
 10
-663.0
 20
138.626768
 30
0.0
  0
VERTEX
  5
268
  8
TEAM-DET3
 10
-615.0
 20
138.626768
 30
0.0
  0
VERTEX
  5
269
  8
TEAM-DET3
 10
-615.0
 20
159.99984
 30
0.0
  0
SEQEND
  5
26A
  8
TEAM-DET3
  0
POLYLINE
  5
9B
  8
TEAM-DET3
 66
     1
 10
0.0
 20
0.0
 30
0.0
  0
VERTEX
  5
26B
  8
TEAM-DET3
 10
-663.0
 20
136.99984
 30
0.0
  0
VERTEX
  5
26C
  8
TEAM-DET3
 10
-663.0
 20
159.99984
 30
0.0
  0
VERTEX
  5
26D
  8
TEAM-DET3
 10
-615.0
 20
159.99984
 30
0.0
  0
VERTEX
  5
26E
  8
TEAM-DET3
 10
-615.0
 20
136.99984
 30
0.0
  0
SEQEND
  5
26F
  8
TEAM-DET3
  0
POLYLINE
  5
9C
  8
TEAM-DET3
 66
     1
 10
0.0
 20
0.0
 30
0.0
  0
VERTEX
  5
270
  8
TEAM-DET3
 10
-665.0
 20
136.99984
 30
0.0
  0
VERTEX
  5
271
  8
TEAM-DET3
 10
-665.0
 20
161.99984
 30
0.0
  0
VERTEX
  5
272
  8
TEAM-DET3
 10
-613.0
 20
161.99984
 30
0.0
  0
VERTEX
  5
273
  8
TEAM-DET3
 10
-613.0
 20
136.99984
 30
0.0
  0
SEQEND
  5
274
  8
TEAM-DET3
  0
POLYLINE
  5
9D
  8
TEAM-DET3
 66
     1
 10
0.0
 20
0.0
 30
0.0
  0
VERTEX
  5
275
  8
TEAM-DET3
 10
-659.0
 20
159.99984
 30
0.0
  0
VERTEX
  5
276
  8
TEAM-DET3
 10
-659.0
 20
142.626768
 30
0.0
  0
VERTEX
  5
277
  8
TEAM-DET3
 10
-619.0
 20
142.626768
 30
0.0
  0
VERTEX
  5
278
  8
TEAM-DET3
 10
-619.0
 20
159.99984
 30
0.0
  0
SEQEND
  5
279
  8
TEAM-DET3
  0
POLYLINE
  5
9E
  8
TEAM-DET3
 66
     1
 10
0.0
 20
0.0
 30
0.0
  0
VERTEX
  5
27A
  8
TEAM-DET3
 10
659.0
 20
159.99984
 30
0.0
  0
VERTEX
  5
27B
  8
TEAM-DET3
 10
659.0
 20
142.626768
 30
0.0
  0
VERTEX
  5
27C
  8
TEAM-DET3
 10
619.0
 20
142.626768
 30
0.0
  0
VERTEX
  5
27D
  8
TEAM-DET3
 10
619.0
 20
159.99984
 30
0.0
  0
SEQEND
  5
27E
  8
TEAM-DET3
  0
POLYLINE
  5
9F
  8
TEAM-DET3
 66
     1
 10
0.0
 20
0.0
 30
0.0
  0
VERTEX
  5
27F
  8
TEAM-DET3
 10
665.0
 20
136.99984
 30
0.0
  0
VERTEX
  5
280
  8
TEAM-DET3
 10
665.0
 20
161.99984
 30
0.0
  0
VERTEX
  5
281
  8
TEAM-DET3
 10
613.0
 20
161.99984
 30
0.0
  0
VERTEX
  5
282
  8
TEAM-DET3
 10
613.0
 20
136.99984
 30
0.0
  0
SEQEND
  5
283
  8
TEAM-DET3
  0
POLYLINE
  5
A0
  8
TEAM-DET3
 66
     1
 10
0.0
 20
0.0
 30
0.0
  0
VERTEX
  5
284
  8
TEAM-DET3
 10
663.0
 20
136.99984
 30
0.0
  0
VERTEX
  5
285
  8
TEAM-DET3
 10
663.0
 20
159.99984
 30
0.0
  0
VERTEX
  5
286
  8
TEAM-DET3
 10
615.0
 20
159.99984
 30
0.0
  0
VERTEX
  5
287
  8
TEAM-DET3
 10
615.0
 20
136.99984
 30
0.0
  0
SEQEND
  5
288
  8
TEAM-DET3
  0
POLYLINE
  5
A1
  8
TEAM-DET3
 66
     1
 10
0.0
 20
0.0
 30
0.0
  0
VERTEX
  5
289
  8
TEAM-DET3
 10
663.0
 20
159.99984
 30
0.0
  0
VERTEX
  5
28A
  8
TEAM-DET3
 10
663.0
 20
138.626768
 30
0.0
  0
VERTEX
  5
28B
  8
TEAM-DET3
 10
615.0
 20
138.626768
 30
0.0
  0
VERTEX
  5
28C
  8
TEAM-DET3
 10
615.0
 20
159.99984
 30
0.0
  0
SEQEND
  5
28D
  8
TEAM-DET3
  0
LINE
  5
A2
  8
TEAM-DET3
 10
-633.00061
 20
51.99984
 30
0.0
 11
-633.00061
 21
138.626768
 31
0.0
  0
LINE
  5
A3
  8
TEAM-DET3
 10
-645.00061
 20
138.626768
 30
0.0
 11
-645.00061
 21
51.99984
 31
0.0
  0
LINE
  5
A4
  8
TEAM-DET3
 10
-644.06007
 20
138.626768
 30
0.0
 11
-644.06007
 21
51.99984
 31
0.0
  0
LINE
  5
A5
  8
TEAM-DET3
 10
-633.93995
 20
51.99984
 30
0.0
 11
-633.93995
 21
138.626768
 31
0.0
  0
LINE
  5
A6
  8
TEAM-DET3
 10
633.93995
 20
51.99984
 30
0.0
 11
633.93995
 21
138.626768
 31
0.0
  0
LINE
  5
A7
  8
TEAM-DET3
 10
644.06007
 20
138.626768
 30
0.0
 11
644.06007
 21
51.99984
 31
0.0
  0
LINE
  5
A8
  8
TEAM-DET3
 10
645.00061
 20
138.626768
 30
0.0
 11
645.00061
 21
51.99984
 31
0.0
  0
LINE
  5
A9
  8
TEAM-DET3
 10
633.00061
 20
51.99984
 30
0.0
 11
633.00061
 21
138.626768
 31
0.0
  0
LINE
  5
AA
  8
TEAM-DET3
 10
659.0
 20
148.313304
 30
0.0
 11
656.0
 21
148.313304
 31
0.0
  0
LINE
  5
AB
  8
TEAM-DET3
 10
669.0
 20
148.313304
 30
0.0
 11
665.0
 21
148.313304
 31
0.0
  0
LINE
  5
AC
  8
TEAM-DET3
 10
659.0
 20
154.313304
 30
0.0
 11
656.0
 21
154.313304
 31
0.0
  0
LINE
  5
AD
  8
TEAM-DET3
 10
669.0
 20
154.313304
 30
0.0
 11
665.0
 21
154.313304
 31
0.0
  0
LINE
  5
AE
  8
TEAM-DET3
 10
613.0
 20
148.313304
 30
0.0
 11
609.0
 21
148.313304
 31
0.0
  0
LINE
  5
AF
  8
TEAM-DET3
 10
622.0
 20
148.313304
 30
0.0
 11
619.0
 21
148.313304
 31
0.0
  0
LINE
  5
B0
  8
TEAM-DET3
 10
613.0
 20
154.313304
 30
0.0
 11
609.0
 21
154.313304
 31
0.0
  0
LINE
  5
B1
  8
TEAM-DET3
 10
622.0
 20
154.313304
 30
0.0
 11
619.0
 21
154.313304
 31
0.0
  0
LINE
  5
B2
  8
TEAM-DET3
 10
609.0
 20
157.313304
 30
0.0
 11
609.0
 21
145.313304
 31
0.0
  0
LINE
  5
B3
  8
TEAM-DET3
 10
622.0
 20
154.313304
 30
0.0
 11
622.0
 21
148.313304
 31
0.0
  0
LINE
  5
B4
  8
TEAM-DET3
 10
656.0
 20
154.313304
 30
0.0
 11
656.0
 21
148.313304
 31
0.0
  0
LINE
  5
B5
  8
TEAM-DET3
 10
669.0
 20
157.313304
 30
0.0
 11
669.0
 21
145.313304
 31
0.0
  0
LINE
  5
B6
  8
TEAM-DET3
 10
613.0
 20
145.313304
 30
0.0
 11
609.0
 21
145.313304
 31
0.0
  0
LINE
  5
B7
  8
TEAM-DET3
 10
613.0
 20
157.313304
 30
0.0
 11
609.0
 21
157.313304
 31
0.0
  0
LINE
  5
B8
  8
TEAM-DET3
 10
669.0
 20
145.313304
 30
0.0
 11
665.0
 21
145.313304
 31
0.0
  0
LINE
  5
B9
  8
TEAM-DET3
 10
669.0
 20
157.313304
 30
0.0
 11
665.0
 21
157.313304
 31
0.0
  0
LINE
  5
BA
  8
TEAM-DET3
 10
615.0
 20
136.99984
 30
0.0
 11
613.0
 21
136.99984
 31
0.0
  0
LINE
  5
BB
  8
TEAM-DET3
 10
665.0
 20
136.99984
 30
0.0
 11
663.0
 21
136.99984
 31
0.0
  0
LINE
  5
BC
  8
TEAM-DET3
 10
644.12415
 20
147.063669
 30
0.0
 11
634.12365
 21
147.063669
 31
0.0
  0
LINE
  5
BD
  8
TEAM-DET3
 10
645.12389
 20
146.063909
 30
0.0
 11
633.12389
 21
146.063909
 31
0.0
  0
LINE
  5
BE
  8
TEAM-DET3
 10
645.12389
 20
146.063909
 30
0.0
 11
645.12389
 21
142.626768
 31
0.0
  0
LINE
  5
BF
  8
TEAM-DET3
 10
633.12389
 20
142.626768
 30
0.0
 11
633.12389
 21
146.063909
 31
0.0
  0
LINE
  5
C0
  8
TEAM-DET3
 10
644.37439
 20
146.813429
 30
0.0
 11
644.37317
 21
142.626768
 31
0.0
  0
LINE
  5
C1
  8
TEAM-DET3
 10
633.87341
 20
146.813429
 30
0.0
 11
633.87341
 21
142.626768
 31
0.0
  0
LINE
  5
C2
  8
TEAM-DET3
 10
644.12415
 20
147.063669
 30
0.0
 11
644.37439
 21
146.813429
 31
0.0
  0
LINE
  5
C3
  8
TEAM-DET3
 10
644.37439
 20
146.813429
 30
0.0
 11
645.12389
 21
146.063909
 31
0.0
  0
LINE
  5
C4
  8
TEAM-DET3
 10
634.12365
 20
147.063669
 30
0.0
 11
633.87341
 21
146.813429
 31
0.0
  0
LINE
  5
C5
  8
TEAM-DET3
 10
633.87341
 20
146.813429
 30
0.0
 11
633.12389
 21
146.063909
 31
0.0
  0
LINE
  5
C6
  8
TEAM-DET3
 10
-633.87341
 20
146.813429
 30
0.0
 11
-633.12389
 21
146.063909
 31
0.0
  0
LINE
  5
C7
  8
TEAM-DET3
 10
-634.12365
 20
147.063669
 30
0.0
 11
-633.87341
 21
146.813429
 31
0.0
  0
LINE
  5
C8
  8
TEAM-DET3
 10
-644.37439
 20
146.813429
 30
0.0
 11
-645.12389
 21
146.063909
 31
0.0
  0
LINE
  5
C9
  8
TEAM-DET3
 10
-644.12415
 20
147.063669
 30
0.0
 11
-644.37439
 21
146.813429
 31
0.0
  0
LINE
  5
CA
  8
TEAM-DET3
 10
-633.87341
 20
146.813429
 30
0.0
 11
-633.87341
 21
142.626768
 31
0.0
  0
LINE
  5
CB
  8
TEAM-DET3
 10
-644.37439
 20
146.813429
 30
0.0
 11
-644.37317
 21
142.626768
 31
0.0
  0
LINE
  5
CC
  8
TEAM-DET3
 10
-633.12389
 20
142.626768
 30
0.0
 11
-633.12389
 21
146.063909
 31
0.0
  0
LINE
  5
CD
  8
TEAM-DET3
 10
-645.12389
 20
146.063909
 30
0.0
 11
-645.12389
 21
142.626768
 31
0.0
  0
LINE
  5
CE
  8
TEAM-DET3
 10
-645.12389
 20
146.063909
 30
0.0
 11
-633.12389
 21
146.063909
 31
0.0
  0
LINE
  5
CF
  8
TEAM-DET3
 10
-644.12415
 20
147.063669
 30
0.0
 11
-634.12365
 21
147.063669
 31
0.0
  0
LINE
  5
D0
  8
TEAM-DET3
 10
-665.0
 20
136.99984
 30
0.0
 11
-663.0
 21
136.99984
 31
0.0
  0
LINE
  5
D1
  8
TEAM-DET3
 10
-615.0
 20
136.99984
 30
0.0
 11
-613.0
 21
136.99984
 31
0.0
  0
LINE
  5
D2
  8
TEAM-DET3
 10
-669.0
 20
157.313304
 30
0.0
 11
-665.0
 21
157.313304
 31
0.0
  0
LINE
  5
D3
  8
TEAM-DET3
 10
-669.0
 20
145.313304
 30
0.0
 11
-665.0
 21
145.313304
 31
0.0
  0
LINE
  5
D4
  8
TEAM-DET3
 10
-613.0
 20
157.313304
 30
0.0
 11
-609.0
 21
157.313304
 31
0.0
  0
LINE
  5
D5
  8
TEAM-DET3
 10
-613.0
 20
145.313304
 30
0.0
 11
-609.0
 21
145.313304
 31
0.0
  0
LINE
  5
D6
  8
TEAM-DET3
 10
-669.0
 20
157.313304
 30
0.0
 11
-669.0
 21
145.313304
 31
0.0
  0
LINE
  5
D7
  8
TEAM-DET3
 10
-656.0
 20
154.313304
 30
0.0
 11
-656.0
 21
148.313304
 31
0.0
  0
LINE
  5
D8
  8
TEAM-DET3
 10
-622.0
 20
154.313304
 30
0.0
 11
-622.0
 21
148.313304
 31
0.0
  0
LINE
  5
D9
  8
TEAM-DET3
 10
-609.0
 20
157.313304
 30
0.0
 11
-609.0
 21
145.313304
 31
0.0
  0
LINE
  5
DA
  8
TEAM-DET3
 10
-622.0
 20
154.313304
 30
0.0
 11
-619.0
 21
154.313304
 31
0.0
  0
LINE
  5
DB
  8
TEAM-DET3
 10
-613.0
 20
154.313304
 30
0.0
 11
-609.0
 21
154.313304
 31
0.0
  0
LINE
  5
DC
  8
TEAM-DET3
 10
-622.0
 20
148.313304
 30
0.0
 11
-619.0
 21
148.313304
 31
0.0
  0
LINE
  5
DD
  8
TEAM-DET3
 10
-613.0
 20
148.313304
 30
0.0
 11
-609.0
 21
148.313304
 31
0.0
  0
LINE
  5
DE
  8
TEAM-DET3
 10
-669.0
 20
154.313304
 30
0.0
 11
-665.0
 21
154.313304
 31
0.0
  0
LINE
  5
DF
  8
TEAM-DET3
 10
-659.0
 20
154.313304
 30
0.0
 11
-656.0
 21
154.313304
 31
0.0
  0
LINE
  5
E0
  8
TEAM-DET3
 10
-669.0
 20
148.313304
 30
0.0
 11
-665.0
 21
148.313304
 31
0.0
  0
LINE
  5
E1
  8
TEAM-DET3
 10
-659.0
 20
148.313304
 30
0.0
 11
-656.0
 21
148.313304
 31
0.0
  0
LINE
  5
E2
  8
TEAM-DET3
 10
-633.00061
 20
0.0
 30
0.0
 11
-633.00061
 21
9.99984
 31
0.0
  0
LINE
  5
E3
  8
TEAM-DET3
 10
-645.00061
 20
9.99984
 30
0.0
 11
-645.00061
 21
0.0
 31
0.0
  0
LINE
  5
E4
  8
TEAM-DET3
 10
-652.1239
 20
9.99984
 30
0.0
 11
-626.1239
 21
9.99984
 31
0.0
  0
LINE
  5
E5
  8
TEAM-DET3
 10
-652.1239
 20
9.99984
 30
0.0
 11
-652.1239
 21
0.0
 31
0.0
  0
LINE
  5
E6
  8
TEAM-DET3
 10
-626.1239
 20
9.99984
 30
0.0
 11
-626.1239
 21
0.0
 31
0.0
  0
LINE
  5
E7
  8
TEAM-DET3
 10
-652.1239
 20
9.99984
 30
0.0
 11
-626.1239
 21
9.99984
 31
0.0
  0
LINE
  5
E8
  8
TEAM-DET3
 10
-652.1239
 20
0.0
 30
0.0
 11
-626.1239
 21
0.0
 31
0.0
  0
LINE
  5
E9
  8
TEAM-HIDE
 10
-750.0
 20
-0.00016
 30
0.0
 11
750.0
 21
-0.00016
 31
0.0
  0
LINE
  5
EC
  8
TEAM-DET3
 10
652.1239
 20
0.0
 30
0.0
 11
626.1239
 21
0.0
 31
0.0
  0
LINE
  5
ED
  8
TEAM-DET3
 10
652.1239
 20
9.99984
 30
0.0
 11
626.1239
 21
9.99984
 31
0.0
  0
LINE
  5
EE
  8
TEAM-DET3
 10
626.1239
 20
9.99984
 30
0.0
 11
626.1239
 21
0.0
 31
0.0
  0
LINE
  5
EF
  8
TEAM-DET3
 10
652.1239
 20
9.99984
 30
0.0
 11
652.1239
 21
0.0
 31
0.0
  0
LINE
  5
F0
  8
TEAM-DET3
 10
652.1239
 20
9.99984
 30
0.0
 11
626.1239
 21
9.99984
 31
0.0
  0
LINE
  5
F1
  8
TEAM-DET3
 10
645.00061
 20
9.99984
 30
0.0
 11
645.00061
 21
0.0
 31
0.0
  0
LINE
  5
F2
  8
TEAM-DET3
 10
633.00061
 20
0.0
 30
0.0
 11
633.00061
 21
9.99984
 31
0.0
  0
LINE
  5
F3
  8
TEAM-DET3
 10
648.00061
 20
51.99984
 30
0.0
 11
630.00061
 21
51.99984
 31
0.0
  0
LINE
  5
F4
  8
TEAM-DET3
 10
650.00061
 20
13.99984
 30
0.0
 11
628.00061
 21
13.99984
 31
0.0
  0
LINE
  5
F5
  8
TEAM-DET3
 10
649.00061
 20
40.99984
 30
0.0
 11
629.00061
 21
40.99984
 31
0.0
  0
LINE
  5
F6
  8
TEAM-DET3
 10
648.00061
 20
47.99984
 30
0.0
 11
630.00061
 21
47.99984
 31
0.0
  0
LINE
  5
F7
  8
TEAM-DET3
 10
628.00061
 20
13.99984
 30
0.0
 11
629.00061
 21
40.99984
 31
0.0
  0
LINE
  5
F8
  8
TEAM-DET3
 10
630.00061
 20
40.99984
 30
0.0
 11
630.00061
 21
51.99984
 31
0.0
  0
LINE
  5
F9
  8
TEAM-DET3
 10
648.00061
 20
51.99984
 30
0.0
 11
648.00061
 21
40.99984
 31
0.0
  0
LINE
  5
FA
  8
TEAM-DET3
 10
652.1239
 20
9.99984
 30
0.0
 11
650.00061
 21
13.99984
 31
0.0
  0
LINE
  5
FB
  8
TEAM-DET3
 10
626.1239
 20
9.99984
 30
0.0
 11
628.00061
 21
13.99984
 31
0.0
  0
LINE
  5
FC
  8
TEAM-DET3
 10
649.00061
 20
40.99984
 30
0.0
 11
650.00061
 21
13.99984
 31
0.0
  0
LINE
  5
FD
  8
TEAM-DET3
 10
643.858832
 20
51.99984
 30
0.0
 11
643.858832
 21
47.99984
 31
0.0
  0
LINE
  5
FE
  8
TEAM-DET3
 10
634.142388
 20
51.99984
 30
0.0
 11
634.142388
 21
47.99984
 31
0.0
  0
LINE
  5
FF
  8
TEAM-DET3
 10
639.00061
 20
40.99984
 30
0.0
 11
639.00061
 21
13.99984
 31
0.0
  0
LINE
  5
100
  8
TEAM-DET3
 10
643.767181
 20
40.99984
 30
0.0
 11
644.767181
 21
13.99984
 31
0.0
  0
LINE
  5
101
  8
TEAM-DET3
 10
634.234039
 20
40.99984
 30
0.0
 11
633.234039
 21
13.99984
 31
0.0
  0
LINE
  5
102
  8
TEAM-DET3
 10
-634.234039
 20
40.99984
 30
0.0
 11
-633.234039
 21
13.99984
 31
0.0
  0
LINE
  5
103
  8
TEAM-DET3
 10
-643.767181
 20
40.99984
 30
0.0
 11
-644.767181
 21
13.99984
 31
0.0
  0
LINE
  5
104
  8
TEAM-DET3
 10
-639.00061
 20
40.99984
 30
0.0
 11
-639.00061
 21
13.99984
 31
0.0
  0
LINE
  5
105
  8
TEAM-DET3
 10
-634.142388
 20
51.99984
 30
0.0
 11
-634.142388
 21
47.99984
 31
0.0
  0
LINE
  5
106
  8
TEAM-DET3
 10
-643.858832
 20
51.99984
 30
0.0
 11
-643.858832
 21
47.99984
 31
0.0
  0
LINE
  5
107
  8
TEAM-DET3
 10
-649.00061
 20
40.99984
 30
0.0
 11
-650.00061
 21
13.99984
 31
0.0
  0
LINE
  5
108
  8
TEAM-DET3
 10
-626.1239
 20
9.99984
 30
0.0
 11
-628.00061
 21
13.99984
 31
0.0
  0
LINE
  5
109
  8
TEAM-DET3
 10
-652.1239
 20
9.99984
 30
0.0
 11
-650.00061
 21
13.99984
 31
0.0
  0
LINE
  5
10A
  8
TEAM-DET3
 10
-648.00061
 20
51.99984
 30
0.0
 11
-648.00061
 21
40.99984
 31
0.0
  0
LINE
  5
10B
  8
TEAM-DET3
 10
-630.00061
 20
40.99984
 30
0.0
 11
-630.00061
 21
51.99984
 31
0.0
  0
LINE
  5
10C
  8
TEAM-DET3
 10
-628.00061
 20
13.99984
 30
0.0
 11
-629.00061
 21
40.99984
 31
0.0
  0
LINE
  5
10D
  8
TEAM-DET3
 10
-648.00061
 20
47.99984
 30
0.0
 11
-630.00061
 21
47.99984
 31
0.0
  0
LINE
  5
10E
  8
TEAM-DET3
 10
-649.00061
 20
40.99984
 30
0.0
 11
-629.00061
 21
40.99984
 31
0.0
  0
LINE
  5
10F
  8
TEAM-DET3
 10
-650.00061
 20
13.99984
 30
0.0
 11
-628.00061
 21
13.99984
 31
0.0
  0
LINE
  5
110
  8
TEAM-DET3
 10
-648.00061
 20
51.99984
 30
0.0
 11
-630.00061
 21
51.99984
 31
0.0
  0
LINE
  5
111
  8
TEAM-DET3
 10
-213.0
 20
145.313304
 30
0.0
 11
-209.0
 21
145.313304
 31
0.0
  0
LINE
  5
112
  8
TEAM-DET3
 10
-213.0
 20
133.313304
 30
0.0
 11
-209.0
 21
133.313304
 31
0.0
  0
LINE
  5
113
  8
TEAM-DET3
 10
-213.0
 20
142.313304
 30
0.0
 11
-209.0
 21
142.313304
 31
0.0
  0
LINE
  5
114
  8
TEAM-DET3
 10
-213.0
 20
136.313304
 30
0.0
 11
-209.0
 21
136.313304
 31
0.0
  0
POLYLINE
  5
115
  8
TEAM-DET3
 66
     1
 10
0.0
 20
0.0
 30
0.0
  0
VERTEX
  5
28E
  8
TEAM-DET3
 10
-259.0
 20
147.99984
 30
0.0
  0
VERTEX
  5
28F
  8
TEAM-DET3
 10
-259.0
 20
130.626768
 30
0.0
  0
VERTEX
  5
290
  8
TEAM-DET3
 10
-219.0
 20
130.626768
 30
0.0
  0
VERTEX
  5
291
  8
TEAM-DET3
 10
-219.0
 20
147.99984
 30
0.0
  0
SEQEND
  5
292
  8
TEAM-DET3
  0
POLYLINE
  5
116
  8
TEAM-DET3
 66
     1
 10
0.0
 20
0.0
 30
0.0
  0
VERTEX
  5
293
  8
TEAM-DET3
 10
-265.0
 20
124.99984
 30
0.0
  0
VERTEX
  5
294
  8
TEAM-DET3
 10
-265.0
 20
149.99984
 30
0.0
  0
VERTEX
  5
295
  8
TEAM-DET3
 10
-213.0
 20
149.99984
 30
0.0
  0
VERTEX
  5
296
  8
TEAM-DET3
 10
-213.0
 20
124.99984
 30
0.0
  0
SEQEND
  5
297
  8
TEAM-DET3
  0
POLYLINE
  5
117
  8
TEAM-DET3
 66
     1
 10
0.0
 20
0.0
 30
0.0
  0
VERTEX
  5
298
  8
TEAM-DET3
 10
-263.0
 20
124.99984
 30
0.0
  0
VERTEX
  5
299
  8
TEAM-DET3
 10
-263.0
 20
147.99984
 30
0.0
  0
VERTEX
  5
29A
  8
TEAM-DET3
 10
-215.0
 20
147.99984
 30
0.0
  0
VERTEX
  5
29B
  8
TEAM-DET3
 10
-215.0
 20
124.99984
 30
0.0
  0
SEQEND
  5
29C
  8
TEAM-DET3
  0
POLYLINE
  5
118
  8
TEAM-DET3
 66
     1
 10
0.0
 20
0.0
 30
0.0
  0
VERTEX
  5
29D
  8
TEAM-DET3
 10
-263.0
 20
147.99984
 30
0.0
  0
VERTEX
  5
29E
  8
TEAM-DET3
 10
-263.0
 20
126.626768
 30
0.0
  0
VERTEX
  5
29F
  8
TEAM-DET3
 10
-215.0
 20
126.626768
 30
0.0
  0
VERTEX
  5
2A0
  8
TEAM-DET3
 10
-215.0
 20
147.99984
 30
0.0
  0
SEQEND
  5
2A1
  8
TEAM-DET3
  0
LINE
  5
119
  8
TEAM-DET3
 10
-233.00061
 20
51.99984
 30
0.0
 11
-233.00061
 21
126.626768
 31
0.0
  0
LINE
  5
11A
  8
TEAM-DET3
 10
-245.00061
 20
126.626768
 30
0.0
 11
-245.00061
 21
51.99984
 31
0.0
  0
LINE
  5
11B
  8
TEAM-DET3
 10
-244.06007
 20
126.626768
 30
0.0
 11
-244.06007
 21
51.99984
 31
0.0
  0
LINE
  5
11C
  8
TEAM-DET3
 10
-233.93995
 20
51.99984
 30
0.0
 11
-233.93995
 21
126.626768
 31
0.0
  0
LINE
  5
11D
  8
TEAM-DET3
 10
-233.87341
 20
134.813429
 30
0.0
 11
-233.12389
 21
134.063909
 31
0.0
  0
LINE
  5
11E
  8
TEAM-DET3
 10
-234.12365
 20
135.063669
 30
0.0
 11
-233.87341
 21
134.813429
 31
0.0
  0
LINE
  5
11F
  8
TEAM-DET3
 10
-244.37439
 20
134.813429
 30
0.0
 11
-245.12389
 21
134.063909
 31
0.0
  0
LINE
  5
120
  8
TEAM-DET3
 10
-244.12415
 20
135.063669
 30
0.0
 11
-244.37439
 21
134.813429
 31
0.0
  0
LINE
  5
121
  8
TEAM-DET3
 10
-233.87341
 20
134.813429
 30
0.0
 11
-233.87341
 21
130.626768
 31
0.0
  0
LINE
  5
122
  8
TEAM-DET3
 10
-244.37439
 20
134.813429
 30
0.0
 11
-244.37317
 21
130.626768
 31
0.0
  0
LINE
  5
123
  8
TEAM-DET3
 10
-233.12389
 20
130.626768
 30
0.0
 11
-233.12389
 21
134.063909
 31
0.0
  0
LINE
  5
124
  8
TEAM-DET3
 10
-245.12389
 20
134.063909
 30
0.0
 11
-245.12389
 21
130.626768
 31
0.0
  0
LINE
  5
125
  8
TEAM-DET3
 10
-245.12389
 20
134.063909
 30
0.0
 11
-233.12389
 21
134.063909
 31
0.0
  0
LINE
  5
126
  8
TEAM-DET3
 10
-244.12415
 20
135.063669
 30
0.0
 11
-234.12365
 21
135.063669
 31
0.0
  0
LINE
  5
127
  8
TEAM-DET3
 10
-265.0
 20
124.99984
 30
0.0
 11
-263.0
 21
124.99984
 31
0.0
  0
LINE
  5
128
  8
TEAM-DET3
 10
-215.0
 20
124.99984
 30
0.0
 11
-213.0
 21
124.99984
 31
0.0
  0
LINE
  5
129
  8
TEAM-DET3
 10
-269.0
 20
145.313304
 30
0.0
 11
-265.0
 21
145.313304
 31
0.0
  0
LINE
  5
12A
  8
TEAM-DET3
 10
-269.0
 20
133.313304
 30
0.0
 11
-265.0
 21
133.313304
 31
0.0
  0
LINE
  5
12B
  8
TEAM-DET3
 10
-269.0
 20
145.313304
 30
0.0
 11
-269.0
 21
133.313304
 31
0.0
  0
LINE
  5
12C
  8
TEAM-DET3
 10
-256.0
 20
142.313304
 30
0.0
 11
-256.0
 21
136.313304
 31
0.0
  0
LINE
  5
12D
  8
TEAM-DET3
 10
-222.0
 20
142.313304
 30
0.0
 11
-222.0
 21
136.313304
 31
0.0
  0
LINE
  5
12E
  8
TEAM-DET3
 10
-222.0
 20
142.313304
 30
0.0
 11
-219.0
 21
142.313304
 31
0.0
  0
LINE
  5
12F
  8
TEAM-DET3
 10
-222.0
 20
136.313304
 30
0.0
 11
-219.0
 21
136.313304
 31
0.0
  0
LINE
  5
130
  8
TEAM-DET3
 10
-269.0
 20
142.313304
 30
0.0
 11
-265.0
 21
142.313304
 31
0.0
  0
LINE
  5
131
  8
TEAM-DET3
 10
-259.0
 20
142.313304
 30
0.0
 11
-256.0
 21
142.313304
 31
0.0
  0
LINE
  5
132
  8
TEAM-DET3
 10
-269.0
 20
136.313304
 30
0.0
 11
-265.0
 21
136.313304
 31
0.0
  0
LINE
  5
133
  8
TEAM-DET3
 10
-259.0
 20
136.313304
 30
0.0
 11
-256.0
 21
136.313304
 31
0.0
  0
LINE
  5
134
  8
TEAM-DET3
 10
-233.00061
 20
0.0
 30
0.0
 11
-233.00061
 21
9.99984
 31
0.0
  0
LINE
  5
135
  8
TEAM-DET3
 10
-245.00061
 20
9.99984
 30
0.0
 11
-245.00061
 21
0.0
 31
0.0
  0
LINE
  5
136
  8
TEAM-DET3
 10
-252.1239
 20
9.99984
 30
0.0
 11
-226.1239
 21
9.99984
 31
0.0
  0
LINE
  5
137
  8
TEAM-DET3
 10
-252.1239
 20
9.99984
 30
0.0
 11
-252.1239
 21
0.0
 31
0.0
  0
LINE
  5
138
  8
TEAM-DET3
 10
-226.1239
 20
9.99984
 30
0.0
 11
-226.1239
 21
0.0
 31
0.0
  0
LINE
  5
139
  8
TEAM-DET3
 10
-252.1239
 20
9.99984
 30
0.0
 11
-226.1239
 21
9.99984
 31
0.0
  0
LINE
  5
13A
  8
TEAM-DET3
 10
-252.1239
 20
0.0
 30
0.0
 11
-226.1239
 21
0.0
 31
0.0
  0
LINE
  5
13B
  8
TEAM-DET3
 10
-234.234039
 20
40.99984
 30
0.0
 11
-233.234039
 21
13.99984
 31
0.0
  0
LINE
  5
13C
  8
TEAM-DET3
 10
-243.767181
 20
40.99984
 30
0.0
 11
-244.767181
 21
13.99984
 31
0.0
  0
LINE
  5
13D
  8
TEAM-DET3
 10
-239.00061
 20
40.99984
 30
0.0
 11
-239.00061
 21
13.99984
 31
0.0
  0
LINE
  5
13E
  8
TEAM-DET3
 10
-234.142388
 20
51.99984
 30
0.0
 11
-234.142388
 21
47.99984
 31
0.0
  0
LINE
  5
13F
  8
TEAM-DET3
 10
-243.858832
 20
51.99984
 30
0.0
 11
-243.858832
 21
47.99984
 31
0.0
  0
LINE
  5
140
  8
TEAM-DET3
 10
-249.00061
 20
40.99984
 30
0.0
 11
-250.00061
 21
13.99984
 31
0.0
  0
LINE
  5
141
  8
TEAM-DET3
 10
-226.1239
 20
9.99984
 30
0.0
 11
-228.00061
 21
13.99984
 31
0.0
  0
LINE
  5
142
  8
TEAM-DET3
 10
-252.1239
 20
9.99984
 30
0.0
 11
-250.00061
 21
13.99984
 31
0.0
  0
LINE
  5
143
  8
TEAM-DET3
 10
-248.00061
 20
51.99984
 30
0.0
 11
-248.00061
 21
40.99984
 31
0.0
  0
LINE
  5
144
  8
TEAM-DET3
 10
-230.00061
 20
40.99984
 30
0.0
 11
-230.00061
 21
51.99984
 31
0.0
  0
LINE
  5
145
  8
TEAM-DET3
 10
-228.00061
 20
13.99984
 30
0.0
 11
-229.00061
 21
40.99984
 31
0.0
  0
LINE
  5
146
  8
TEAM-DET3
 10
-248.00061
 20
47.99984
 30
0.0
 11
-230.00061
 21
47.99984
 31
0.0
  0
LINE
  5
147
  8
TEAM-DET3
 10
-249.00061
 20
40.99984
 30
0.0
 11
-229.00061
 21
40.99984
 31
0.0
  0
LINE
  5
148
  8
TEAM-DET3
 10
-250.00061
 20
13.99984
 30
0.0
 11
-228.00061
 21
13.99984
 31
0.0
  0
LINE
  5
149
  8
TEAM-DET3
 10
-248.00061
 20
51.99984
 30
0.0
 11
-230.00061
 21
51.99984
 31
0.0
  0
LINE
  5
14A
  8
TEAM-DET3
 10
-209.0
 20
145.313304
 30
0.0
 11
-209.0
 21
133.313304
 31
0.0
  0
POLYLINE
  5
14B
  8
TEAM-DET3
 66
     1
 10
0.0
 20
0.0
 30
0.0
  0
VERTEX
  5
2A2
  8
TEAM-DET3
 10
263.0
 20
147.99984
 30
0.0
  0
VERTEX
  5
2A3
  8
TEAM-DET3
 10
263.0
 20
126.626768
 30
0.0
  0
VERTEX
  5
2A4
  8
TEAM-DET3
 10
215.0
 20
126.626768
 30
0.0
  0
VERTEX
  5
2A5
  8
TEAM-DET3
 10
215.0
 20
147.99984
 30
0.0
  0
SEQEND
  5
2A6
  8
TEAM-DET3
  0
POLYLINE
  5
14C
  8
TEAM-DET3
 66
     1
 10
0.0
 20
0.0
 30
0.0
  0
VERTEX
  5
2A7
  8
TEAM-DET3
 10
263.0
 20
124.99984
 30
0.0
  0
VERTEX
  5
2A8
  8
TEAM-DET3
 10
263.0
 20
147.99984
 30
0.0
  0
VERTEX
  5
2A9
  8
TEAM-DET3
 10
215.0
 20
147.99984
 30
0.0
  0
VERTEX
  5
2AA
  8
TEAM-DET3
 10
215.0
 20
124.99984
 30
0.0
  0
SEQEND
  5
2AB
  8
TEAM-DET3
  0
POLYLINE
  5
14D
  8
TEAM-DET3
 66
     1
 10
0.0
 20
0.0
 30
0.0
  0
VERTEX
  5
2AC
  8
TEAM-DET3
 10
265.0
 20
124.99984
 30
0.0
  0
VERTEX
  5
2AD
  8
TEAM-DET3
 10
265.0
 20
149.99984
 30
0.0
  0
VERTEX
  5
2AE
  8
TEAM-DET3
 10
213.0
 20
149.99984
 30
0.0
  0
VERTEX
  5
2AF
  8
TEAM-DET3
 10
213.0
 20
124.99984
 30
0.0
  0
SEQEND
  5
2B0
  8
TEAM-DET3
  0
POLYLINE
  5
14E
  8
TEAM-DET3
 66
     1
 10
0.0
 20
0.0
 30
0.0
  0
VERTEX
  5
2B1
  8
TEAM-DET3
 10
259.0
 20
147.99984
 30
0.0
  0
VERTEX
  5
2B2
  8
TEAM-DET3
 10
259.0
 20
130.626768
 30
0.0
  0
VERTEX
  5
2B3
  8
TEAM-DET3
 10
219.0
 20
130.626768
 30
0.0
  0
VERTEX
  5
2B4
  8
TEAM-DET3
 10
219.0
 20
147.99984
 30
0.0
  0
SEQEND
  5
2B5
  8
TEAM-DET3
  0
LINE
  5
14F
  8
TEAM-DET3
 10
233.93995
 20
51.99984
 30
0.0
 11
233.93995
 21
126.626768
 31
0.0
  0
LINE
  5
150
  8
TEAM-DET3
 10
244.06007
 20
126.626768
 30
0.0
 11
244.06007
 21
51.99984
 31
0.0
  0
LINE
  5
151
  8
TEAM-DET3
 10
245.00061
 20
126.626768
 30
0.0
 11
245.00061
 21
51.99984
 31
0.0
  0
LINE
  5
152
  8
TEAM-DET3
 10
233.00061
 20
51.99984
 30
0.0
 11
233.00061
 21
126.626768
 31
0.0
  0
LINE
  5
153
  8
TEAM-DET3
 10
259.0
 20
136.313304
 30
0.0
 11
256.0
 21
136.313304
 31
0.0
  0
LINE
  5
154
  8
TEAM-DET3
 10
269.0
 20
136.313304
 30
0.0
 11
265.0
 21
136.313304
 31
0.0
  0
LINE
  5
155
  8
TEAM-DET3
 10
259.0
 20
142.313304
 30
0.0
 11
256.0
 21
142.313304
 31
0.0
  0
LINE
  5
156
  8
TEAM-DET3
 10
269.0
 20
142.313304
 30
0.0
 11
265.0
 21
142.313304
 31
0.0
  0
LINE
  5
157
  8
TEAM-DET3
 10
213.0
 20
136.313304
 30
0.0
 11
209.0
 21
136.313304
 31
0.0
  0
LINE
  5
158
  8
TEAM-DET3
 10
222.0
 20
136.313304
 30
0.0
 11
219.0
 21
136.313304
 31
0.0
  0
LINE
  5
159
  8
TEAM-DET3
 10
213.0
 20
142.313304
 30
0.0
 11
209.0
 21
142.313304
 31
0.0
  0
LINE
  5
15A
  8
TEAM-DET3
 10
222.0
 20
142.313304
 30
0.0
 11
219.0
 21
142.313304
 31
0.0
  0
LINE
  5
15B
  8
TEAM-DET3
 10
209.0
 20
145.313304
 30
0.0
 11
209.0
 21
133.313304
 31
0.0
  0
LINE
  5
15C
  8
TEAM-DET3
 10
222.0
 20
142.313304
 30
0.0
 11
222.0
 21
136.313304
 31
0.0
  0
LINE
  5
15D
  8
TEAM-DET3
 10
256.0
 20
142.313304
 30
0.0
 11
256.0
 21
136.313304
 31
0.0
  0
LINE
  5
15E
  8
TEAM-DET3
 10
269.0
 20
145.313304
 30
0.0
 11
269.0
 21
133.313304
 31
0.0
  0
LINE
  5
15F
  8
TEAM-DET3
 10
213.0
 20
133.313304
 30
0.0
 11
209.0
 21
133.313304
 31
0.0
  0
LINE
  5
160
  8
TEAM-DET3
 10
213.0
 20
145.313304
 30
0.0
 11
209.0
 21
145.313304
 31
0.0
  0
LINE
  5
161
  8
TEAM-DET3
 10
269.0
 20
133.313304
 30
0.0
 11
265.0
 21
133.313304
 31
0.0
  0
LINE
  5
162
  8
TEAM-DET3
 10
269.0
 20
145.313304
 30
0.0
 11
265.0
 21
145.313304
 31
0.0
  0
LINE
  5
163
  8
TEAM-DET3
 10
215.0
 20
124.99984
 30
0.0
 11
213.0
 21
124.99984
 31
0.0
  0
LINE
  5
164
  8
TEAM-DET3
 10
265.0
 20
124.99984
 30
0.0
 11
263.0
 21
124.99984
 31
0.0
  0
LINE
  5
165
  8
TEAM-DET3
 10
244.12415
 20
135.063669
 30
0.0
 11
234.12365
 21
135.063669
 31
0.0
  0
LINE
  5
166
  8
TEAM-DET3
 10
245.12389
 20
134.063909
 30
0.0
 11
233.12389
 21
134.063909
 31
0.0
  0
LINE
  5
167
  8
TEAM-DET3
 10
245.12389
 20
134.063909
 30
0.0
 11
245.12389
 21
130.626768
 31
0.0
  0
LINE
  5
168
  8
TEAM-DET3
 10
233.12389
 20
130.626768
 30
0.0
 11
233.12389
 21
134.063909
 31
0.0
  0
LINE
  5
169
  8
TEAM-DET3
 10
244.37439
 20
134.813429
 30
0.0
 11
244.37317
 21
130.626768
 31
0.0
  0
LINE
  5
16A
  8
TEAM-DET3
 10
233.87341
 20
134.813429
 30
0.0
 11
233.87341
 21
130.626768
 31
0.0
  0
LINE
  5
16B
  8
TEAM-DET3
 10
244.12415
 20
135.063669
 30
0.0
 11
244.37439
 21
134.813429
 31
0.0
  0
LINE
  5
16C
  8
TEAM-DET3
 10
244.37439
 20
134.813429
 30
0.0
 11
245.12389
 21
134.063909
 31
0.0
  0
LINE
  5
16D
  8
TEAM-DET3
 10
234.12365
 20
135.063669
 30
0.0
 11
233.87341
 21
134.813429
 31
0.0
  0
LINE
  5
16E
  8
TEAM-DET3
 10
233.87341
 20
134.813429
 30
0.0
 11
233.12389
 21
134.063909
 31
0.0
  0
LINE
  5
16F
  8
TEAM-DET3
 10
252.1239
 20
0.0
 30
0.0
 11
226.1239
 21
0.0
 31
0.0
  0
LINE
  5
170
  8
TEAM-DET3
 10
252.1239
 20
9.99984
 30
0.0
 11
226.1239
 21
9.99984
 31
0.0
  0
LINE
  5
171
  8
TEAM-DET3
 10
226.1239
 20
9.99984
 30
0.0
 11
226.1239
 21
0.0
 31
0.0
  0
LINE
  5
172
  8
TEAM-DET3
 10
252.1239
 20
9.99984
 30
0.0
 11
252.1239
 21
0.0
 31
0.0
  0
LINE
  5
173
  8
TEAM-DET3
 10
252.1239
 20
9.99984
 30
0.0
 11
226.1239
 21
9.99984
 31
0.0
  0
LINE
  5
174
  8
TEAM-DET3
 10
245.00061
 20
9.99984
 30
0.0
 11
245.00061
 21
0.0
 31
0.0
  0
LINE
  5
175
  8
TEAM-DET3
 10
233.00061
 20
0.0
 30
0.0
 11
233.00061
 21
9.99984
 31
0.0
  0
LINE
  5
176
  8
TEAM-DET3
 10
248.00061
 20
51.99984
 30
0.0
 11
230.00061
 21
51.99984
 31
0.0
  0
LINE
  5
177
  8
TEAM-DET3
 10
250.00061
 20
13.99984
 30
0.0
 11
228.00061
 21
13.99984
 31
0.0
  0
LINE
  5
178
  8
TEAM-DET3
 10
249.00061
 20
40.99984
 30
0.0
 11
229.00061
 21
40.99984
 31
0.0
  0
LINE
  5
179
  8
TEAM-DET3
 10
248.00061
 20
47.99984
 30
0.0
 11
230.00061
 21
47.99984
 31
0.0
  0
LINE
  5
17A
  8
TEAM-DET3
 10
228.00061
 20
13.99984
 30
0.0
 11
229.00061
 21
40.99984
 31
0.0
  0
LINE
  5
17B
  8
TEAM-DET3
 10
230.00061
 20
40.99984
 30
0.0
 11
230.00061
 21
51.99984
 31
0.0
  0
LINE
  5
17C
  8
TEAM-DET3
 10
248.00061
 20
51.99984
 30
0.0
 11
248.00061
 21
40.99984
 31
0.0
  0
LINE
  5
17D
  8
TEAM-DET3
 10
252.1239
 20
9.99984
 30
0.0
 11
250.00061
 21
13.99984
 31
0.0
  0
LINE
  5
17E
  8
TEAM-DET3
 10
226.1239
 20
9.99984
 30
0.0
 11
228.00061
 21
13.99984
 31
0.0
  0
LINE
  5
17F
  8
TEAM-DET3
 10
249.00061
 20
40.99984
 30
0.0
 11
250.00061
 21
13.99984
 31
0.0
  0
LINE
  5
180
  8
TEAM-DET3
 10
243.858832
 20
51.99984
 30
0.0
 11
243.858832
 21
47.99984
 31
0.0
  0
LINE
  5
181
  8
TEAM-DET3
 10
234.142388
 20
51.99984
 30
0.0
 11
234.142388
 21
47.99984
 31
0.0
  0
LINE
  5
182
  8
TEAM-DET3
 10
239.00061
 20
40.99984
 30
0.0
 11
239.00061
 21
13.99984
 31
0.0
  0
LINE
  5
183
  8
TEAM-DET3
 10
243.767181
 20
40.99984
 30
0.0
 11
244.767181
 21
13.99984
 31
0.0
  0
LINE
  5
184
  8
TEAM-DET3
 10
234.234039
 20
40.99984
 30
0.0
 11
233.234039
 21
13.99984
 31
0.0
  0
ARC
  5
185
  8
TEAM-BODY
 10
939.241291
 20
632.09586
 30
0.0
 40
17.903966
 50
89.99987
 51
149.785706
  0
LINE
  5
186
  8
TEAM-BODY
 10
950.0
 20
600.0
 30
0.0
 11
949.298751
 21
640.174524
 31
0.0
  0
ARC
  5
187
  8
TEAM-BODY
 10
939.300274
 20
640.0
 30
0.0
 40
10.0
 50
1.0
 51
90.337713
  0
LINE
  5
188
  8
TEAM-BODY
 10
899.844221
 20
600.0
 30
0.0
 11
950.0
 21
600.0
 31
0.0
  0
ENDSEC
  0
EOF
