  0
SECTION
  2
HEADER
  9
$ACADVER
  1
AC1009
  9
$INSBASE
 10
0.0
 20
0.0
 30
0.0
  9
$EXTMIN
 10
-910.104642
 20
-462.652957
 30
-0.001526
  9
$EXTMAX
 10
906.994002
 20
430.368073
 30
0.0
  9
$LIMMIN
 10
-910.104642
 20
-462.652957
  9
$LIMMAX
 10
906.994002
 20
430.368073
  9
$ORTHOMODE
 70
     1
  9
$REGENMODE
 70
     1
  9
$FILLMODE
 70
     1
  9
$QTEXTMODE
 70
     0
  9
$MIRRTEXT
 70
     0
  9
$DRAGMODE
 70
     2
  9
$LTSCALE
 40
50.0
  9
$OSMODE
 70
     7
  9
$ATTMODE
 70
     1
  9
$TEXTSIZE
 40
200.0
  9
$TRACEWID
 40
1.0
  9
$TEXTSTYLE
  7
STANDARD
  9
$CLAYER
  8
TEAM-MAS
  9
$CELTYPE
  6
BYLAYER
  9
$CECOLOR
 62
   256
  9
$DIMSCALE
 40
0.0
  9
$DIMASZ
 40
20.0
  9
$DIMEXO
 40
10.0
  9
$DIMDLI
 40
1.0
  9
$DIMRND
 40
0.0
  9
$DIMDLE
 40
0.0
  9
$DIMEXE
 40
1.0
  9
$DIMTP
 40
0.0
  9
$DIMTM
 40
0.0
  9
$DIMTXT
 40
35.0
  9
$DIMCEN
 40
1.0
  9
$DIMTSZ
 40
0.0
  9
$DIMTOL
 70
     0
  9
$DIMLIM
 70
     0
  9
$DIMTIH
 70
     0
  9
$DIMTOH
 70
     0
  9
$DIMSE1
 70
     0
  9
$DIMSE2
 70
     0
  9
$DIMTAD
 70
     0
  9
$DIMZIN
 70
     0
  9
$DIMBLK
  1

  9
$DIMASO
 70
     1
  9
$DIMSHO
 70
     0
  9
$DIMPOST
  1

  9
$DIMAPOST
  1

  9
$DIMALT
 70
     0
  9
$DIMALTD
 70
     2
  9
$DIMALTF
 40
25.4
  9
$DIMLFAC
 40
1.0
  9
$DIMTOFL
 70
     0
  9
$DIMTVP
 40
0.0
  9
$DIMTIX
 70
     0
  9
$DIMSOXD
 70
     0
  9
$DIMSAH
 70
     0
  9
$DIMBLK1
  1

  9
$DIMBLK2
  1

  9
$DIMSTYLE
  2
TEAM
  9
$DIMCLRD
 70
     9
  9
$DIMCLRE
 70
     9
  9
$DIMCLRT
 70
    11
  9
$DIMTFAC
 40
1.0
  9
$DIMGAP
 40
7.0
  9
$LUNITS
 70
     2
  9
$LUPREC
 70
     1
  9
$SKETCHINC
 40
1.0
  9
$FILLETRAD
 40
9.5
  9
$AUNITS
 70
     0
  9
$AUPREC
 70
     0
  9
$MENU
  1
ROPLANS
  9
$ELEVATION
 40
0.0
  9
$PELEVATION
 40
0.0
  9
$THICKNESS
 40
0.0
  9
$LIMCHECK
 70
     0
  9
$BLIPMODE
 70
     1
  9
$CHAMFERA
 40
0.0
  9
$CHAMFERB
 40
0.0
  9
$SKPOLY
 70
     0
  9
$TDCREATE
 40
2450392.957851
  9
$TDUPDATE
 40
2455944.717343
  9
$TDINDWG
 40
3.569992
  9
$TDUSRTIMER
 40
3.569992
  9
$USRTIMER
 70
     1
  9
$ANGBASE
 50
0.0
  9
$ANGDIR
 70
     0
  9
$PDMODE
 70
     0
  9
$PDSIZE
 40
0.0
  9
$PLINEWID
 40
0.0
  9
$COORDS
 70
     2
  9
$SPLFRAME
 70
     0
  9
$SPLINETYPE
 70
     6
  9
$SPLINESEGS
 70
     8
  9
$ATTDIA
 70
     0
  9
$ATTREQ
 70
     0
  9
$HANDLING
 70
     1
  9
$HANDSEED
  5
132
  9
$SURFTAB1
 70
    24
  9
$SURFTAB2
 70
    24
  9
$SURFTYPE
 70
     6
  9
$SURFU
 70
     6
  9
$SURFV
 70
     6
  9
$UCSNAME
  2

  9
$UCSORG
 10
0.0
 20
0.0
 30
0.0
  9
$UCSXDIR
 10
1.0
 20
0.0
 30
0.0
  9
$UCSYDIR
 10
0.0
 20
1.0
 30
0.0
  9
$PUCSNAME
  2

  9
$PUCSORG
 10
0.0
 20
0.0
 30
0.0
  9
$PUCSXDIR
 10
1.0
 20
0.0
 30
0.0
  9
$PUCSYDIR
 10
0.0
 20
1.0
 30
0.0
  9
$USERI1
 70
     0
  9
$USERI2
 70
     0
  9
$USERI3
 70
     0
  9
$USERI4
 70
     0
  9
$USERI5
 70
     0
  9
$USERR1
 40
0.0
  9
$USERR2
 40
0.0
  9
$USERR3
 40
0.0
  9
$USERR4
 40
0.0
  9
$USERR5
 40
0.0
  9
$WORLDVIEW
 70
     1
  9
$SHADEDGE
 70
     0
  9
$SHADEDIF
 70
    70
  9
$TILEMODE
 70
     1
  9
$MAXACTVP
 70
    16
  9
$PLIMCHECK
 70
     0
  9
$PEXTMIN
 10
-0.805942
 20
0.005011
 30
0.0
  9
$PEXTMAX
 10
20.250094
 20
11.356329
 30
0.0
  9
$PLIMMIN
 10
0.0
 20
0.0
  9
$PLIMMAX
 10
12.0
 20
9.0
  9
$UNITMODE
 70
     0
  9
$VISRETAIN
 70
     0
  9
$PLINEGEN
 70
     0
  9
$PSLTSCALE
 70
     0
  0
ENDSEC
  0
SECTION
  2
TABLES
  0
TABLE
  2
VPORT
 70
     2
  0
VPORT
  2
*ACTIVE
 70
     0
 10
0.0
 20
0.0
 11
1.0
 21
1.0
 12
-1.55532
 22
-16.142442
 13
0.0
 23
0.0
 14
1.0
 24
1.0
 15
50.0
 25
50.0
 16
0.0
 26
0.0
 36
1.0
 17
0.0
 27
0.0
 37
0.0
 40
957.619328
 41
1.903766
 42
50.0
 43
0.0
 44
0.0
 50
0.0
 51
0.0
 71
     0
 72
   100
 73
     1
 74
     1
 75
     0
 76
     0
 77
     0
 78
     0
  0
ENDTAB
  0
TABLE
  2
LTYPE
 70
     2
  0
LTYPE
  2
CONTINUOUS
 70
     0
  3
Solid Line
 72
    65
 73
     0
 40
0.0
  0
LTYPE
  2
31
 70
     0
  3

 72
    65
 73
     4
 40
2.1
 49
1.5
 49
-0.3
 49
0.0
 49
-0.3
  0
ENDTAB
  0
TABLE
  2
LAYER
 70
     9
  0
LAYER
  2
0
 70
     0
 62
     7
  6
CONTINUOUS
  0
LAYER
  2
DEFPOINTS
 70
     0
 62
     7
  6
CONTINUOUS
  0
LAYER
  2
TEAM-BODY
 70
     0
 62
     2
  6
CONTINUOUS
  0
LAYER
  2
TEAM-AXE
 70
     0
 62
    10
  6
31
  0
LAYER
  2
TEAM-MAS
 70
     0
 62
     9
  6
CONTINUOUS
  0
LAYER
  2
TEAM-TXT
 70
     0
 62
    11
  6
CONTINUOUS
  0
LAYER
  2
TEAM-DET1
 70
     0
 62
     4
  6
CONTINUOUS
  0
LAYER
  2
TEAM-KAN
 70
     0
 62
     6
  6
CONTINUOUS
  0
LAYER
  2
TEAM-INSP
 70
     0
 62
     5
  6
CONTINUOUS
  0
ENDTAB
  0
TABLE
  2
STYLE
 70
     2
  0
STYLE
  2
STANDARD
 70
     0
 40
0.0
 41
1.0
 50
0.0
 71
     0
 42
200.0
  3
txt
  4

  0
STYLE
  2
TEAM
 70
     0
 40
0.0
 41
0.8
 50
15.0
 71
     0
 42
7.0
  3
ROMANS.shx
  4

  0
ENDTAB
  0
TABLE
  2
VIEW
 70
     0
  0
ENDTAB
  0
TABLE
  2
UCS
 70
     0
  0
ENDTAB
  0
TABLE
  2
APPID
 70
     1
  0
APPID
  2
ACAD
 70
     0
  0
ENDTAB
  0
TABLE
  2
DIMSTYLE
 70
     1
  0
DIMSTYLE
  2
TEAM
 70
     0
  3

  4

  5

  6

  7

 40
0.0
 41
20.0
 42
10.0
 43
1.0
 44
1.0
 45
0.0
 46
0.0
 47
0.0
 48
0.0
140
35.0
141
1.0
142
0.0
143
25.4
144
1.0
145
0.0
146
1.0
147
7.0
 71
     0
 72
     0
 73
     0
 74
     0
 75
     0
 76
     0
 77
     0
 78
     0
170
     0
171
     2
172
     0
173
     0
174
     0
175
     0
176
     9
177
     9
178
    11
  0
ENDTAB
  0
ENDSEC
  0
SECTION
  2
BLOCKS
  0
BLOCK
  8
0
  2
$MODEL_SPACE
 70
     0
 10
0.0
 20
0.0
 30
0.0
  3
$MODEL_SPACE
  1

  0
ENDBLK
  5
102
  8
0
  0
BLOCK
 67
     1
  8
0
  2
$PAPER_SPACE
 70
     0
 10
0.0
 20
0.0
 30
0.0
  3
$PAPER_SPACE
  1

  0
ENDBLK
  5
100
 67
     1
  8
0
  0
BLOCK
  8
0
  2
*D0
 70
     1
 10
0.0
 20
0.0
 30
0.0
  3
*D0
  1

  0
LINE
  5
33
  8
0
  6
BYBLOCK
 62
     9
 10
4850.0
 20
7615.0
 30
0.0
 11
4850.0
 21
7589.588907
 31
0.0
  0
LINE
  5
34
  8
0
  6
BYBLOCK
 62
     9
 10
4552.0
 20
7938.0
 30
0.0
 11
4552.0
 21
7589.588907
 31
0.0
  0
LINE
  5
35
  8
0
  6
BYBLOCK
 62
     9
 10
4830.0
 20
7590.588907
 30
0.0
 11
4754.666667
 21
7590.588907
 31
0.0
  0
LINE
  5
36
  8
0
  6
BYBLOCK
 62
     9
 10
4572.0
 20
7590.588907
 30
0.0
 11
4647.333333
 21
7590.588907
 31
0.0
  0
SOLID
  5
37
  8
0
  6
BYBLOCK
 62
     9
 10
4830.0
 20
7593.92224
 30
0.0
 11
4830.0
 21
7587.255574
 31
0.0
 12
4850.0
 22
7590.588907
 32
0.0
 13
4850.0
 23
7590.588907
 33
0.0
  0
SOLID
  5
38
  8
0
  6
BYBLOCK
 62
     9
 10
4572.0
 20
7593.92224
 30
0.0
 11
4572.0
 21
7587.255574
 31
0.0
 12
4552.0
 22
7590.588907
 32
0.0
 13
4552.0
 23
7590.588907
 33
0.0
  0
TEXT
  5
39
  8
0
  6
BYBLOCK
 62
    11
 10
4654.333333
 20
7573.088907
 30
0.0
 40
35.0
  1
298
  0
POINT
  5
3A
  8
DEFPOINTS
  6
BYBLOCK
 62
     0
 10
4850.0
 20
7625.0
 30
0.0
  0
POINT
  5
3B
  8
DEFPOINTS
  6
BYBLOCK
 62
     0
 10
4552.0
 20
7948.0
 30
0.0
  0
POINT
  5
3C
  8
DEFPOINTS
  6
BYBLOCK
 62
     0
 10
4552.0
 20
7590.588907
 30
0.0
  0
ENDBLK
  5
3E
  8
0
  0
BLOCK
  8
0
  2
*D1
 70
     1
 10
0.0
 20
0.0
 30
0.0
  3
*D1
  1

  0
LINE
  5
22
  8
0
  6
BYBLOCK
 62
     9
 10
4850.0
 20
7615.0
 30
0.0
 11
4850.0
 21
7553.872604
 31
0.0
  0
LINE
  5
23
  8
0
  6
BYBLOCK
 62
     9
 10
3150.0
 20
7615.0
 30
0.0
 11
3150.0
 21
7553.872604
 31
0.0
  0
LINE
  5
24
  8
0
  6
BYBLOCK
 62
     9
 10
4830.0
 20
7554.872604
 30
0.0
 11
4059.5
 21
7554.872604
 31
0.0
  0
LINE
  5
25
  8
0
  6
BYBLOCK
 62
     9
 10
3170.0
 20
7554.872604
 30
0.0
 11
3940.5
 21
7554.872604
 31
0.0
  0
SOLID
  5
26
  8
0
  6
BYBLOCK
 62
     9
 10
4830.0
 20
7558.205937
 30
0.0
 11
4830.0
 21
7551.53927
 31
0.0
 12
4850.0
 22
7554.872604
 32
0.0
 13
4850.0
 23
7554.872604
 33
0.0
  0
SOLID
  5
27
  8
0
  6
BYBLOCK
 62
     9
 10
3170.0
 20
7558.205937
 30
0.0
 11
3170.0
 21
7551.53927
 31
0.0
 12
3150.0
 22
7554.872604
 32
0.0
 13
3150.0
 23
7554.872604
 33
0.0
  0
TEXT
  5
28
  8
0
  6
BYBLOCK
 62
    11
 10
3947.5
 20
7537.372604
 30
0.0
 40
35.0
  1
1700
  0
POINT
  5
29
  8
DEFPOINTS
  6
BYBLOCK
 62
     0
 10
4850.0
 20
7625.0
 30
0.0
  0
POINT
  5
2B
  8
DEFPOINTS
  6
BYBLOCK
 62
     0
 10
3150.0
 20
7625.0
 30
0.0
  0
POINT
  5
2C
  8
DEFPOINTS
  6
BYBLOCK
 62
     0
 10
3150.0
 20
7554.872604
 30
0.0
  0
ENDBLK
  5
2E
  8
0
  0
BLOCK
  8
0
  2
*D2
 70
     1
 10
0.0
 20
0.0
 30
0.0
  3
*D2
  1

  0
LINE
  5
50
  8
0
  6
BYBLOCK
 62
     9
 10
3140.0
 20
7625.0
 30
0.0
 11
3107.559095
 21
7625.0
 31
0.0
  0
LINE
  5
51
  8
0
  6
BYBLOCK
 62
     9
 10
3140.0
 20
8375.0
 30
0.0
 11
3107.559095
 21
8375.0
 31
0.0
  0
LINE
  5
52
  8
0
  6
BYBLOCK
 62
     9
 10
3108.559095
 20
7645.0
 30
0.0
 11
3108.559095
 21
7949.25
 31
0.0
  0
LINE
  5
53
  8
0
  6
BYBLOCK
 62
     9
 10
3108.559095
 20
8355.0
 30
0.0
 11
3108.559095
 21
8050.75
 31
0.0
  0
SOLID
  5
54
  8
0
  6
BYBLOCK
 62
     9
 10
3105.225761
 20
7645.0
 30
0.0
 11
3111.892428
 21
7645.0
 31
0.0
 12
3108.559095
 22
7625.0
 32
0.0
 13
3108.559095
 23
7625.0
 33
0.0
  0
SOLID
  5
55
  8
0
  6
BYBLOCK
 62
     9
 10
3105.225761
 20
8355.0
 30
0.0
 11
3111.892428
 21
8355.0
 31
0.0
 12
3108.559095
 22
8375.0
 32
0.0
 13
3108.559095
 23
8375.0
 33
0.0
  0
TEXT
  5
56
  8
0
  6
BYBLOCK
 62
    11
 10
3126.059095
 20
7956.25
 30
0.0
 40
35.0
  1
750
 50
90.0
  0
POINT
  5
57
  8
DEFPOINTS
  6
BYBLOCK
 62
     0
 10
3150.0
 20
7625.0
 30
0.0
  0
POINT
  5
58
  8
DEFPOINTS
  6
BYBLOCK
 62
     0
 10
3150.0
 20
8375.0
 30
0.0
  0
POINT
  5
59
  8
DEFPOINTS
  6
BYBLOCK
 62
     0
 10
3108.559095
 20
8375.0
 30
0.0
  0
ENDBLK
  5
5B
  8
0
  0
BLOCK
  8
0
  2
*D3
 70
     1
 10
0.0
 20
0.0
 30
0.0
  3
*D3
  1

  0
LINE
  5
6D
  8
0
  6
BYBLOCK
 62
     9
 10
4860.0
 20
7625.0
 30
0.0
 11
4890.438582
 21
7625.0
 31
0.0
  0
LINE
  5
6E
  8
0
  6
BYBLOCK
 62
     9
 10
4562.0
 20
8000.0
 30
0.0
 11
4890.438582
 21
8000.0
 31
0.0
  0
LINE
  5
6F
  8
0
  6
BYBLOCK
 62
     9
 10
4889.438582
 20
7645.0
 30
0.0
 11
4889.438582
 21
7758.833333
 31
0.0
  0
LINE
  5
70
  8
0
  6
BYBLOCK
 62
     9
 10
4889.438582
 20
7980.0
 30
0.0
 11
4889.438582
 21
7866.166667
 31
0.0
  0
SOLID
  5
71
  8
0
  6
BYBLOCK
 62
     9
 10
4886.105249
 20
7645.0
 30
0.0
 11
4892.771915
 21
7645.0
 31
0.0
 12
4889.438582
 22
7625.0
 32
0.0
 13
4889.438582
 23
7625.0
 33
0.0
  0
SOLID
  5
72
  8
0
  6
BYBLOCK
 62
     9
 10
4886.105249
 20
7980.0
 30
0.0
 11
4892.771915
 21
7980.0
 31
0.0
 12
4889.438582
 22
8000.0
 32
0.0
 13
4889.438582
 23
8000.0
 33
0.0
  0
TEXT
  5
73
  8
0
  6
BYBLOCK
 62
    11
 10
4906.938582
 20
7765.833333
 30
0.0
 40
35.0
  1
375
 50
90.0
  0
POINT
  5
74
  8
DEFPOINTS
  6
BYBLOCK
 62
     0
 10
4850.0
 20
7625.0
 30
0.0
  0
POINT
  5
75
  8
DEFPOINTS
  6
BYBLOCK
 62
     0
 10
4552.0
 20
8000.0
 30
0.0
  0
POINT
  5
76
  8
DEFPOINTS
  6
BYBLOCK
 62
     0
 10
4889.438582
 20
8000.0
 30
0.0
  0
ENDBLK
  5
78
  8
0
  0
ENDSEC
  0
SECTION
  2
ENTITIES
  0
DIMENSION
  5
20
  8
TEAM-MAS
  2
*D1
 10
-850.0
 20
-445.127396
 30
0.0
 11
0.0
 21
-445.127396
 31
0.0
 12
-4000.0
 22
-8000.0
 32
0.0
 13
850.0
 23
-375.0
 33
0.0
 14
-850.0
 24
-375.0
 34
0.0
1001
ACAD
1000
DSTYLE
1002
{
1070
    40
1040
1.0
1002
}
  0
ARC
  5
2F
  8
TEAM-DET1
 10
-484.71623
 20
-6.006296
 30
0.0
 40
350.0
 50
178.818576
 51
270.36492
  0
DIMENSION
  5
31
  8
TEAM-MAS
  2
*D0
 10
552.0
 20
-409.411093
 30
0.0
 11
701.0
 21
-409.411093
 31
0.0
 12
-4000.0
 22
-8000.0
 32
0.0
 13
850.0
 23
-375.0
 33
0.0
 14
552.0
 24
-52.0
 34
0.0
1001
ACAD
1000
DSTYLE
1002
{
1070
    40
1040
1.0
1002
}
  0
LINE
  5
3F
  8
TEAM-BODY
 10
-850.0
 20
-375.0
 30
0.0
 11
850.0
 21
-375.0
 31
0.0
  0
LINE
  5
41
  8
TEAM-BODY
 10
-850.0
 20
375.0
 30
0.0
 11
850.0
 21
375.0
 31
0.0
  0
LINE
  5
42
  8
TEAM-AXE
 10
-853.519192
 20
0.0
 30
0.0
 11
843.771648
 21
0.0
 31
0.0
  0
LINE
  5
45
  8
TEAM-DET1
 10
-482.487076
 20
-355.999197
 30
0.0
 11
358.726785
 21
-355.999197
 31
0.0
  0
LINE
  5
46
  8
TEAM-DET1
 10
-482.487076
 20
355.999197
 30
0.0
 11
358.726785
 21
355.999197
 31
0.0
  0
LINE
  5
47
  8
TEAM-DET1
 10
-349.165159
 20
297.309674
 30
0.0
 11
0.0
 21
300.0
 31
0.0
  0
LINE
  5
48
  8
TEAM-BODY
 10
-377.503092
 20
218.556881
 30
0.0
 11
0.0
 21
218.556881
 31
0.0
  0
LINE
  5
49
  8
TEAM-BODY
 10
-377.503092
 20
-218.556881
 30
0.0
 11
503.013156
 21
-218.556881
 31
0.0
  0
LINE
  5
4A
  8
TEAM-DET1
 10
-349.165159
 20
-297.309674
 30
0.0
 11
375.510064
 21
-300.0
 31
0.0
  0
ARC
  5
4B
  8
TEAM-DET1
 10
-351.020511
 20
6.006296
 30
0.0
 40
291.309286
 50
89.63508
 51
181.181424
  0
ARC
  5
4C
  8
TEAM-BODY
 10
-377.503092
 20
0.0
 30
0.0
 40
218.556881
 50
90.0
 51
270.0
  0
ARC
  5
4D
  8
TEAM-DET1
 10
-351.020511
 20
-6.006296
 30
0.0
 40
291.309286
 50
178.818576
 51
270.36492
  0
DIMENSION
  5
4E
  8
TEAM-MAS
  2
*D2
 10
-891.440905
 20
375.0
 30
0.0
 11
-891.440905
 21
0.0
 31
0.0
 12
-4000.0
 22
-8000.0
 32
0.0
 13
-850.0
 23
-375.0
 33
0.0
 14
-850.0
 24
375.0
 34
0.0
 50
90.0
1001
ACAD
1000
DSTYLE
1002
{
1070
    40
1040
1.0
1002
}
  0
LINE
  5
5C
  8
TEAM-BODY
 10
-850.0
 20
-375.0
 30
0.0
 11
-850.0
 21
375.0
 31
0.0
  0
ARC
  5
5D
  8
TEAM-DET1
 10
-484.71623
 20
6.006296
 30
0.0
 40
350.0
 50
89.63508
 51
181.181424
  0
TEXT
  5
5E
  8
TEAM-TXT
 10
-406.970937
 20
143.835019
 30
0.0
 40
30.0
  1
team 121065
 41
0.8
 51
15.0
  7
TEAM
  0
ARC
  5
61
  8
TEAM-DET1
 10
476.530575
 20
-6.006296
 30
0.0
 40
291.309286
 50
269.63508
 51
1.181424
  0
ARC
  5
62
  8
TEAM-DET1
 10
476.530575
 20
6.006296
 30
0.0
 40
291.309286
 50
358.818576
 51
90.36492
  0
POLYLINE
  5
63
  8
TEAM-KAN
 66
     1
 10
0.0
 20
0.0
 30
0.0
 70
     1
  0
VERTEX
  5
108
  8
TEAM-KAN
 10
757.716288
 20
-30.000299
 30
0.0
  0
VERTEX
  5
109
  8
TEAM-KAN
 10
758.494664
 20
-29.630946
 30
0.0
  0
VERTEX
  5
10A
  8
TEAM-KAN
 10
759.253874
 20
-28.53198
 30
0.0
  0
VERTEX
  5
10B
  8
TEAM-KAN
 10
759.975223
 20
-26.730462
 30
0.0
  0
VERTEX
  5
10C
  8
TEAM-KAN
 10
760.64095
 20
-24.270752
 30
0.0
  0
VERTEX
  5
10D
  8
TEAM-KAN
 10
761.234663
 20
-21.213415
 30
0.0
  0
VERTEX
  5
10E
  8
TEAM-KAN
 10
761.741741
 20
-17.633733
 30
0.0
  0
VERTEX
  5
10F
  8
TEAM-KAN
 10
762.149699
 20
-13.619851
 30
0.0
  0
VERTEX
  5
110
  8
TEAM-KAN
 10
762.448491
 20
-9.270602
 30
0.0
  0
VERTEX
  5
111
  8
TEAM-KAN
 10
762.630762
 20
-4.693081
 30
0.0
  0
VERTEX
  5
112
  8
TEAM-KAN
 10
762.692021
 20
0.0
 30
0.0
  0
VERTEX
  5
113
  8
TEAM-KAN
 10
762.630762
 20
4.69308
 30
0.0
  0
VERTEX
  5
114
  8
TEAM-KAN
 10
762.448491
 20
9.270602
 30
0.0
  0
VERTEX
  5
115
  8
TEAM-KAN
 10
762.149699
 20
13.61985
 30
0.0
  0
VERTEX
  5
116
  8
TEAM-KAN
 10
761.741741
 20
17.633733
 30
0.0
  0
VERTEX
  5
117
  8
TEAM-KAN
 10
761.234663
 20
21.213415
 30
0.0
  0
VERTEX
  5
118
  8
TEAM-KAN
 10
760.64095
 20
24.270751
 30
0.0
  0
VERTEX
  5
119
  8
TEAM-KAN
 10
759.975223
 20
26.730462
 30
0.0
  0
VERTEX
  5
11A
  8
TEAM-KAN
 10
759.253874
 20
28.531979
 30
0.0
  0
VERTEX
  5
11B
  8
TEAM-KAN
 10
758.494664
 20
29.630945
 30
0.0
  0
VERTEX
  5
11C
  8
TEAM-KAN
 10
757.716288
 20
30.000299
 30
0.0
  0
VERTEX
  5
11D
  8
TEAM-KAN
 10
756.937911
 20
29.630945
 30
0.0
  0
VERTEX
  5
11E
  8
TEAM-KAN
 10
756.178701
 20
28.531979
 30
0.0
  0
VERTEX
  5
11F
  8
TEAM-KAN
 10
755.457352
 20
26.730462
 30
0.0
  0
VERTEX
  5
120
  8
TEAM-KAN
 10
754.791625
 20
24.270751
 30
0.0
  0
VERTEX
  5
121
  8
TEAM-KAN
 10
754.197913
 20
21.213415
 30
0.0
  0
VERTEX
  5
122
  8
TEAM-KAN
 10
753.690835
 20
17.633733
 30
0.0
  0
VERTEX
  5
123
  8
TEAM-KAN
 10
753.282877
 20
13.61985
 30
0.0
  0
VERTEX
  5
124
  8
TEAM-KAN
 10
752.984084
 20
9.270602
 30
0.0
  0
VERTEX
  5
125
  8
TEAM-KAN
 10
752.801814
 20
4.69308
 30
0.0
  0
VERTEX
  5
126
  8
TEAM-KAN
 10
752.740554
 20
0.0
 30
0.0
  0
VERTEX
  5
127
  8
TEAM-KAN
 10
752.801814
 20
-4.693081
 30
0.0
  0
VERTEX
  5
128
  8
TEAM-KAN
 10
752.984084
 20
-9.270602
 30
0.0
  0
VERTEX
  5
129
  8
TEAM-KAN
 10
753.282877
 20
-13.619851
 30
0.0
  0
VERTEX
  5
12A
  8
TEAM-KAN
 10
753.690835
 20
-17.633733
 30
0.0
  0
VERTEX
  5
12B
  8
TEAM-KAN
 10
754.197913
 20
-21.213415
 30
0.0
  0
VERTEX
  5
12C
  8
TEAM-KAN
 10
754.791625
 20
-24.270752
 30
0.0
  0
VERTEX
  5
12D
  8
TEAM-KAN
 10
755.457352
 20
-26.730462
 30
0.0
  0
VERTEX
  5
12E
  8
TEAM-KAN
 10
756.178701
 20
-28.53198
 30
0.0
  0
VERTEX
  5
12F
  8
TEAM-KAN
 10
756.937911
 20
-29.630946
 30
0.0
  0
SEQEND
  5
130
  8
TEAM-KAN
  0
LINE
  5
65
  8
TEAM-AXE
 10
552.0
 20
52.0
 30
0.0
 11
552.0
 21
-52.0
 31
0.0
  0
CIRCLE
  5
66
  8
TEAM-DET1
 10
552.0
 20
0.0
 30
0.0
 40
52.0
  0
CIRCLE
  5
67
  8
TEAM-KAN
 10
552.0
 20
0.0
 30
0.0
 40
26.0
  0
ARC
  5
68
  8
TEAM-DET1
 10
340.752569
 20
3026.56614
 30
0.0
 40
3326.572665
 50
270.598662
 51
272.307263
  0
ARC
  5
69
  8
TEAM-BODY
 10
503.013156
 20
0.0
 30
0.0
 40
218.556881
 50
270.0
 51
90.0
  0
LINE
  5
6A
  8
TEAM-BODY
 10
850.0
 20
-375.0
 30
0.0
 11
850.0
 21
375.0
 31
0.0
  0
DIMENSION
  5
6B
  8
TEAM-MAS
  2
*D3
 10
889.438582
 20
0.0
 30
0.0
 11
889.438582
 21
-187.5
 31
0.0
 12
-4000.0
 22
-8000.0
 32
0.0
 13
850.0
 23
-375.0
 33
0.0
 14
552.0
 24
0.0
 34
0.0
 50
90.0
1001
ACAD
1000
DSTYLE
1002
{
1070
    40
1040
1.0
1002
}
  0
CIRCLE
  5
79
  8
TEAM-INSP
 10
0.0
 20
0.0
 30
0.0
 40
10.0
  0
LINE
  5
7B
  8
TEAM-DET1
 10
474.675222
 20
297.309674
 30
0.0
 11
0.0
 21
300.0
 31
0.0
  0
LINE
  5
7C
  8
TEAM-BODY
 10
503.013156
 20
218.556881
 30
0.0
 11
0.0
 21
218.556881
 31
0.0
  0
ENDSEC
  0
EOF
