  0
SECTION
  2
HEADER
  9
$ACADVER
  1
AC1009
  9
$INSBASE
 10
0.0
 20
0.0
 30
0.0
  9
$EXTMIN
 10
-376.256014
 20
-10.020124
 30
-0.001526
  9
$EXTMAX
 10
473.622354
 20
649.504201
 30
0.0
  9
$LIMMIN
 10
-376.256014
 20
-10.020124
  9
$LIMMAX
 10
473.622354
 20
649.504201
  9
$ORTHOMODE
 70
     1
  9
$REGENMODE
 70
     1
  9
$FILLMODE
 70
     1
  9
$QTEXTMODE
 70
     0
  9
$MIRRTEXT
 70
     0
  9
$DRAGMODE
 70
     2
  9
$LTSCALE
 40
50.0
  9
$OSMODE
 70
     7
  9
$ATTMODE
 70
     1
  9
$TEXTSIZE
 40
200.0
  9
$TRACEWID
 40
1.0
  9
$TEXTSTYLE
  7
STANDARD
  9
$CLAYER
  8
TEAM-MAS
  9
$CELTYPE
  6
BYLAYER
  9
$CECOLOR
 62
   256
  9
$DIMSCALE
 40
0.0
  9
$DIMASZ
 40
20.0
  9
$DIMEXO
 40
10.0
  9
$DIMDLI
 40
1.0
  9
$DIMRND
 40
0.0
  9
$DIMDLE
 40
0.0
  9
$DIMEXE
 40
1.0
  9
$DIMTP
 40
0.0
  9
$DIMTM
 40
0.0
  9
$DIMTXT
 40
35.0
  9
$DIMCEN
 40
1.0
  9
$DIMTSZ
 40
0.0
  9
$DIMTOL
 70
     0
  9
$DIMLIM
 70
     0
  9
$DIMTIH
 70
     0
  9
$DIMTOH
 70
     0
  9
$DIMSE1
 70
     0
  9
$DIMSE2
 70
     0
  9
$DIMTAD
 70
     0
  9
$DIMZIN
 70
     0
  9
$DIMBLK
  1

  9
$DIMASO
 70
     1
  9
$DIMSHO
 70
     0
  9
$DIMPOST
  1

  9
$DIMAPOST
  1

  9
$DIMALT
 70
     0
  9
$DIMALTD
 70
     2
  9
$DIMALTF
 40
25.4
  9
$DIMLFAC
 40
1.0
  9
$DIMTOFL
 70
     0
  9
$DIMTVP
 40
0.0
  9
$DIMTIX
 70
     0
  9
$DIMSOXD
 70
     0
  9
$DIMSAH
 70
     0
  9
$DIMBLK1
  1

  9
$DIMBLK2
  1

  9
$DIMSTYLE
  2
TEAM
  9
$DIMCLRD
 70
     9
  9
$DIMCLRE
 70
     9
  9
$DIMCLRT
 70
    11
  9
$DIMTFAC
 40
1.0
  9
$DIMGAP
 40
7.0
  9
$LUNITS
 70
     2
  9
$LUPREC
 70
     1
  9
$SKETCHINC
 40
1.0
  9
$FILLETRAD
 40
9.5
  9
$AUNITS
 70
     0
  9
$AUPREC
 70
     0
  9
$MENU
  1
ROPLANS
  9
$ELEVATION
 40
0.0
  9
$PELEVATION
 40
0.0
  9
$THICKNESS
 40
0.0
  9
$LIMCHECK
 70
     0
  9
$BLIPMODE
 70
     1
  9
$CHAMFERA
 40
0.0
  9
$CHAMFERB
 40
0.0
  9
$SKPOLY
 70
     0
  9
$TDCREATE
 40
2450392.957851
  9
$TDUPDATE
 40
2455944.717343
  9
$TDINDWG
 40
3.569992
  9
$TDUSRTIMER
 40
3.569992
  9
$USRTIMER
 70
     1
  9
$ANGBASE
 50
0.0
  9
$ANGDIR
 70
     0
  9
$PDMODE
 70
     0
  9
$PDSIZE
 40
0.0
  9
$PLINEWID
 40
0.0
  9
$COORDS
 70
     2
  9
$SPLFRAME
 70
     0
  9
$SPLINETYPE
 70
     6
  9
$SPLINESEGS
 70
     8
  9
$ATTDIA
 70
     0
  9
$ATTREQ
 70
     0
  9
$HANDLING
 70
     1
  9
$HANDSEED
  5
AE
  9
$SURFTAB1
 70
    24
  9
$SURFTAB2
 70
    24
  9
$SURFTYPE
 70
     6
  9
$SURFU
 70
     6
  9
$SURFV
 70
     6
  9
$UCSNAME
  2

  9
$UCSORG
 10
0.0
 20
0.0
 30
0.0
  9
$UCSXDIR
 10
1.0
 20
0.0
 30
0.0
  9
$UCSYDIR
 10
0.0
 20
1.0
 30
0.0
  9
$PUCSNAME
  2

  9
$PUCSORG
 10
0.0
 20
0.0
 30
0.0
  9
$PUCSXDIR
 10
1.0
 20
0.0
 30
0.0
  9
$PUCSYDIR
 10
0.0
 20
1.0
 30
0.0
  9
$USERI1
 70
     0
  9
$USERI2
 70
     0
  9
$USERI3
 70
     0
  9
$USERI4
 70
     0
  9
$USERI5
 70
     0
  9
$USERR1
 40
0.0
  9
$USERR2
 40
0.0
  9
$USERR3
 40
0.0
  9
$USERR4
 40
0.0
  9
$USERR5
 40
0.0
  9
$WORLDVIEW
 70
     1
  9
$SHADEDGE
 70
     0
  9
$SHADEDIF
 70
    70
  9
$TILEMODE
 70
     1
  9
$MAXACTVP
 70
    16
  9
$PLIMCHECK
 70
     0
  9
$PEXTMIN
 10
-0.805942
 20
0.005011
 30
0.0
  9
$PEXTMAX
 10
20.250094
 20
11.356329
 30
0.0
  9
$PLIMMIN
 10
0.0
 20
0.0
  9
$PLIMMAX
 10
12.0
 20
9.0
  9
$UNITMODE
 70
     0
  9
$VISRETAIN
 70
     0
  9
$PLINEGEN
 70
     0
  9
$PSLTSCALE
 70
     0
  0
ENDSEC
  0
SECTION
  2
TABLES
  0
TABLE
  2
VPORT
 70
     2
  0
VPORT
  2
*ACTIVE
 70
     0
 10
0.0
 20
0.0
 11
1.0
 21
1.0
 12
48.68317
 22
319.742038
 13
0.0
 23
0.0
 14
1.0
 24
1.0
 15
50.0
 25
50.0
 16
0.0
 26
0.0
 36
1.0
 17
0.0
 27
0.0
 37
0.0
 40
663.659274
 41
1.903766
 42
50.0
 43
0.0
 44
0.0
 50
0.0
 51
0.0
 71
     0
 72
   100
 73
     1
 74
     1
 75
     0
 76
     0
 77
     0
 78
     0
  0
ENDTAB
  0
TABLE
  2
LTYPE
 70
     1
  0
LTYPE
  2
CONTINUOUS
 70
     0
  3
Solid Line
 72
    65
 73
     0
 40
0.0
  0
ENDTAB
  0
TABLE
  2
LAYER
 70
     7
  0
LAYER
  2
0
 70
     0
 62
     7
  6
CONTINUOUS
  0
LAYER
  2
DEFPOINTS
 70
     0
 62
     7
  6
CONTINUOUS
  0
LAYER
  2
TEAM-BODY
 70
     0
 62
     2
  6
CONTINUOUS
  0
LAYER
  2
TEAM-MAS
 70
     0
 62
     9
  6
CONTINUOUS
  0
LAYER
  2
TEAM-TXT
 70
     0
 62
    11
  6
CONTINUOUS
  0
LAYER
  2
TEAM-KAN
 70
     0
 62
     6
  6
CONTINUOUS
  0
LAYER
  2
TEAM-INSP
 70
     0
 62
     5
  6
CONTINUOUS
  0
ENDTAB
  0
TABLE
  2
STYLE
 70
     2
  0
STYLE
  2
STANDARD
 70
     0
 40
0.0
 41
1.0
 50
0.0
 71
     0
 42
200.0
  3
txt
  4

  0
STYLE
  2
TEAM
 70
     0
 40
0.0
 41
0.8
 50
15.0
 71
     0
 42
7.0
  3
ROMANS.shx
  4

  0
ENDTAB
  0
TABLE
  2
VIEW
 70
     0
  0
ENDTAB
  0
TABLE
  2
UCS
 70
     0
  0
ENDTAB
  0
TABLE
  2
APPID
 70
     1
  0
APPID
  2
ACAD
 70
     0
  0
ENDTAB
  0
TABLE
  2
DIMSTYLE
 70
     1
  0
DIMSTYLE
  2
TEAM
 70
     0
  3

  4

  5

  6

  7

 40
0.0
 41
20.0
 42
10.0
 43
1.0
 44
1.0
 45
0.0
 46
0.0
 47
0.0
 48
0.0
140
35.0
141
1.0
142
0.0
143
25.4
144
1.0
145
0.0
146
1.0
147
7.0
 71
     0
 72
     0
 73
     0
 74
     0
 75
     0
 76
     0
 77
     0
 78
     0
170
     0
171
     2
172
     0
173
     0
174
     0
175
     0
176
     9
177
     9
178
    11
  0
ENDTAB
  0
ENDSEC
  0
SECTION
  2
BLOCKS
  0
BLOCK
  8
0
  2
$MODEL_SPACE
 70
     0
 10
0.0
 20
0.0
 30
0.0
  3
$MODEL_SPACE
  1

  0
ENDBLK
  5
A7
  8
0
  0
BLOCK
 67
     1
  8
0
  2
$PAPER_SPACE
 70
     0
 10
0.0
 20
0.0
 30
0.0
  3
$PAPER_SPACE
  1

  0
ENDBLK
  5
A5
 67
     1
  8
0
  0
BLOCK
  8
0
  2
*D0
 70
     1
 10
0.0
 20
0.0
 30
0.0
  3
*D0
  1

  0
LINE
  5
53
  8
0
  6
BYBLOCK
 62
     9
 10
8379.000006
 20
8600.0
 30
0.0
 11
8457.096455
 21
8600.0
 31
0.0
  0
LINE
  5
54
  8
0
  6
BYBLOCK
 62
     9
 10
8010.0
 20
8000.0
 30
0.0
 11
8457.096455
 21
8000.0
 31
0.0
  0
LINE
  5
55
  8
0
  6
BYBLOCK
 62
     9
 10
8456.096455
 20
8580.0
 30
0.0
 11
8456.096455
 21
8347.833333
 31
0.0
  0
LINE
  5
56
  8
0
  6
BYBLOCK
 62
     9
 10
8456.096455
 20
8020.0
 30
0.0
 11
8456.096455
 21
8252.166667
 31
0.0
  0
SOLID
  5
57
  8
0
  6
BYBLOCK
 62
     9
 10
8452.763122
 20
8580.0
 30
0.0
 11
8459.429789
 21
8580.0
 31
0.0
 12
8456.096455
 22
8600.0
 32
0.0
 13
8456.096455
 23
8600.0
 33
0.0
  0
SOLID
  5
58
  8
0
  6
BYBLOCK
 62
     9
 10
8452.763122
 20
8020.0
 30
0.0
 11
8459.429789
 21
8020.0
 31
0.0
 12
8456.096455
 22
8000.0
 32
0.0
 13
8456.096455
 23
8000.0
 33
0.0
  0
TEXT
  5
59
  8
0
  6
BYBLOCK
 62
    11
 10
8473.596455
 20
8259.166667
 30
0.0
 40
35.0
  1
600
 50
90.0
  0
POINT
  5
5A
  8
DEFPOINTS
  6
BYBLOCK
 62
     0
 10
8369.000006
 20
8600.0
 30
0.0
  0
POINT
  5
5B
  8
DEFPOINTS
  6
BYBLOCK
 62
     0
 10
8000.0
 20
8000.0
 30
0.0
  0
POINT
  5
5C
  8
DEFPOINTS
  6
BYBLOCK
 62
     0
 10
8456.096455
 20
8000.0
 30
0.0
  0
ENDBLK
  5
5E
  8
0
  0
BLOCK
  8
0
  2
*D1
 70
     1
 10
0.0
 20
0.0
 30
0.0
  3
*D1
  1

  0
LINE
  5
45
  8
0
  6
BYBLOCK
 62
     9
 10
8379.505006
 20
8600.0
 30
0.0
 11
8412.852747
 21
8600.0
 31
0.0
  0
LINE
  5
46
  8
0
  6
BYBLOCK
 62
     9
 10
8036.0
 20
8119.999994
 30
0.0
 11
8412.852747
 21
8119.999994
 31
0.0
  0
LINE
  5
47
  8
0
  6
BYBLOCK
 62
     9
 10
8411.852747
 20
8580.0
 30
0.0
 11
8411.852747
 21
8410.749997
 31
0.0
  0
LINE
  5
48
  8
0
  6
BYBLOCK
 62
     9
 10
8411.852747
 20
8139.999994
 30
0.0
 11
8411.852747
 21
8309.249997
 31
0.0
  0
SOLID
  5
49
  8
0
  6
BYBLOCK
 62
     9
 10
8408.519414
 20
8580.0
 30
0.0
 11
8415.18608
 21
8580.0
 31
0.0
 12
8411.852747
 22
8600.0
 32
0.0
 13
8411.852747
 23
8600.0
 33
0.0
  0
SOLID
  5
4A
  8
0
  6
BYBLOCK
 62
     9
 10
8408.519414
 20
8139.999994
 30
0.0
 11
8415.18608
 21
8139.999994
 31
0.0
 12
8411.852747
 22
8119.999994
 32
0.0
 13
8411.852747
 23
8119.999994
 33
0.0
  0
TEXT
  5
4B
  8
0
  6
BYBLOCK
 62
    11
 10
8429.352747
 20
8316.249997
 30
0.0
 40
35.0
  1
480
 50
90.0
  0
POINT
  5
4C
  8
DEFPOINTS
  6
BYBLOCK
 62
     0
 10
8369.505006
 20
8600.0
 30
0.0
  0
POINT
  5
4D
  8
DEFPOINTS
  6
BYBLOCK
 62
     0
 10
8026.0
 20
8119.999994
 30
0.0
  0
POINT
  5
4E
  8
DEFPOINTS
  6
BYBLOCK
 62
     0
 10
8411.852747
 20
8119.999994
 30
0.0
  0
ENDBLK
  5
50
  8
0
  0
BLOCK
  8
0
  2
*D2
 70
     1
 10
0.0
 20
0.0
 30
0.0
  3
*D2
  1

  0
LINE
  5
35
  8
0
  6
BYBLOCK
 62
     9
 10
8026.0
 20
8109.999994
 30
0.0
 11
8026.0
 21
8077.005433
 31
0.0
  0
LINE
  5
36
  8
0
  6
BYBLOCK
 62
     9
 10
7974.0
 20
8109.999994
 30
0.0
 11
7974.0
 21
8077.005433
 31
0.0
  0
LINE
  5
37
  8
0
  6
BYBLOCK
 62
     9
 10
8046.0
 20
8078.005433
 30
0.0
 11
8066.0
 21
8078.005433
 31
0.0
  0
LINE
  5
38
  8
0
  6
BYBLOCK
 62
     9
 10
7954.0
 20
8078.005433
 30
0.0
 11
7934.0
 21
8078.005433
 31
0.0
  0
TEXT
  5
39
  8
0
  6
BYBLOCK
 62
    11
 10
8088.63834
 20
8060.505433
 30
0.0
 40
35.0
  1
52
  0
LINE
  5
3A
  8
0
  6
BYBLOCK
 62
     9
 10
8026.0
 20
8078.005433
 30
0.0
 11
7974.0
 21
8078.005433
 31
0.0
  0
SOLID
  5
3B
  8
0
  6
BYBLOCK
 62
     9
 10
8046.0
 20
8081.338767
 30
0.0
 11
8046.0
 21
8074.6721
 31
0.0
 12
8026.0
 22
8078.005433
 32
0.0
 13
8026.0
 23
8078.005433
 33
0.0
  0
SOLID
  5
3C
  8
0
  6
BYBLOCK
 62
     9
 10
7954.0
 20
8081.338767
 30
0.0
 11
7954.0
 21
8074.6721
 31
0.0
 12
7974.0
 22
8078.005433
 32
0.0
 13
7974.0
 23
8078.005433
 33
0.0
  0
POINT
  5
3D
  8
DEFPOINTS
  6
BYBLOCK
 62
     0
 10
8026.0
 20
8119.999994
 30
0.0
  0
POINT
  5
3E
  8
DEFPOINTS
  6
BYBLOCK
 62
     0
 10
7974.0
 20
8119.999994
 30
0.0
  0
POINT
  5
3F
  8
DEFPOINTS
  6
BYBLOCK
 62
     0
 10
7974.0
 20
8078.005433
 30
0.0
  0
ENDBLK
  5
41
  8
0
  0
BLOCK
  8
0
  2
*D3
 70
     1
 10
0.0
 20
0.0
 30
0.0
  3
*D3
  1

  0
LINE
  5
25
  8
0
  6
BYBLOCK
 62
     9
 10
8375.000006
 20
8604.0
 30
0.0
 11
8375.000006
 21
8632.984073
 31
0.0
  0
LINE
  5
26
  8
0
  6
BYBLOCK
 62
     9
 10
7624.999994
 20
8604.0
 30
0.0
 11
7624.999994
 21
8632.984073
 31
0.0
  0
LINE
  5
27
  8
0
  6
BYBLOCK
 62
     9
 10
8355.000006
 20
8631.984073
 30
0.0
 11
8050.75
 21
8631.984073
 31
0.0
  0
LINE
  5
28
  8
0
  6
BYBLOCK
 62
     9
 10
7644.999994
 20
8631.984073
 30
0.0
 11
7949.25
 21
8631.984073
 31
0.0
  0
SOLID
  5
29
  8
0
  6
BYBLOCK
 62
     9
 10
8355.000006
 20
8635.317407
 30
0.0
 11
8355.000006
 21
8628.65074
 31
0.0
 12
8375.000006
 22
8631.984073
 32
0.0
 13
8375.000006
 23
8631.984073
 33
0.0
  0
SOLID
  5
2A
  8
0
  6
BYBLOCK
 62
     9
 10
7644.999994
 20
8635.317407
 30
0.0
 11
7644.999994
 21
8628.65074
 31
0.0
 12
7624.999994
 22
8631.984073
 32
0.0
 13
7624.999994
 23
8631.984073
 33
0.0
  0
TEXT
  5
2B
  8
0
  6
BYBLOCK
 62
    11
 10
7956.25
 20
8614.484073
 30
0.0
 40
35.0
  1
750
  0
POINT
  5
2C
  8
DEFPOINTS
  6
BYBLOCK
 62
     0
 10
8375.000006
 20
8594.0
 30
0.0
  0
POINT
  5
2E
  8
DEFPOINTS
  6
BYBLOCK
 62
     0
 10
7624.999994
 20
8594.0
 30
0.0
  0
POINT
  5
2F
  8
DEFPOINTS
  6
BYBLOCK
 62
     0
 10
7624.999994
 20
8631.984073
 30
0.0
  0
ENDBLK
  5
31
  8
0
  0
ENDSEC
  0
SECTION
  2
ENTITIES
  0
LINE
  5
20
  8
TEAM-BODY
 10
369.000006
 20
540.0
 30
0.0
 11
-369.000006
 21
540.0
 31
0.0
  0
LINE
  5
22
  8
TEAM-BODY
 10
-369.000006
 20
600.0
 30
0.0
 11
369.000006
 21
600.0
 31
0.0
  0
DIMENSION
  5
23
  8
TEAM-MAS
  2
*D3
 10
-375.000006
 20
631.984073
 30
0.0
 11
0.0
 21
631.984073
 31
0.0
 12
-8000.0
 22
-8000.0
 32
0.0
 13
375.000006
 23
594.0
 33
0.0
 14
-375.000006
 24
594.0
 34
0.0
1001
ACAD
1000
DSTYLE
1002
{
1070
    40
1040
1.0
1002
}
  0
DIMENSION
  5
32
  8
TEAM-INSP
  2
*D2
 10
-26.0
 20
78.005433
 30
0.0
 11
117.805006
 21
78.005433
 31
0.0
 12
-8000.0
 22
-8000.0
 32
0.0
 70
   128
 13
26.0
 23
119.999994
 33
0.0
 14
-26.0
 24
119.999994
 34
0.0
1001
ACAD
1000
DSTYLE
1002
{
1070
    40
1040
1.0
1002
}
  0
ARC
  5
42
  8
TEAM-BODY
 10
45.435821
 20
855.155521
 30
0.0
 40
724.379125
 50
269.917936
 51
278.05742
  0
DIMENSION
  5
43
  8
TEAM-MAS
  2
*D1
 10
411.852747
 20
119.999994
 30
0.0
 11
411.852747
 21
359.999997
 31
0.0
 12
-8000.0
 22
-8000.0
 32
0.0
 13
369.505006
 23
600.0
 33
0.0
 14
26.0
 24
119.999994
 34
0.0
 50
90.0
1001
ACAD
1000
DSTYLE
1002
{
1070
    40
1040
1.0
1002
}
  0
DIMENSION
  5
51
  8
TEAM-MAS
  2
*D0
 10
456.096455
 20
0.0
 30
0.0
 11
456.096455
 21
300.0
 31
0.0
 12
-8000.0
 22
-8000.0
 32
0.0
 13
369.000006
 23
600.0
 33
0.0
 14
0.0
 24
0.0
 34
0.0
 50
90.0
1001
ACAD
1000
DSTYLE
1002
{
1070
    40
1040
1.0
1002
}
  0
TEXT
  5
5F
  8
TEAM-TXT
 10
-264.687372
 20
487.75601
 30
0.0
 40
30.0
  1
team 121065
 41
0.8
 51
15.0
  7
TEAM
  0
LINE
  5
62
  8
TEAM-BODY
 10
-375.000006
 20
594.0
 30
0.0
 11
-375.000006
 21
546.0
 31
0.0
  0
ARC
  5
63
  8
TEAM-BODY
 10
-369.000006
 20
546.0
 30
0.0
 40
6.0
 50
180.0
 51
270.0
  0
ARC
  5
64
  8
TEAM-BODY
 10
-369.000006
 20
594.0
 30
0.0
 40
6.0
 50
90.0
 51
180.0
  0
CIRCLE
  5
65
  8
TEAM-INSP
 10
0.0
 20
0.0
 30
0.0
 40
10.0
  0
LINE
  5
66
  8
TEAM-BODY
 10
-44.388301
 20
130.77714
 30
0.0
 11
44.398301
 21
130.77714
 31
0.0
  0
LINE
  5
67
  8
TEAM-KAN
 10
-26.0
 20
119.999994
 30
0.0
 11
-26.0
 21
122.999994
 31
0.0
  0
LINE
  5
69
  8
TEAM-KAN
 10
26.0
 20
119.999994
 30
0.0
 11
26.0
 21
122.999994
 31
0.0
  0
LINE
  5
6A
  8
TEAM-KAN
 10
26.0
 20
119.999994
 30
0.0
 11
-26.0
 21
119.999994
 31
0.0
  0
ARC
  5
6B
  8
TEAM-KAN
 10
25.143398
 20
138.093257
 30
0.0
 40
18.113529
 50
272.710569
 51
307.192542
  0
ARC
  5
6C
  8
TEAM-KAN
 10
73.376569
 20
81.266642
 30
0.0
 40
56.452745
 50
118.716087
 51
131.326352
  0
ARC
  5
6D
  8
TEAM-KAN
 10
-65.576052
 20
96.497585
 30
0.0
 40
39.354925
 50
43.646085
 51
60.576871
  0
ARC
  5
6E
  8
TEAM-KAN
 10
-24.147355
 20
144.233922
 30
0.0
 40
24.304642
 50
237.816095
 51
265.628333
  0
ARC
  5
6F
  8
TEAM-BODY
 10
-144.370003
 20
217.899995
 30
0.0
 40
80.000001
 50
191.0378
 51
268.5003
  0
ARC
  5
70
  8
TEAM-BODY
 10
-45.414564
 20
841.185466
 30
0.0
 40
710.409067
 50
261.863611
 51
270.08277
  0
ARC
  5
71
  8
TEAM-BODY
 10
4258.526901
 20
1020.142339
 30
0.0
 40
4555.375823
 50
186.050285
 51
190.338958
  0
LINE
  5
72
  8
TEAM-BODY
 10
375.000006
 20
594.0
 30
0.0
 11
375.000006
 21
546.0
 31
0.0
  0
ARC
  5
73
  8
TEAM-BODY
 10
369.000006
 20
546.0
 30
0.0
 40
6.0
 50
270.0
 51
0.0
  0
ARC
  5
74
  8
TEAM-BODY
 10
369.000006
 20
594.0
 30
0.0
 40
6.0
 50
0.0
 51
90.0
  0
ARC
  5
75
  8
TEAM-BODY
 10
144.370003
 20
217.899995
 30
0.0
 40
80.000001
 50
271.4997
 51
348.9622
  0
ARC
  5
76
  8
TEAM-BODY
 10
-4258.526901
 20
1020.142339
 30
0.0
 40
4555.375823
 50
349.661042
 51
353.949715
  0
ENDSEC
  0
EOF
