  0
SECTION
  2
HEADER
  9
$ACADVER
  1
AC1009
  9
$INSBASE
 10
0.0
 20
0.0
 30
0.0
  9
$EXTMIN
 10
-958.559349
 20
-485.116618
 30
-0.000006
  9
$EXTMAX
 10
955.829694
 20
440.895404
 30
0.000002
  9
$LIMMIN
 10
-958.559349
 20
-485.116618
  9
$LIMMAX
 10
955.829694
 20
440.895404
  9
$ORTHOMODE
 70
     1
  9
$REGENMODE
 70
     1
  9
$FILLMODE
 70
     1
  9
$QTEXTMODE
 70
     0
  9
$MIRRTEXT
 70
     0
  9
$DRAGMODE
 70
     2
  9
$LTSCALE
 40
50.0
  9
$OSMODE
 70
     7
  9
$ATTMODE
 70
     1
  9
$TEXTSIZE
 40
200.0
  9
$TRACEWID
 40
1.0
  9
$TEXTSTYLE
  7
STANDARD
  9
$CLAYER
  8
TEAM-MAS
  9
$CELTYPE
  6
BYLAYER
  9
$CECOLOR
 62
   256
  9
$DIMSCALE
 40
0.0
  9
$DIMASZ
 40
20.0
  9
$DIMEXO
 40
10.0
  9
$DIMDLI
 40
1.0
  9
$DIMRND
 40
0.0
  9
$DIMDLE
 40
0.0
  9
$DIMEXE
 40
1.0
  9
$DIMTP
 40
0.0
  9
$DIMTM
 40
0.0
  9
$DIMTXT
 40
35.0
  9
$DIMCEN
 40
1.0
  9
$DIMTSZ
 40
0.0
  9
$DIMTOL
 70
     0
  9
$DIMLIM
 70
     0
  9
$DIMTIH
 70
     0
  9
$DIMTOH
 70
     0
  9
$DIMSE1
 70
     0
  9
$DIMSE2
 70
     0
  9
$DIMTAD
 70
     0
  9
$DIMZIN
 70
     0
  9
$DIMBLK
  1

  9
$DIMASO
 70
     1
  9
$DIMSHO
 70
     0
  9
$DIMPOST
  1

  9
$DIMAPOST
  1

  9
$DIMALT
 70
     0
  9
$DIMALTD
 70
     2
  9
$DIMALTF
 40
25.4
  9
$DIMLFAC
 40
1.0
  9
$DIMTOFL
 70
     0
  9
$DIMTVP
 40
0.0
  9
$DIMTIX
 70
     0
  9
$DIMSOXD
 70
     0
  9
$DIMSAH
 70
     0
  9
$DIMBLK1
  1

  9
$DIMBLK2
  1

  9
$DIMSTYLE
  2
TEAM
  9
$DIMCLRD
 70
     9
  9
$DIMCLRE
 70
     9
  9
$DIMCLRT
 70
    11
  9
$DIMTFAC
 40
1.0
  9
$DIMGAP
 40
7.0
  9
$LUNITS
 70
     2
  9
$LUPREC
 70
     1
  9
$SKETCHINC
 40
1.0
  9
$FILLETRAD
 40
65.0
  9
$AUNITS
 70
     0
  9
$AUPREC
 70
     0
  9
$MENU
  1
ROPLANS
  9
$ELEVATION
 40
0.0
  9
$PELEVATION
 40
0.0
  9
$THICKNESS
 40
0.0
  9
$LIMCHECK
 70
     0
  9
$BLIPMODE
 70
     1
  9
$CHAMFERA
 40
0.0
  9
$CHAMFERB
 40
0.0
  9
$SKPOLY
 70
     0
  9
$TDCREATE
 40
2450392.957851
  9
$TDUPDATE
 40
2455972.778238
  9
$TDINDWG
 40
2.587187
  9
$TDUSRTIMER
 40
2.587187
  9
$USRTIMER
 70
     1
  9
$ANGBASE
 50
0.0
  9
$ANGDIR
 70
     0
  9
$PDMODE
 70
     0
  9
$PDSIZE
 40
0.0
  9
$PLINEWID
 40
0.0
  9
$COORDS
 70
     2
  9
$SPLFRAME
 70
     0
  9
$SPLINETYPE
 70
     6
  9
$SPLINESEGS
 70
     8
  9
$ATTDIA
 70
     0
  9
$ATTREQ
 70
     0
  9
$HANDLING
 70
     1
  9
$HANDSEED
  5
159
  9
$SURFTAB1
 70
    24
  9
$SURFTAB2
 70
    24
  9
$SURFTYPE
 70
     6
  9
$SURFU
 70
     6
  9
$SURFV
 70
     6
  9
$UCSNAME
  2

  9
$UCSORG
 10
0.0
 20
0.0
 30
0.0
  9
$UCSXDIR
 10
1.0
 20
0.0
 30
0.0
  9
$UCSYDIR
 10
0.0
 20
1.0
 30
0.0
  9
$PUCSNAME
  2

  9
$PUCSORG
 10
0.0
 20
0.0
 30
0.0
  9
$PUCSXDIR
 10
1.0
 20
0.0
 30
0.0
  9
$PUCSYDIR
 10
0.0
 20
1.0
 30
0.0
  9
$USERI1
 70
     0
  9
$USERI2
 70
     0
  9
$USERI3
 70
     0
  9
$USERI4
 70
     0
  9
$USERI5
 70
     0
  9
$USERR1
 40
0.0
  9
$USERR2
 40
0.0
  9
$USERR3
 40
0.0
  9
$USERR4
 40
0.0
  9
$USERR5
 40
0.0
  9
$WORLDVIEW
 70
     1
  9
$SHADEDGE
 70
     0
  9
$SHADEDIF
 70
    70
  9
$TILEMODE
 70
     1
  9
$MAXACTVP
 70
    16
  9
$PLIMCHECK
 70
     0
  9
$PEXTMIN
 10
-0.805942
 20
0.005011
 30
0.0
  9
$PEXTMAX
 10
20.250094
 20
11.356329
 30
0.0
  9
$PLIMMIN
 10
0.0
 20
0.0
  9
$PLIMMAX
 10
12.0
 20
9.0
  9
$UNITMODE
 70
     0
  9
$VISRETAIN
 70
     0
  9
$PLINEGEN
 70
     0
  9
$PSLTSCALE
 70
     0
  0
ENDSEC
  0
SECTION
  2
TABLES
  0
TABLE
  2
VPORT
 70
     2
  0
VPORT
  2
*ACTIVE
 70
     0
 10
0.0
 20
0.0
 11
1.0
 21
1.0
 12
-1.364828
 22
-22.110607
 13
0.0
 23
0.0
 14
1.0
 24
1.0
 15
50.0
 25
50.0
 16
0.0
 26
0.0
 36
1.0
 17
0.0
 27
0.0
 37
0.0
 40
1008.891814
 41
1.903766
 42
50.0
 43
0.0
 44
0.0
 50
0.0
 51
0.0
 71
     0
 72
   100
 73
     1
 74
     1
 75
     0
 76
     0
 77
     0
 78
     0
  0
ENDTAB
  0
TABLE
  2
LTYPE
 70
     2
  0
LTYPE
  2
CONTINUOUS
 70
     0
  3
Solid Line
 72
    65
 73
     0
 40
0.0
  0
LTYPE
  2
31
 70
     0
  3

 72
    65
 73
     4
 40
2.1
 49
1.5
 49
-0.3
 49
0.0
 49
-0.3
  0
ENDTAB
  0
TABLE
  2
LAYER
 70
     9
  0
LAYER
  2
0
 70
     0
 62
     7
  6
CONTINUOUS
  0
LAYER
  2
DEFPOINTS
 70
     0
 62
     7
  6
CONTINUOUS
  0
LAYER
  2
TEAM-BODY
 70
     0
 62
     2
  6
CONTINUOUS
  0
LAYER
  2
TEAM-AXE
 70
     0
 62
    10
  6
31
  0
LAYER
  2
TEAM-MAS
 70
     0
 62
     9
  6
CONTINUOUS
  0
LAYER
  2
TEAM-TXT
 70
     0
 62
    11
  6
CONTINUOUS
  0
LAYER
  2
TEAM-DET1
 70
     0
 62
     4
  6
CONTINUOUS
  0
LAYER
  2
TEAM-KAN
 70
     0
 62
     6
  6
CONTINUOUS
  0
LAYER
  2
TEAM-INSP
 70
     0
 62
     5
  6
CONTINUOUS
  0
ENDTAB
  0
TABLE
  2
STYLE
 70
     2
  0
STYLE
  2
STANDARD
 70
     0
 40
0.0
 41
1.0
 50
0.0
 71
     0
 42
200.0
  3
txt
  4

  0
STYLE
  2
TEAM
 70
     0
 40
0.0
 41
0.8
 50
15.0
 71
     0
 42
7.0
  3
ROMANS.shx
  4

  0
ENDTAB
  0
TABLE
  2
VIEW
 70
     0
  0
ENDTAB
  0
TABLE
  2
UCS
 70
     0
  0
ENDTAB
  0
TABLE
  2
APPID
 70
     1
  0
APPID
  2
ACAD
 70
     0
  0
ENDTAB
  0
TABLE
  2
DIMSTYLE
 70
     1
  0
DIMSTYLE
  2
TEAM
 70
     0
  3

  4

  5

  6

  7

 40
0.0
 41
20.0
 42
10.0
 43
1.0
 44
1.0
 45
0.0
 46
0.0
 47
0.0
 48
0.0
140
35.0
141
1.0
142
0.0
143
25.4
144
1.0
145
0.0
146
1.0
147
7.0
 71
     0
 72
     0
 73
     0
 74
     0
 75
     0
 76
     0
 77
     0
 78
     0
170
     0
171
     2
172
     0
173
     0
174
     0
175
     0
176
     9
177
     9
178
    11
  0
ENDTAB
  0
ENDSEC
  0
SECTION
  2
BLOCKS
  0
BLOCK
  8
0
  2
$MODEL_SPACE
 70
     0
 10
0.0
 20
0.0
 30
0.0
  3
$MODEL_SPACE
  1

  0
ENDBLK
  5
11F
  8
0
  0
BLOCK
 67
     1
  8
0
  2
$PAPER_SPACE
 70
     0
 10
0.0
 20
0.0
 30
0.0
  3
$PAPER_SPACE
  1

  0
ENDBLK
  5
11D
 67
     1
  8
0
  0
BLOCK
  8
0
  2
*D0
 70
     1
 10
0.0
 20
0.0
 30
0.0
  3
*D0
  1

  0
LINE
  5
25
  8
0
  6
BYBLOCK
 62
     9
 10
4900.0
 20
15590.0
 30
0.0
 11
4900.0
 21
15531.414743
 31
0.0
  0
LINE
  5
26
  8
0
  6
BYBLOCK
 62
     9
 10
3100.0
 20
15990.0
 30
0.0
 11
3100.0
 21
15531.414743
 31
0.0
  0
LINE
  5
27
  8
0
  6
BYBLOCK
 62
     9
 10
4880.0
 20
15532.414743
 30
0.0
 11
4059.5
 21
15532.414743
 31
0.0
  0
LINE
  5
28
  8
0
  6
BYBLOCK
 62
     9
 10
3120.0
 20
15532.414743
 30
0.0
 11
3940.5
 21
15532.414743
 31
0.0
  0
SOLID
  5
29
  8
0
  6
BYBLOCK
 62
     9
 10
4880.0
 20
15535.748077
 30
0.0
 11
4880.0
 21
15529.08141
 31
0.0
 12
4900.0
 22
15532.414743
 32
0.0
 13
4900.0
 23
15532.414743
 33
0.0
  0
SOLID
  5
2A
  8
0
  6
BYBLOCK
 62
     9
 10
3120.0
 20
15535.748077
 30
0.0
 11
3120.0
 21
15529.08141
 31
0.0
 12
3100.0
 22
15532.414743
 32
0.0
 13
3100.0
 23
15532.414743
 33
0.0
  0
TEXT
  5
2B
  8
0
  6
BYBLOCK
 62
    11
 10
3947.5
 20
15514.914743
 30
0.0
 40
35.0
  1
1800
  0
POINT
  5
2C
  8
DEFPOINTS
  6
BYBLOCK
 62
     0
 10
4900.0
 20
15600.0
 30
0.0
  0
POINT
  5
2E
  8
DEFPOINTS
  6
BYBLOCK
 62
     0
 10
3100.0
 20
16000.0
 30
0.0
  0
POINT
  5
2F
  8
DEFPOINTS
  6
BYBLOCK
 62
     0
 10
3100.0
 20
15532.414743
 30
0.0
  0
ENDBLK
  5
31
  8
0
  0
BLOCK
  8
0
  2
*D1
 70
     1
 10
0.0
 20
0.0
 30
0.0
  3
*D1
  1

  0
LINE
  5
41
  8
0
  6
BYBLOCK
 62
     9
 10
3090.0
 20
15600.0
 30
0.0
 11
3057.948618
 21
15600.0
 31
0.0
  0
LINE
  5
42
  8
0
  6
BYBLOCK
 62
     9
 10
3090.0
 20
16400.0
 30
0.0
 11
3057.948618
 21
16400.0
 31
0.0
  0
LINE
  5
43
  8
0
  6
BYBLOCK
 62
     9
 10
3058.948618
 20
15620.0
 30
0.0
 11
3058.948618
 21
15952.166667
 31
0.0
  0
LINE
  5
44
  8
0
  6
BYBLOCK
 62
     9
 10
3058.948618
 20
16380.0
 30
0.0
 11
3058.948618
 21
16047.833333
 31
0.0
  0
SOLID
  5
45
  8
0
  6
BYBLOCK
 62
     9
 10
3055.615285
 20
15620.0
 30
0.0
 11
3062.281951
 21
15620.0
 31
0.0
 12
3058.948618
 22
15600.0
 32
0.0
 13
3058.948618
 23
15600.0
 33
0.0
  0
SOLID
  5
46
  8
0
  6
BYBLOCK
 62
     9
 10
3055.615285
 20
16380.0
 30
0.0
 11
3062.281951
 21
16380.0
 31
0.0
 12
3058.948618
 22
16400.0
 32
0.0
 13
3058.948618
 23
16400.0
 33
0.0
  0
TEXT
  5
47
  8
0
  6
BYBLOCK
 62
    11
 10
3076.448618
 20
15959.166667
 30
0.0
 40
35.0
  1
800
 50
90.0
  0
POINT
  5
48
  8
DEFPOINTS
  6
BYBLOCK
 62
     0
 10
3100.0
 20
15600.0
 30
0.0
  0
POINT
  5
49
  8
DEFPOINTS
  6
BYBLOCK
 62
     0
 10
3100.0
 20
16400.0
 30
0.0
  0
POINT
  5
4A
  8
DEFPOINTS
  6
BYBLOCK
 62
     0
 10
3058.948618
 20
16400.0
 30
0.0
  0
ENDBLK
  5
4C
  8
0
  0
BLOCK
  8
0
  2
*D2
 70
     1
 10
0.0
 20
0.0
 30
0.0
  3
*D2
  1

  0
LINE
  5
64
  8
0
  6
BYBLOCK
 62
     9
 10
4910.0
 20
15600.0
 30
0.0
 11
4939.19096
 21
15600.0
 31
0.0
  0
LINE
  5
65
  8
0
  6
BYBLOCK
 62
     9
 10
4076.78938
 20
15887.0
 30
0.0
 11
4939.19096
 21
15887.0
 31
0.0
  0
LINE
  5
66
  8
0
  6
BYBLOCK
 62
     9
 10
4938.19096
 20
15620.0
 30
0.0
 11
4938.19096
 21
15689.833333
 31
0.0
  0
LINE
  5
67
  8
0
  6
BYBLOCK
 62
     9
 10
4938.19096
 20
15867.0
 30
0.0
 11
4938.19096
 21
15797.166667
 31
0.0
  0
SOLID
  5
68
  8
0
  6
BYBLOCK
 62
     9
 10
4934.857627
 20
15620.0
 30
0.0
 11
4941.524294
 21
15620.0
 31
0.0
 12
4938.19096
 22
15600.0
 32
0.0
 13
4938.19096
 23
15600.0
 33
0.0
  0
SOLID
  5
69
  8
0
  6
BYBLOCK
 62
     9
 10
4934.857627
 20
15867.0
 30
0.0
 11
4941.524294
 21
15867.0
 31
0.0
 12
4938.19096
 22
15887.0
 32
0.0
 13
4938.19096
 23
15887.0
 33
0.0
  0
TEXT
  5
6A
  8
0
  6
BYBLOCK
 62
    11
 10
4955.69096
 20
15696.833333
 30
0.0
 40
35.0
  1
287
 50
90.0
  0
POINT
  5
6B
  8
DEFPOINTS
  6
BYBLOCK
 62
     0
 10
4900.0
 20
15600.0
 30
0.0
  0
POINT
  5
6C
  8
DEFPOINTS
  6
BYBLOCK
 62
     0
 10
4066.78938
 20
15887.0
 30
0.0
  0
POINT
  5
6D
  8
DEFPOINTS
  6
BYBLOCK
 62
     0
 10
4938.19096
 20
15887.0
 30
0.0
  0
ENDBLK
  5
6F
  8
0
  0
BLOCK
  8
0
  2
*D3
 70
     1
 10
0.0
 20
0.0
 30
0.0
  3
*D3
  1

  0
LINE
  5
79
  8
0
  6
BYBLOCK
 62
     9
 10
4900.0
 20
15590.0
 30
0.0
 11
4900.0
 21
15565.124142
 31
0.0
  0
LINE
  5
7A
  8
0
  6
BYBLOCK
 62
     9
 10
4000.0
 20
15838.0
 30
0.0
 11
4000.0
 21
15565.124142
 31
0.0
  0
LINE
  5
7B
  8
0
  6
BYBLOCK
 62
     9
 10
4880.0
 20
15566.124142
 30
0.0
 11
4497.833333
 21
15566.124142
 31
0.0
  0
LINE
  5
7C
  8
0
  6
BYBLOCK
 62
     9
 10
4020.0
 20
15566.124142
 30
0.0
 11
4402.166667
 21
15566.124142
 31
0.0
  0
SOLID
  5
7D
  8
0
  6
BYBLOCK
 62
     9
 10
4880.0
 20
15569.457476
 30
0.0
 11
4880.0
 21
15562.790809
 31
0.0
 12
4900.0
 22
15566.124142
 32
0.0
 13
4900.0
 23
15566.124142
 33
0.0
  0
SOLID
  5
7E
  8
0
  6
BYBLOCK
 62
     9
 10
4020.0
 20
15569.457476
 30
0.0
 11
4020.0
 21
15562.790809
 31
0.0
 12
4000.0
 22
15566.124142
 32
0.0
 13
4000.0
 23
15566.124142
 33
0.0
  0
TEXT
  5
7F
  8
0
  6
BYBLOCK
 62
    11
 10
4409.166667
 20
15548.624142
 30
0.0
 40
35.0
  1
900
  0
POINT
  5
80
  8
DEFPOINTS
  6
BYBLOCK
 62
     0
 10
4900.0
 20
15600.0
 30
0.0
  0
POINT
  5
81
  8
DEFPOINTS
  6
BYBLOCK
 62
     0
 10
4000.0
 20
15848.0
 30
0.0
  0
POINT
  5
82
  8
DEFPOINTS
  6
BYBLOCK
 62
     0
 10
4000.0
 20
15566.124142
 30
0.0
  0
ENDBLK
  5
84
  8
0
  0
ENDSEC
  0
SECTION
  2
ENTITIES
  0
LINE
  5
20
  8
TEAM-BODY
 10
-500.0
 20
400.0
 30
0.0
 11
500.0
 21
400.0
 31
0.0
  0
LINE
  5
22
  8
TEAM-BODY
 10
-500.0
 20
-400.0
 30
0.0
 11
500.0
 21
-400.0
 31
0.0
  0
DIMENSION
  5
23
  8
TEAM-MAS
  2
*D0
 10
-900.0
 20
-467.585257
 30
0.0
 11
0.0
 21
-467.585257
 31
0.0
 12
-4000.0
 22
-16000.0
 32
0.0
 13
900.0
 23
-400.0
 33
0.0
 14
-900.0
 24
0.0
 34
0.0
1001
ACAD
1000
DSTYLE
1002
{
1070
    40
1040
1.0
1002
}
  0
LINE
  5
32
  8
TEAM-DET1
 10
-250.0
 20
300.0
 30
0.0
 11
250.0
 21
300.0
 31
0.0
  0
LINE
  5
34
  8
TEAM-BODY
 10
-406.0
 20
-219.0
 30
0.0
 11
406.0
 21
-219.0
 31
0.0
  0
LINE
  5
35
  8
TEAM-BODY
 10
-406.0
 20
219.0
 30
0.0
 11
406.0
 21
219.0
 31
0.0
  0
LINE
  5
36
  8
TEAM-DET1
 10
-250.0
 20
-300.0
 30
0.0
 11
250.0
 21
-300.0
 31
0.0
  0
ARC
  5
37
  8
TEAM-DET1
 10
-379.18901
 20
-6.006296
 30
0.0
 40
291.309286
 50
178.818576
 51
270.36492
  0
ARC
  5
38
  8
TEAM-DET1
 10
-379.18901
 20
6.006296
 30
0.0
 40
291.309286
 50
89.63508
 51
181.181424
  0
ARC
  5
39
  8
TEAM-DET1
 10
-250.0
 20
749.184211
 30
0.0
 40
449.184211
 50
239.762516
 51
270.0
  0
ARC
  5
3A
  8
TEAM-DET1
 10
-250.0
 20
-749.184211
 30
0.0
 40
449.184211
 50
90.0
 51
120.237484
  0
ARC
  5
3B
  8
TEAM-BODY
 10
-406.0
 20
0.0
 30
0.0
 40
219.0
 50
90.0
 51
270.0
  0
ARC
  5
3C
  8
TEAM-DET1
 10
-500.0
 20
0.0
 30
0.0
 40
376.0
 50
95.52245
 51
264.47755
  0
ARC
  5
3D
  8
TEAM-BODY
 10
-500.0
 20
0.0
 30
0.0
 40
400.0
 50
90.0
 51
270.0
  0
POLYLINE
  5
3E
  8
TEAM-BODY
 66
     1
 10
0.0
 20
0.0
 30
0.0
  0
VERTEX
  5
125
  8
TEAM-BODY
 10
-500.0
 20
-400.0
 30
0.0
  0
VERTEX
  5
126
  8
TEAM-BODY
 10
-900.0
 20
-400.0
 30
0.0
  0
VERTEX
  5
127
  8
TEAM-BODY
 10
-900.0
 20
400.0
 30
0.0
  0
VERTEX
  5
128
  8
TEAM-BODY
 10
-500.0
 20
400.0
 30
0.0
  0
SEQEND
  5
129
  8
TEAM-BODY
  0
DIMENSION
  5
3F
  8
TEAM-MAS
  2
*D1
 10
-941.051382
 20
400.0
 30
0.0
 11
-941.051382
 21
0.0
 31
0.0
 12
-4000.0
 22
-16000.0
 32
0.0
 13
-900.0
 23
-400.0
 33
0.0
 14
-900.0
 24
400.0
 34
0.0
 50
90.0
1001
ACAD
1000
DSTYLE
1002
{
1070
    40
1040
1.0
1002
}
  0
ARC
  5
4D
  8
TEAM-DET1
 10
-526.561074
 20
274.718964
 30
0.0
 40
100.0
 50
59.762516
 51
95.52245
  0
ARC
  5
4E
  8
TEAM-DET1
 10
-526.561074
 20
-274.718964
 30
0.0
 40
100.0
 50
264.47755
 51
300.237484
  0
ARC
  5
4F
  8
TEAM-DET1
 10
-257.530534
 20
-2170.536782
 30
0.0
 40
2470.752702
 50
89.82537
 51
92.779277
  0
ARC
  5
50
  8
TEAM-DET1
 10
-257.530534
 20
2170.536782
 30
0.0
 40
2470.752702
 50
267.220723
 51
270.17463
  0
TEXT
  5
51
  8
TEAM-TXT
 10
-406.970937
 20
144.456502
 30
0.0
 40
30.0
  1
team 121066
 41
0.8
 51
15.0
  7
TEAM
  0
ARC
  5
54
  8
TEAM-DET1
 10
500.0
 20
0.0
 30
0.0
 40
376.0
 50
275.52245
 51
84.47755
  0
CIRCLE
  5
55
  8
TEAM-INSP
 10
0.0
 20
0.0
 30
0.0
 40
10.0
  0
LINE
  5
57
  8
TEAM-AXE
 10
-66.789381
 20
-113.0
 30
0.0
 11
66.78938
 21
-113.0
 31
0.0
  0
CIRCLE
  5
5A
  8
TEAM-KAN
 10
0.0
 20
-113.0
 30
0.0
 40
26.0
  0
CIRCLE
  5
5C
  8
TEAM-DET1
 10
0.0
 20
-113.0
 30
0.0
 40
52.0
  0
POLYLINE
  5
5D
  8
TEAM-KAN
 66
     1
 10
0.0
 20
0.0
 30
0.0
 70
     1
  0
VERTEX
  5
12A
  8
TEAM-KAN
 10
-30.000299
 20
-283.46847
 30
0.0
  0
VERTEX
  5
12B
  8
TEAM-KAN
 10
-29.630946
 20
-284.246846
 30
0.0
  0
VERTEX
  5
12C
  8
TEAM-KAN
 10
-28.53198
 20
-285.006056
 30
0.0
  0
VERTEX
  5
12D
  8
TEAM-KAN
 10
-26.730462
 20
-285.727405
 30
0.0
  0
VERTEX
  5
12E
  8
TEAM-KAN
 10
-24.270752
 20
-286.393132
 30
0.0
  0
VERTEX
  5
12F
  8
TEAM-KAN
 10
-21.213415
 20
-286.986845
 30
0.0
  0
VERTEX
  5
130
  8
TEAM-KAN
 10
-17.633734
 20
-287.493923
 30
0.0
  0
VERTEX
  5
131
  8
TEAM-KAN
 10
-13.619851
 20
-287.901881
 30
0.0
  0
VERTEX
  5
132
  8
TEAM-KAN
 10
-9.270603
 20
-288.200673
 30
0.0
  0
VERTEX
  5
133
  8
TEAM-KAN
 10
-4.693081
 20
-288.382944
 30
0.0
  0
VERTEX
  5
134
  8
TEAM-KAN
 10
0.0
 20
-288.444203
 30
0.0
  0
VERTEX
  5
135
  8
TEAM-KAN
 10
4.69308
 20
-288.382944
 30
0.0
  0
VERTEX
  5
136
  8
TEAM-KAN
 10
9.270602
 20
-288.200673
 30
0.0
  0
VERTEX
  5
137
  8
TEAM-KAN
 10
13.61985
 20
-287.901881
 30
0.0
  0
VERTEX
  5
138
  8
TEAM-KAN
 10
17.633733
 20
-287.493923
 30
0.0
  0
VERTEX
  5
139
  8
TEAM-KAN
 10
21.213414
 20
-286.986845
 30
0.0
  0
VERTEX
  5
13A
  8
TEAM-KAN
 10
24.270751
 20
-286.393132
 30
0.0
  0
VERTEX
  5
13B
  8
TEAM-KAN
 10
26.730462
 20
-285.727405
 30
0.0
  0
VERTEX
  5
13C
  8
TEAM-KAN
 10
28.531979
 20
-285.006056
 30
0.0
  0
VERTEX
  5
13D
  8
TEAM-KAN
 10
29.630945
 20
-284.246846
 30
0.0
  0
VERTEX
  5
13E
  8
TEAM-KAN
 10
30.000298
 20
-283.46847
 30
0.0
  0
VERTEX
  5
13F
  8
TEAM-KAN
 10
29.630945
 20
-282.690093
 30
0.0
  0
VERTEX
  5
140
  8
TEAM-KAN
 10
28.531979
 20
-281.930883
 30
0.0
  0
VERTEX
  5
141
  8
TEAM-KAN
 10
26.730462
 20
-281.209534
 30
0.0
  0
VERTEX
  5
142
  8
TEAM-KAN
 10
24.270751
 20
-280.543807
 30
0.0
  0
VERTEX
  5
143
  8
TEAM-KAN
 10
21.213414
 20
-279.950095
 30
0.0
  0
VERTEX
  5
144
  8
TEAM-KAN
 10
17.633733
 20
-279.443017
 30
0.0
  0
VERTEX
  5
145
  8
TEAM-KAN
 10
13.61985
 20
-279.035059
 30
0.0
  0
VERTEX
  5
146
  8
TEAM-KAN
 10
9.270602
 20
-278.736266
 30
0.0
  0
VERTEX
  5
147
  8
TEAM-KAN
 10
4.69308
 20
-278.553996
 30
0.0
  0
VERTEX
  5
148
  8
TEAM-KAN
 10
0.0
 20
-278.492736
 30
0.0
  0
VERTEX
  5
149
  8
TEAM-KAN
 10
-4.693081
 20
-278.553996
 30
0.0
  0
VERTEX
  5
14A
  8
TEAM-KAN
 10
-9.270603
 20
-278.736266
 30
0.0
  0
VERTEX
  5
14B
  8
TEAM-KAN
 10
-13.619851
 20
-279.035059
 30
0.0
  0
VERTEX
  5
14C
  8
TEAM-KAN
 10
-17.633734
 20
-279.443017
 30
0.0
  0
VERTEX
  5
14D
  8
TEAM-KAN
 10
-21.213415
 20
-279.950095
 30
0.0
  0
VERTEX
  5
14E
  8
TEAM-KAN
 10
-24.270752
 20
-280.543807
 30
0.0
  0
VERTEX
  5
14F
  8
TEAM-KAN
 10
-26.730462
 20
-281.209534
 30
0.0
  0
VERTEX
  5
150
  8
TEAM-KAN
 10
-28.53198
 20
-281.930883
 30
0.0
  0
VERTEX
  5
151
  8
TEAM-KAN
 10
-29.630946
 20
-282.690093
 30
0.0
  0
SEQEND
  5
152
  8
TEAM-KAN
  0
ARC
  5
5E
  8
TEAM-DET1
 10
257.530534
 20
-2170.536782
 30
0.0
 40
2470.752702
 50
87.220723
 51
90.17463
  0
ARC
  5
5F
  8
TEAM-DET1
 10
250.0
 20
749.184211
 30
0.0
 40
449.184211
 50
270.0
 51
300.237484
  0
ARC
  5
60
  8
TEAM-DET1
 10
250.0
 20
-749.184211
 30
0.0
 40
449.184211
 50
59.762516
 51
90.0
  0
ARC
  5
61
  8
TEAM-DET1
 10
257.530534
 20
2170.536782
 30
0.0
 40
2470.752702
 50
269.82537
 51
272.779277
  0
DIMENSION
  5
62
  8
TEAM-MAS
  2
*D2
 10
938.19096
 20
-113.0
 30
0.0
 11
938.19096
 21
-256.5
 31
0.0
 12
-4000.0
 22
-16000.0
 32
0.0
 13
900.0
 23
-400.0
 33
0.0
 14
66.78938
 24
-113.0
 34
0.0
 50
90.0
1001
ACAD
1000
DSTYLE
1002
{
1070
    40
1040
1.0
1002
}
  0
ARC
  5
70
  8
TEAM-DET1
 10
379.18901
 20
6.006296
 30
0.0
 40
291.309286
 50
358.818576
 51
90.36492
  0
ARC
  5
71
  8
TEAM-DET1
 10
526.561073
 20
274.718964
 30
0.0
 40
100.0
 50
84.47755
 51
120.237484
  0
ARC
  5
72
  8
TEAM-BODY
 10
406.0
 20
0.0
 30
0.0
 40
219.0
 50
270.0
 51
90.0
  0
ARC
  5
73
  8
TEAM-DET1
 10
526.561073
 20
-274.718964
 30
0.0
 40
100.0
 50
239.762516
 51
275.52245
  0
ARC
  5
74
  8
TEAM-DET1
 10
379.18901
 20
-6.006296
 30
0.0
 40
291.309286
 50
269.63508
 51
1.181424
  0
ARC
  5
75
  8
TEAM-BODY
 10
500.0
 20
0.0
 30
0.0
 40
400.0
 50
270.0
 51
90.0
  0
POLYLINE
  5
76
  8
TEAM-BODY
 66
     1
 10
0.0
 20
0.0
 30
0.0
  0
VERTEX
  5
153
  8
TEAM-BODY
 10
500.0
 20
400.0
 30
0.0
  0
VERTEX
  5
154
  8
TEAM-BODY
 10
900.0
 20
400.0
 30
0.0
  0
VERTEX
  5
155
  8
TEAM-BODY
 10
900.0
 20
-400.0
 30
0.0
  0
VERTEX
  5
156
  8
TEAM-BODY
 10
510.0
 20
-400.0
 30
0.0
  0
SEQEND
  5
157
  8
TEAM-BODY
  0
DIMENSION
  5
77
  8
TEAM-MAS
  2
*D3
 10
0.0
 20
-433.875858
 30
0.0
 11
450.0
 21
-433.875858
 31
0.0
 12
-4000.0
 22
-16000.0
 32
0.0
 13
900.0
 23
-400.0
 33
0.0
 14
0.0
 24
-152.0
 34
0.0
1001
ACAD
1000
DSTYLE
1002
{
1070
    40
1040
1.0
1002
}
  0
LINE
  5
85
  8
TEAM-AXE
 10
0.0
 20
-427.312794
 30
0.0
 11
0.0
 21
440.890449
 31
0.0
  0
ENDSEC
  0
EOF
