  0
SECTION
  2
HEADER
  9
$ACADVER
  1
AC1009
  9
$INSBASE
 10
0.0
 20
0.0
 30
0.0
  9
$EXTMIN
 10
-401.271506
 20
-10.00815
 30
-0.000006
  9
$EXTMAX
 10
500.684654
 20
647.091931
 30
0.000002
  9
$LIMMIN
 10
-401.271506
 20
-10.00815
  9
$LIMMAX
 10
500.684654
 20
647.091931
  9
$ORTHOMODE
 70
     1
  9
$REGENMODE
 70
     1
  9
$FILLMODE
 70
     1
  9
$QTEXTMODE
 70
     0
  9
$MIRRTEXT
 70
     0
  9
$DRAGMODE
 70
     2
  9
$LTSCALE
 40
50.0
  9
$OSMODE
 70
     7
  9
$ATTMODE
 70
     1
  9
$TEXTSIZE
 40
200.0
  9
$TRACEWID
 40
1.0
  9
$TEXTSTYLE
  7
STANDARD
  9
$CLAYER
  8
TEAM-MAS
  9
$CELTYPE
  6
BYLAYER
  9
$CECOLOR
 62
   256
  9
$DIMSCALE
 40
0.0
  9
$DIMASZ
 40
20.0
  9
$DIMEXO
 40
10.0
  9
$DIMDLI
 40
1.0
  9
$DIMRND
 40
0.0
  9
$DIMDLE
 40
0.0
  9
$DIMEXE
 40
1.0
  9
$DIMTP
 40
0.0
  9
$DIMTM
 40
0.0
  9
$DIMTXT
 40
35.0
  9
$DIMCEN
 40
1.0
  9
$DIMTSZ
 40
0.0
  9
$DIMTOL
 70
     0
  9
$DIMLIM
 70
     0
  9
$DIMTIH
 70
     0
  9
$DIMTOH
 70
     0
  9
$DIMSE1
 70
     0
  9
$DIMSE2
 70
     0
  9
$DIMTAD
 70
     0
  9
$DIMZIN
 70
     0
  9
$DIMBLK
  1

  9
$DIMASO
 70
     1
  9
$DIMSHO
 70
     0
  9
$DIMPOST
  1

  9
$DIMAPOST
  1

  9
$DIMALT
 70
     0
  9
$DIMALTD
 70
     2
  9
$DIMALTF
 40
25.4
  9
$DIMLFAC
 40
1.0
  9
$DIMTOFL
 70
     0
  9
$DIMTVP
 40
0.0
  9
$DIMTIX
 70
     0
  9
$DIMSOXD
 70
     0
  9
$DIMSAH
 70
     0
  9
$DIMBLK1
  1

  9
$DIMBLK2
  1

  9
$DIMSTYLE
  2
TEAM
  9
$DIMCLRD
 70
     9
  9
$DIMCLRE
 70
     9
  9
$DIMCLRT
 70
    11
  9
$DIMTFAC
 40
1.0
  9
$DIMGAP
 40
7.0
  9
$LUNITS
 70
     2
  9
$LUPREC
 70
     1
  9
$SKETCHINC
 40
1.0
  9
$FILLETRAD
 40
65.0
  9
$AUNITS
 70
     0
  9
$AUPREC
 70
     0
  9
$MENU
  1
ROPLANS
  9
$ELEVATION
 40
0.0
  9
$PELEVATION
 40
0.0
  9
$THICKNESS
 40
0.0
  9
$LIMCHECK
 70
     0
  9
$BLIPMODE
 70
     1
  9
$CHAMFERA
 40
0.0
  9
$CHAMFERB
 40
0.0
  9
$SKPOLY
 70
     0
  9
$TDCREATE
 40
2450392.957851
  9
$TDUPDATE
 40
2455972.778238
  9
$TDINDWG
 40
2.587187
  9
$TDUSRTIMER
 40
2.587187
  9
$USRTIMER
 70
     1
  9
$ANGBASE
 50
0.0
  9
$ANGDIR
 70
     0
  9
$PDMODE
 70
     0
  9
$PDSIZE
 40
0.0
  9
$PLINEWID
 40
0.0
  9
$COORDS
 70
     2
  9
$SPLFRAME
 70
     0
  9
$SPLINETYPE
 70
     6
  9
$SPLINESEGS
 70
     8
  9
$ATTDIA
 70
     0
  9
$ATTREQ
 70
     0
  9
$HANDLING
 70
     1
  9
$HANDSEED
  5
AE
  9
$SURFTAB1
 70
    24
  9
$SURFTAB2
 70
    24
  9
$SURFTYPE
 70
     6
  9
$SURFU
 70
     6
  9
$SURFV
 70
     6
  9
$UCSNAME
  2

  9
$UCSORG
 10
0.0
 20
0.0
 30
0.0
  9
$UCSXDIR
 10
1.0
 20
0.0
 30
0.0
  9
$UCSYDIR
 10
0.0
 20
1.0
 30
0.0
  9
$PUCSNAME
  2

  9
$PUCSORG
 10
0.0
 20
0.0
 30
0.0
  9
$PUCSXDIR
 10
1.0
 20
0.0
 30
0.0
  9
$PUCSYDIR
 10
0.0
 20
1.0
 30
0.0
  9
$USERI1
 70
     0
  9
$USERI2
 70
     0
  9
$USERI3
 70
     0
  9
$USERI4
 70
     0
  9
$USERI5
 70
     0
  9
$USERR1
 40
0.0
  9
$USERR2
 40
0.0
  9
$USERR3
 40
0.0
  9
$USERR4
 40
0.0
  9
$USERR5
 40
0.0
  9
$WORLDVIEW
 70
     1
  9
$SHADEDGE
 70
     0
  9
$SHADEDIF
 70
    70
  9
$TILEMODE
 70
     1
  9
$MAXACTVP
 70
    16
  9
$PLIMCHECK
 70
     0
  9
$PEXTMIN
 10
-0.805942
 20
0.005011
 30
0.0
  9
$PEXTMAX
 10
20.250094
 20
11.356329
 30
0.0
  9
$PLIMMIN
 10
0.0
 20
0.0
  9
$PLIMMAX
 10
12.0
 20
9.0
  9
$UNITMODE
 70
     0
  9
$VISRETAIN
 70
     0
  9
$PLINEGEN
 70
     0
  9
$PSLTSCALE
 70
     0
  0
ENDSEC
  0
SECTION
  2
TABLES
  0
TABLE
  2
VPORT
 70
     2
  0
VPORT
  2
*ACTIVE
 70
     0
 10
0.0
 20
0.0
 11
1.0
 21
1.0
 12
49.706574
 22
318.541891
 13
0.0
 23
0.0
 14
1.0
 24
1.0
 15
50.0
 25
50.0
 16
0.0
 26
0.0
 36
1.0
 17
0.0
 27
0.0
 37
0.0
 40
661.21983
 41
1.903766
 42
50.0
 43
0.0
 44
0.0
 50
0.0
 51
0.0
 71
     0
 72
   100
 73
     1
 74
     1
 75
     0
 76
     0
 77
     0
 78
     0
  0
ENDTAB
  0
TABLE
  2
LTYPE
 70
     1
  0
LTYPE
  2
CONTINUOUS
 70
     0
  3
Solid Line
 72
    65
 73
     0
 40
0.0
  0
ENDTAB
  0
TABLE
  2
LAYER
 70
     7
  0
LAYER
  2
0
 70
     0
 62
     7
  6
CONTINUOUS
  0
LAYER
  2
DEFPOINTS
 70
     0
 62
     7
  6
CONTINUOUS
  0
LAYER
  2
TEAM-BODY
 70
     0
 62
     2
  6
CONTINUOUS
  0
LAYER
  2
TEAM-MAS
 70
     0
 62
     9
  6
CONTINUOUS
  0
LAYER
  2
TEAM-TXT
 70
     0
 62
    11
  6
CONTINUOUS
  0
LAYER
  2
TEAM-KAN
 70
     0
 62
     6
  6
CONTINUOUS
  0
LAYER
  2
TEAM-INSP
 70
     0
 62
     5
  6
CONTINUOUS
  0
ENDTAB
  0
TABLE
  2
STYLE
 70
     2
  0
STYLE
  2
STANDARD
 70
     0
 40
0.0
 41
1.0
 50
0.0
 71
     0
 42
200.0
  3
txt
  4

  0
STYLE
  2
TEAM
 70
     0
 40
0.0
 41
0.8
 50
15.0
 71
     0
 42
7.0
  3
ROMANS.shx
  4

  0
ENDTAB
  0
TABLE
  2
VIEW
 70
     0
  0
ENDTAB
  0
TABLE
  2
UCS
 70
     0
  0
ENDTAB
  0
TABLE
  2
APPID
 70
     1
  0
APPID
  2
ACAD
 70
     0
  0
ENDTAB
  0
TABLE
  2
DIMSTYLE
 70
     1
  0
DIMSTYLE
  2
TEAM
 70
     0
  3

  4

  5

  6

  7

 40
0.0
 41
20.0
 42
10.0
 43
1.0
 44
1.0
 45
0.0
 46
0.0
 47
0.0
 48
0.0
140
35.0
141
1.0
142
0.0
143
25.4
144
1.0
145
0.0
146
1.0
147
7.0
 71
     0
 72
     0
 73
     0
 74
     0
 75
     0
 76
     0
 77
     0
 78
     0
170
     0
171
     2
172
     0
173
     0
174
     0
175
     0
176
     9
177
     9
178
    11
  0
ENDTAB
  0
ENDSEC
  0
SECTION
  2
BLOCKS
  0
BLOCK
  8
0
  2
$MODEL_SPACE
 70
     0
 10
0.0
 20
0.0
 30
0.0
  3
$MODEL_SPACE
  1

  0
ENDBLK
  5
A7
  8
0
  0
BLOCK
 67
     1
  8
0
  2
$PAPER_SPACE
 70
     0
 10
0.0
 20
0.0
 30
0.0
  3
$PAPER_SPACE
  1

  0
ENDBLK
  5
A5
 67
     1
  8
0
  0
BLOCK
  8
0
  2
*D0
 70
     1
 10
0.0
 20
0.0
 30
0.0
  3
*D0
  1

  0
LINE
  5
4D
  8
0
  6
BYBLOCK
 62
     9
 10
8404.505006
 20
16600.0
 30
0.0
 11
8436.469917
 21
16600.0
 31
0.0
  0
LINE
  5
4E
  8
0
  6
BYBLOCK
 62
     9
 10
8010.005
 20
16119.99714
 30
0.0
 11
8436.469917
 21
16119.99714
 31
0.0
  0
LINE
  5
4F
  8
0
  6
BYBLOCK
 62
     9
 10
8435.469917
 20
16580.0
 30
0.0
 11
8435.469917
 21
16410.74857
 31
0.0
  0
LINE
  5
50
  8
0
  6
BYBLOCK
 62
     9
 10
8435.469917
 20
16139.99714
 30
0.0
 11
8435.469917
 21
16309.24857
 31
0.0
  0
SOLID
  5
51
  8
0
  6
BYBLOCK
 62
     9
 10
8432.136583
 20
16580.0
 30
0.0
 11
8438.80325
 21
16580.0
 31
0.0
 12
8435.469917
 22
16600.0
 32
0.0
 13
8435.469917
 23
16600.0
 33
0.0
  0
SOLID
  5
52
  8
0
  6
BYBLOCK
 62
     9
 10
8432.136583
 20
16139.99714
 30
0.0
 11
8438.80325
 21
16139.99714
 31
0.0
 12
8435.469917
 22
16119.99714
 32
0.0
 13
8435.469917
 23
16119.99714
 33
0.0
  0
TEXT
  5
53
  8
0
  6
BYBLOCK
 62
    11
 10
8452.969917
 20
16316.24857
 30
0.0
 40
35.0
  1
480
 50
90.0
  0
POINT
  5
54
  8
DEFPOINTS
  6
BYBLOCK
 62
     0
 10
8394.505006
 20
16600.0
 30
0.0
  0
POINT
  5
55
  8
DEFPOINTS
  6
BYBLOCK
 62
     0
 10
8000.005
 20
16119.99714
 30
0.0
  0
POINT
  5
56
  8
DEFPOINTS
  6
BYBLOCK
 62
     0
 10
8435.469917
 20
16119.99714
 30
0.0
  0
ENDBLK
  5
58
  8
0
  0
BLOCK
  8
0
  2
*D1
 70
     1
 10
0.0
 20
0.0
 30
0.0
  3
*D1
  1

  0
LINE
  5
2E
  8
0
  6
BYBLOCK
 62
     9
 10
8400.000006
 20
16604.0
 30
0.0
 11
8400.000006
 21
16630.573033
 31
0.0
  0
LINE
  5
2F
  8
0
  6
BYBLOCK
 62
     9
 10
7599.999994
 20
16604.0
 30
0.0
 11
7599.999994
 21
16630.573033
 31
0.0
  0
LINE
  5
30
  8
0
  6
BYBLOCK
 62
     9
 10
8380.000006
 20
16629.573033
 30
0.0
 11
8047.833333
 21
16629.573033
 31
0.0
  0
LINE
  5
31
  8
0
  6
BYBLOCK
 62
     9
 10
7619.999994
 20
16629.573033
 30
0.0
 11
7952.166667
 21
16629.573033
 31
0.0
  0
SOLID
  5
32
  8
0
  6
BYBLOCK
 62
     9
 10
8380.000006
 20
16632.906366
 30
0.0
 11
8380.000006
 21
16626.239699
 31
0.0
 12
8400.000006
 22
16629.573033
 32
0.0
 13
8400.000006
 23
16629.573033
 33
0.0
  0
SOLID
  5
33
  8
0
  6
BYBLOCK
 62
     9
 10
7619.999994
 20
16632.906366
 30
0.0
 11
7619.999994
 21
16626.239699
 31
0.0
 12
7599.999994
 22
16629.573033
 32
0.0
 13
7599.999994
 23
16629.573033
 33
0.0
  0
TEXT
  5
34
  8
0
  6
BYBLOCK
 62
    11
 10
7959.166667
 20
16612.073033
 30
0.0
 40
35.0
  1
800
  0
POINT
  5
35
  8
DEFPOINTS
  6
BYBLOCK
 62
     0
 10
8400.000006
 20
16594.0
 30
0.0
  0
POINT
  5
37
  8
DEFPOINTS
  6
BYBLOCK
 62
     0
 10
7599.999994
 20
16594.0
 30
0.0
  0
POINT
  5
38
  8
DEFPOINTS
  6
BYBLOCK
 62
     0
 10
7599.999994
 20
16629.573033
 30
0.0
  0
ENDBLK
  5
3A
  8
0
  0
BLOCK
  8
0
  2
*D2
 70
     1
 10
0.0
 20
0.0
 30
0.0
  3
*D2
  1

  0
LINE
  5
3D
  8
0
  6
BYBLOCK
 62
     9
 10
8404.000006
 20
16600.0
 30
0.0
 11
8484.157294
 21
16600.0
 31
0.0
  0
LINE
  5
3E
  8
0
  6
BYBLOCK
 62
     9
 10
8010.0
 20
16000.0
 30
0.0
 11
8484.157294
 21
16000.0
 31
0.0
  0
LINE
  5
3F
  8
0
  6
BYBLOCK
 62
     9
 10
8483.157294
 20
16580.0
 30
0.0
 11
8483.157294
 21
16347.833333
 31
0.0
  0
LINE
  5
40
  8
0
  6
BYBLOCK
 62
     9
 10
8483.157294
 20
16020.0
 30
0.0
 11
8483.157294
 21
16252.166667
 31
0.0
  0
SOLID
  5
41
  8
0
  6
BYBLOCK
 62
     9
 10
8479.82396
 20
16580.0
 30
0.0
 11
8486.490627
 21
16580.0
 31
0.0
 12
8483.157294
 22
16600.0
 32
0.0
 13
8483.157294
 23
16600.0
 33
0.0
  0
SOLID
  5
42
  8
0
  6
BYBLOCK
 62
     9
 10
8479.82396
 20
16020.0
 30
0.0
 11
8486.490627
 21
16020.0
 31
0.0
 12
8483.157294
 22
16000.0
 32
0.0
 13
8483.157294
 23
16000.0
 33
0.0
  0
TEXT
  5
43
  8
0
  6
BYBLOCK
 62
    11
 10
8500.657294
 20
16259.166667
 30
0.0
 40
35.0
  1
600
 50
90.0
  0
POINT
  5
44
  8
DEFPOINTS
  6
BYBLOCK
 62
     0
 10
8394.000006
 20
16600.0
 30
0.0
  0
POINT
  5
45
  8
DEFPOINTS
  6
BYBLOCK
 62
     0
 10
8000.0
 20
16000.0
 30
0.0
  0
POINT
  5
46
  8
DEFPOINTS
  6
BYBLOCK
 62
     0
 10
8483.157294
 20
16000.0
 30
0.0
  0
ENDBLK
  5
48
  8
0
  0
BLOCK
  8
0
  2
*D3
 70
     1
 10
0.0
 20
0.0
 30
0.0
  3
*D3
  1

  0
LINE
  5
5B
  8
0
  6
BYBLOCK
 62
     9
 10
8026.0
 20
16099.219994
 30
0.0
 11
8026.0
 21
16066.225433
 31
0.0
  0
LINE
  5
5C
  8
0
  6
BYBLOCK
 62
     9
 10
7974.0
 20
16099.219994
 30
0.0
 11
7974.0
 21
16066.225433
 31
0.0
  0
LINE
  5
5D
  8
0
  6
BYBLOCK
 62
     9
 10
8046.0
 20
16067.225433
 30
0.0
 11
8066.0
 21
16067.225433
 31
0.0
  0
LINE
  5
5E
  8
0
  6
BYBLOCK
 62
     9
 10
7954.0
 20
16067.225433
 30
0.0
 11
7934.0
 21
16067.225433
 31
0.0
  0
TEXT
  5
5F
  8
0
  6
BYBLOCK
 62
    11
 10
8092.101161
 20
16049.725433
 30
0.0
 40
35.0
  1
52
  0
LINE
  5
60
  8
0
  6
BYBLOCK
 62
     9
 10
8026.0
 20
16067.225433
 30
0.0
 11
7974.0
 21
16067.225433
 31
0.0
  0
SOLID
  5
61
  8
0
  6
BYBLOCK
 62
     9
 10
8046.0
 20
16070.558767
 30
0.0
 11
8046.0
 21
16063.8921
 31
0.0
 12
8026.0
 22
16067.225433
 32
0.0
 13
8026.0
 23
16067.225433
 33
0.0
  0
SOLID
  5
62
  8
0
  6
BYBLOCK
 62
     9
 10
7954.0
 20
16070.558767
 30
0.0
 11
7954.0
 21
16063.8921
 31
0.0
 12
7974.0
 22
16067.225433
 32
0.0
 13
7974.0
 23
16067.225433
 33
0.0
  0
POINT
  5
63
  8
DEFPOINTS
  6
BYBLOCK
 62
     0
 10
8026.0
 20
16109.219994
 30
0.0
  0
POINT
  5
64
  8
DEFPOINTS
  6
BYBLOCK
 62
     0
 10
7974.0
 20
16109.219994
 30
0.0
  0
POINT
  5
65
  8
DEFPOINTS
  6
BYBLOCK
 62
     0
 10
7974.0
 20
16067.225433
 30
0.0
  0
ENDBLK
  5
67
  8
0
  0
ENDSEC
  0
SECTION
  2
ENTITIES
  0
LINE
  5
20
  8
TEAM-BODY
 10
400.000006
 20
594.0
 30
0.0
 11
400.000006
 21
546.0
 31
0.0
  0
ARC
  5
22
  8
TEAM-BODY
 10
394.000006
 20
546.0
 30
0.0
 40
6.0
 50
270.0
 51
0.0
  0
ARC
  5
23
  8
TEAM-BODY
 10
394.000006
 20
594.0
 30
0.0
 40
6.0
 50
0.0
 51
90.0
  0
TEXT
  5
24
  8
TEAM-TXT
 10
-289.687372
 20
487.75601
 30
0.0
 40
30.0
  1
team 121066
 41
0.8
 51
15.0
  7
TEAM
  0
CIRCLE
  5
27
  8
TEAM-INSP
 10
0.0
 20
0.0
 30
0.0
 40
10.0
  0
LINE
  5
29
  8
TEAM-BODY
 10
-400.000006
 20
594.0
 30
0.0
 11
-400.000006
 21
546.0
 31
0.0
  0
ARC
  5
2A
  8
TEAM-BODY
 10
-394.000006
 20
546.0
 30
0.0
 40
6.0
 50
180.0
 51
270.0
  0
ARC
  5
2B
  8
TEAM-BODY
 10
-394.000006
 20
594.0
 30
0.0
 40
6.0
 50
90.0
 51
180.0
  0
DIMENSION
  5
2C
  8
TEAM-MAS
  2
*D1
 10
-400.000006
 20
629.573033
 30
0.0
 11
0.0
 21
629.573033
 31
0.0
 12
-8000.0
 22
-16000.0
 32
0.0
 13
400.000006
 23
594.0
 33
0.0
 14
-400.000006
 24
594.0
 34
0.0
1001
ACAD
1000
DSTYLE
1002
{
1070
    40
1040
1.0
1002
}
  0
DIMENSION
  5
3B
  8
TEAM-MAS
  2
*D2
 10
483.157294
 20
0.0
 30
0.0
 11
483.157294
 21
300.0
 31
0.0
 12
-8000.0
 22
-16000.0
 32
0.0
 13
394.000006
 23
600.0
 33
0.0
 14
0.0
 24
0.0
 34
0.0
 50
90.0
1001
ACAD
1000
DSTYLE
1002
{
1070
    40
1040
1.0
1002
}
  0
LINE
  5
49
  8
TEAM-BODY
 10
-394.000006
 20
600.0
 30
0.0
 11
394.000006
 21
600.0
 31
0.0
  0
LINE
  5
4A
  8
TEAM-BODY
 10
394.000006
 20
540.0
 30
0.0
 11
-394.000006
 21
540.0
 31
0.0
  0
DIMENSION
  5
4B
  8
TEAM-MAS
  2
*D0
 10
435.469917
 20
119.99714
 30
0.0
 11
435.469917
 21
359.99857
 31
0.0
 12
-8000.0
 22
-16000.0
 32
0.0
 13
394.505006
 23
600.0
 33
0.0
 14
0.005
 24
119.99714
 34
0.0
 50
90.0
1001
ACAD
1000
DSTYLE
1002
{
1070
    40
1040
1.0
1002
}
  0
DIMENSION
  5
59
  8
TEAM-INSP
  2
*D3
 10
-26.0
 20
67.225433
 30
0.0
 11
121.267828
 21
67.225433
 31
0.0
 12
-8000.0
 22
-16000.0
 32
0.0
 70
   128
 13
26.0
 23
109.219994
 33
0.0
 14
-26.0
 24
109.219994
 34
0.0
1001
ACAD
1000
DSTYLE
1002
{
1070
    40
1040
1.0
1002
}
  0
ARC
  5
68
  8
TEAM-BODY
 10
45.714333
 20
1238.10865
 30
0.0
 40
1118.112285
 50
269.932562
 51
276.483522
  0
ARC
  5
69
  8
TEAM-BODY
 10
-45.693279
 20
1220.716923
 30
0.0
 40
1100.720557
 50
263.465403
 51
270.067928
  0
ARC
  5
6A
  8
TEAM-BODY
 10
-169.370003
 20
207.119995
 30
0.0
 40
80.000001
 50
191.0378
 51
268.5003
  0
ARC
  5
6B
  8
TEAM-BODY
 10
4523.156808
 20
1035.081497
 30
0.0
 40
4844.992376
 50
185.864958
 51
190.023461
  0
LINE
  5
6C
  8
TEAM-BODY
 10
-44.388301
 20
119.99714
 30
0.0
 11
44.398301
 21
119.99714
 31
0.0
  0
LINE
  5
6D
  8
TEAM-KAN
 10
-26.0
 20
109.219994
 30
0.0
 11
-26.0
 21
112.219994
 31
0.0
  0
LINE
  5
6F
  8
TEAM-KAN
 10
26.0
 20
109.219994
 30
0.0
 11
26.0
 21
112.219994
 31
0.0
  0
LINE
  5
70
  8
TEAM-KAN
 10
26.0
 20
109.219994
 30
0.0
 11
-26.0
 21
109.219994
 31
0.0
  0
ARC
  5
71
  8
TEAM-KAN
 10
25.143398
 20
127.313257
 30
0.0
 40
18.113529
 50
272.710569
 51
307.192542
  0
ARC
  5
72
  8
TEAM-KAN
 10
73.376569
 20
70.486642
 30
0.0
 40
56.452745
 50
118.716087
 51
131.326352
  0
ARC
  5
73
  8
TEAM-KAN
 10
-65.576052
 20
85.717585
 30
0.0
 40
39.354925
 50
43.646085
 51
60.576871
  0
ARC
  5
74
  8
TEAM-KAN
 10
-24.147355
 20
133.453922
 30
0.0
 40
24.304642
 50
237.816095
 51
265.628333
  0
ARC
  5
75
  8
TEAM-BODY
 10
-4523.156808
 20
1035.081497
 30
0.0
 40
4844.992376
 50
349.976539
 51
354.135042
  0
ARC
  5
76
  8
TEAM-BODY
 10
169.370003
 20
207.119995
 30
0.0
 40
80.000001
 50
271.4997
 51
348.9622
  0
ENDSEC
  0
EOF
