  0
SECTION
  2
HEADER
  9
$ACADVER
  1
AC1009
  9
$INSBASE
 10
0.0
 20
0.0
 30
0.0
  9
$EXTMIN
 10
-901.272274
 20
-10.037719
 30
-0.000006
  9
$EXTMAX
 10
946.486756
 20
657.428118
 30
0.000002
  9
$LIMMIN
 10
-901.272274
 20
-10.037719
  9
$LIMMAX
 10
946.486756
 20
657.428118
  9
$ORTHOMODE
 70
     1
  9
$REGENMODE
 70
     1
  9
$FILLMODE
 70
     1
  9
$QTEXTMODE
 70
     0
  9
$MIRRTEXT
 70
     0
  9
$DRAGMODE
 70
     2
  9
$LTSCALE
 40
50.0
  9
$OSMODE
 70
     7
  9
$ATTMODE
 70
     1
  9
$TEXTSIZE
 40
200.0
  9
$TRACEWID
 40
1.0
  9
$TEXTSTYLE
  7
STANDARD
  9
$CLAYER
  8
TEAM-MAS
  9
$CELTYPE
  6
BYLAYER
  9
$CECOLOR
 62
   256
  9
$DIMSCALE
 40
0.0
  9
$DIMASZ
 40
20.0
  9
$DIMEXO
 40
10.0
  9
$DIMDLI
 40
1.0
  9
$DIMRND
 40
0.0
  9
$DIMDLE
 40
0.0
  9
$DIMEXE
 40
1.0
  9
$DIMTP
 40
0.0
  9
$DIMTM
 40
0.0
  9
$DIMTXT
 40
35.0
  9
$DIMCEN
 40
1.0
  9
$DIMTSZ
 40
0.0
  9
$DIMTOL
 70
     0
  9
$DIMLIM
 70
     0
  9
$DIMTIH
 70
     0
  9
$DIMTOH
 70
     0
  9
$DIMSE1
 70
     0
  9
$DIMSE2
 70
     0
  9
$DIMTAD
 70
     0
  9
$DIMZIN
 70
     0
  9
$DIMBLK
  1

  9
$DIMASO
 70
     1
  9
$DIMSHO
 70
     0
  9
$DIMPOST
  1

  9
$DIMAPOST
  1

  9
$DIMALT
 70
     0
  9
$DIMALTD
 70
     2
  9
$DIMALTF
 40
25.4
  9
$DIMLFAC
 40
1.0
  9
$DIMTOFL
 70
     0
  9
$DIMTVP
 40
0.0
  9
$DIMTIX
 70
     0
  9
$DIMSOXD
 70
     0
  9
$DIMSAH
 70
     0
  9
$DIMBLK1
  1

  9
$DIMBLK2
  1

  9
$DIMSTYLE
  2
TEAM
  9
$DIMCLRD
 70
     9
  9
$DIMCLRE
 70
     9
  9
$DIMCLRT
 70
    11
  9
$DIMTFAC
 40
1.0
  9
$DIMGAP
 40
7.0
  9
$LUNITS
 70
     2
  9
$LUPREC
 70
     1
  9
$SKETCHINC
 40
1.0
  9
$FILLETRAD
 40
65.0
  9
$AUNITS
 70
     0
  9
$AUPREC
 70
     0
  9
$MENU
  1
ROPLANS
  9
$ELEVATION
 40
0.0
  9
$PELEVATION
 40
0.0
  9
$THICKNESS
 40
0.0
  9
$LIMCHECK
 70
     0
  9
$BLIPMODE
 70
     1
  9
$CHAMFERA
 40
0.0
  9
$CHAMFERB
 40
0.0
  9
$SKPOLY
 70
     0
  9
$TDCREATE
 40
2450392.957851
  9
$TDUPDATE
 40
2455972.778238
  9
$TDINDWG
 40
2.587187
  9
$TDUSRTIMER
 40
2.587187
  9
$USRTIMER
 70
     1
  9
$ANGBASE
 50
0.0
  9
$ANGDIR
 70
     0
  9
$PDMODE
 70
     0
  9
$PDSIZE
 40
0.0
  9
$PLINEWID
 40
0.0
  9
$COORDS
 70
     2
  9
$SPLFRAME
 70
     0
  9
$SPLINETYPE
 70
     6
  9
$SPLINESEGS
 70
     8
  9
$ATTDIA
 70
     0
  9
$ATTREQ
 70
     0
  9
$HANDLING
 70
     1
  9
$HANDSEED
  5
BF
  9
$SURFTAB1
 70
    24
  9
$SURFTAB2
 70
    24
  9
$SURFTYPE
 70
     6
  9
$SURFU
 70
     6
  9
$SURFV
 70
     6
  9
$UCSNAME
  2

  9
$UCSORG
 10
0.0
 20
0.0
 30
0.0
  9
$UCSXDIR
 10
1.0
 20
0.0
 30
0.0
  9
$UCSYDIR
 10
0.0
 20
1.0
 30
0.0
  9
$PUCSNAME
  2

  9
$PUCSORG
 10
0.0
 20
0.0
 30
0.0
  9
$PUCSXDIR
 10
1.0
 20
0.0
 30
0.0
  9
$PUCSYDIR
 10
0.0
 20
1.0
 30
0.0
  9
$USERI1
 70
     0
  9
$USERI2
 70
     0
  9
$USERI3
 70
     0
  9
$USERI4
 70
     0
  9
$USERI5
 70
     0
  9
$USERR1
 40
0.0
  9
$USERR2
 40
0.0
  9
$USERR3
 40
0.0
  9
$USERR4
 40
0.0
  9
$USERR5
 40
0.0
  9
$WORLDVIEW
 70
     1
  9
$SHADEDGE
 70
     0
  9
$SHADEDIF
 70
    70
  9
$TILEMODE
 70
     1
  9
$MAXACTVP
 70
    16
  9
$PLIMCHECK
 70
     0
  9
$PEXTMIN
 10
-0.805942
 20
0.005011
 30
0.0
  9
$PEXTMAX
 10
20.250094
 20
11.356329
 30
0.0
  9
$PLIMMIN
 10
0.0
 20
0.0
  9
$PLIMMAX
 10
12.0
 20
9.0
  9
$UNITMODE
 70
     0
  9
$VISRETAIN
 70
     0
  9
$PLINEGEN
 70
     0
  9
$PSLTSCALE
 70
     0
  0
ENDSEC
  0
SECTION
  2
TABLES
  0
TABLE
  2
VPORT
 70
     2
  0
VPORT
  2
*ACTIVE
 70
     0
 10
0.0
 20
0.0
 11
1.0
 21
1.0
 12
22.607241
 22
323.6952
 13
0.0
 23
0.0
 14
1.0
 24
1.0
 15
50.0
 25
50.0
 16
0.0
 26
0.0
 36
1.0
 17
0.0
 27
0.0
 37
0.0
 40
973.777491
 41
1.903766
 42
50.0
 43
0.0
 44
0.0
 50
0.0
 51
0.0
 71
     0
 72
   100
 73
     1
 74
     1
 75
     0
 76
     0
 77
     0
 78
     0
  0
ENDTAB
  0
TABLE
  2
LTYPE
 70
     2
  0
LTYPE
  2
CONTINUOUS
 70
     0
  3
Solid Line
 72
    65
 73
     0
 40
0.0
  0
LTYPE
  2
31
 70
     0
  3

 72
    65
 73
     4
 40
2.1
 49
1.5
 49
-0.3
 49
0.0
 49
-0.3
  0
ENDTAB
  0
TABLE
  2
LAYER
 70
    10
  0
LAYER
  2
0
 70
     0
 62
     7
  6
CONTINUOUS
  0
LAYER
  2
DEFPOINTS
 70
     0
 62
     7
  6
CONTINUOUS
  0
LAYER
  2
TEAM-BODY
 70
     0
 62
     2
  6
CONTINUOUS
  0
LAYER
  2
TEAM-AXE
 70
     0
 62
    10
  6
31
  0
LAYER
  2
TEAM-MAS
 70
     0
 62
     9
  6
CONTINUOUS
  0
LAYER
  2
TEAM-TXT
 70
     0
 62
    11
  6
CONTINUOUS
  0
LAYER
  2
TEAM-DET1
 70
     0
 62
     4
  6
CONTINUOUS
  0
LAYER
  2
TEAM-KAN
 70
     0
 62
     6
  6
CONTINUOUS
  0
LAYER
  2
TEAM-DET3
 70
     0
 62
    14
  6
CONTINUOUS
  0
LAYER
  2
TEAM-INSP
 70
     0
 62
     5
  6
CONTINUOUS
  0
ENDTAB
  0
TABLE
  2
STYLE
 70
     2
  0
STYLE
  2
STANDARD
 70
     0
 40
0.0
 41
1.0
 50
0.0
 71
     0
 42
200.0
  3
txt
  4

  0
STYLE
  2
TEAM
 70
     0
 40
0.0
 41
0.8
 50
15.0
 71
     0
 42
7.0
  3
ROMANS.shx
  4

  0
ENDTAB
  0
TABLE
  2
VIEW
 70
     0
  0
ENDTAB
  0
TABLE
  2
UCS
 70
     0
  0
ENDTAB
  0
TABLE
  2
APPID
 70
     1
  0
APPID
  2
ACAD
 70
     0
  0
ENDTAB
  0
TABLE
  2
DIMSTYLE
 70
     1
  0
DIMSTYLE
  2
TEAM
 70
     0
  3

  4

  5

  6

  7

 40
0.0
 41
20.0
 42
10.0
 43
1.0
 44
1.0
 45
0.0
 46
0.0
 47
0.0
 48
0.0
140
35.0
141
1.0
142
0.0
143
25.4
144
1.0
145
0.0
146
1.0
147
7.0
 71
     0
 72
     0
 73
     0
 74
     0
 75
     0
 76
     0
 77
     0
 78
     0
170
     0
171
     2
172
     0
173
     0
174
     0
175
     0
176
     9
177
     9
178
    11
  0
ENDTAB
  0
ENDSEC
  0
SECTION
  2
BLOCKS
  0
BLOCK
  8
0
  2
$MODEL_SPACE
 70
     0
 10
0.0
 20
0.0
 30
0.0
  3
$MODEL_SPACE
  1

  0
ENDBLK
  5
B8
  8
0
  0
BLOCK
 67
     1
  8
0
  2
$PAPER_SPACE
 70
     0
 10
0.0
 20
0.0
 30
0.0
  3
$PAPER_SPACE
  1

  0
ENDBLK
  5
B6
 67
     1
  8
0
  0
BLOCK
  8
0
  2
*D0
 70
     1
 10
0.0
 20
0.0
 30
0.0
  3
*D0
  1

  0
LINE
  5
39
  8
0
  6
BYBLOCK
 62
     9
 10
12904.844212
 20
16599.85
 30
0.0
 11
12929.954464
 21
16599.85
 31
0.0
  0
LINE
  5
3A
  8
0
  6
BYBLOCK
 62
     9
 10
12010.008401
 20
16119.848818
 30
0.0
 11
12929.954464
 21
16119.848818
 31
0.0
  0
LINE
  5
3B
  8
0
  6
BYBLOCK
 62
     9
 10
12928.954464
 20
16579.85
 30
0.0
 11
12928.954464
 21
16410.599409
 31
0.0
  0
LINE
  5
3C
  8
0
  6
BYBLOCK
 62
     9
 10
12928.954464
 20
16139.848818
 30
0.0
 11
12928.954464
 21
16309.099409
 31
0.0
  0
SOLID
  5
3D
  8
0
  6
BYBLOCK
 62
     9
 10
12925.621131
 20
16579.85
 30
0.0
 11
12932.287797
 21
16579.85
 31
0.0
 12
12928.954464
 22
16599.85
 32
0.0
 13
12928.954464
 23
16599.85
 33
0.0
  0
SOLID
  5
3E
  8
0
  6
BYBLOCK
 62
     9
 10
12925.621131
 20
16139.848818
 30
0.0
 11
12932.287797
 21
16139.848818
 31
0.0
 12
12928.954464
 22
16119.848818
 32
0.0
 13
12928.954464
 23
16119.848818
 33
0.0
  0
TEXT
  5
3F
  8
0
  6
BYBLOCK
 62
    11
 10
12946.454464
 20
16316.099409
 30
0.0
 40
35.0
  1
480
 50
90.0
  0
POINT
  5
40
  8
DEFPOINTS
  6
BYBLOCK
 62
     0
 10
12894.844212
 20
16599.85
 30
0.0
  0
POINT
  5
41
  8
DEFPOINTS
  6
BYBLOCK
 62
     0
 10
12000.008401
 20
16119.848818
 30
0.0
  0
POINT
  5
42
  8
DEFPOINTS
  6
BYBLOCK
 62
     0
 10
12928.954464
 20
16119.848818
 30
0.0
  0
ENDBLK
  5
44
  8
0
  0
BLOCK
  8
0
  2
*D1
 70
     1
 10
0.0
 20
0.0
 30
0.0
  3
*D1
  1

  0
LINE
  5
2A
  8
0
  6
BYBLOCK
 62
     9
 10
12900.0
 20
16549.848817
 30
0.0
 11
12900.0
 21
16632.820363
 31
0.0
  0
LINE
  5
2B
  8
0
  6
BYBLOCK
 62
     9
 10
11100.0
 20
16549.848817
 30
0.0
 11
11100.0
 21
16632.820363
 31
0.0
  0
LINE
  5
2C
  8
0
  6
BYBLOCK
 62
     9
 10
12880.0
 20
16631.820363
 30
0.0
 11
12059.5
 21
16631.820363
 31
0.0
  0
LINE
  5
2D
  8
0
  6
BYBLOCK
 62
     9
 10
11120.0
 20
16631.820363
 30
0.0
 11
11940.5
 21
16631.820363
 31
0.0
  0
SOLID
  5
2E
  8
0
  6
BYBLOCK
 62
     9
 10
12880.0
 20
16635.153697
 30
0.0
 11
12880.0
 21
16628.48703
 31
0.0
 12
12900.0
 22
16631.820363
 32
0.0
 13
12900.0
 23
16631.820363
 33
0.0
  0
SOLID
  5
2F
  8
0
  6
BYBLOCK
 62
     9
 10
11120.0
 20
16635.153697
 30
0.0
 11
11120.0
 21
16628.48703
 31
0.0
 12
11100.0
 22
16631.820363
 32
0.0
 13
11100.0
 23
16631.820363
 33
0.0
  0
TEXT
  5
30
  8
0
  6
BYBLOCK
 62
    11
 10
11947.5
 20
16614.320363
 30
0.0
 40
35.0
  1
1800
  0
POINT
  5
31
  8
DEFPOINTS
  6
BYBLOCK
 62
     0
 10
12900.0
 20
16539.848817
 30
0.0
  0
POINT
  5
33
  8
DEFPOINTS
  6
BYBLOCK
 62
     0
 10
11100.0
 20
16539.848817
 30
0.0
  0
POINT
  5
34
  8
DEFPOINTS
  6
BYBLOCK
 62
     0
 10
11100.0
 20
16631.820363
 30
0.0
  0
ENDBLK
  5
36
  8
0
  0
ENDSEC
  0
SECTION
  2
ENTITIES
  0
LINE
  5
20
  8
TEAM-BODY
 10
550.126603
 20
137.540608
 30
0.0
 11
51.743984
 21
119.848406
 31
0.0
  0
LINE
  5
22
  8
TEAM-BODY
 10
550.944461
 20
132.566492
 30
0.0
 11
51.921369
 21
114.851553
 31
0.0
  0
ARC
  5
23
  8
TEAM-DET1
 10
239.316983
 20
131.72988
 30
0.0
 40
466.241344
 50
24.460273
 51
88.687063
  0
LINE
  5
25
  8
TEAM-DET3
 10
169.313808
 20
99.939281
 30
0.0
 11
471.312999
 21
109.24036
 31
0.0
  0
LINE
  5
27
  8
TEAM-BODY
 10
890.0
 20
599.848817
 30
0.0
 11
0.0
 21
599.848817
 31
0.0
  0
DIMENSION
  5
28
  8
TEAM-MAS
  2
*D1
 10
-900.0
 20
631.820363
 30
0.0
 11
0.0
 21
631.820363
 31
0.0
 12
-12000.0
 22
-16000.0
 32
0.0
 13
900.0
 23
539.848817
 33
0.0
 14
-900.0
 24
539.848817
 34
0.0
1001
ACAD
1000
DSTYLE
1002
{
1070
    78
1070
     0
1070
    40
1040
1.0
1002
}
  0
DIMENSION
  5
37
  8
TEAM-MAS
  2
*D0
 10
928.954464
 20
119.848818
 30
0.0
 11
928.954464
 21
359.849409
 31
0.0
 12
-12000.0
 22
-16000.0
 32
0.0
 13
894.844212
 23
599.85
 33
0.0
 14
0.008401
 24
119.848818
 34
0.0
 50
90.0
1001
ACAD
1000
DSTYLE
1002
{
1070
    40
1040
1.0
1002
}
  0
LINE
  5
45
  8
TEAM-DET1
 10
250.0
 20
597.848817
 30
0.0
 11
0.0
 21
597.848817
 31
0.0
  0
CIRCLE
  5
46
  8
TEAM-INSP
 10
0.0
 20
0.0
 30
0.0
 40
10.0
  0
TEXT
  5
48
  8
TEAM-TXT
 10
-776.845713
 20
535.174154
 30
0.0
 40
30.0
  1
team 121066
 41
0.8
 51
15.0
  7
TEAM
  0
ARC
  5
4B
  8
TEAM-BODY
 10
-890.0
 20
572.240295
 30
0.0
 40
27.608522
 50
36.27462
 51
87.155285
  0
LINE
  5
4C
  8
TEAM-BODY
 10
-900.0
 20
539.848817
 30
0.0
 11
-838.184529
 21
539.848817
 31
0.0
  0
LINE
  5
4D
  8
TEAM-BODY
 10
-900.0
 20
539.848817
 30
0.0
 11
-899.12458
 21
590.001642
 31
0.0
  0
ARC
  5
4E
  8
TEAM-BODY
 10
-889.126103
 20
589.827118
 30
0.0
 40
10.0
 50
87.155285
 51
179.0
  0
ARC
  5
4F
  8
TEAM-BODY
 10
-889.126103
 20
589.827118
 30
0.0
 40
5.0
 50
87.155285
 51
179.0
  0
ARC
  5
50
  8
TEAM-BODY
 10
-890.0
 20
572.240295
 30
0.0
 40
22.608522
 50
36.27462
 51
87.155285
  0
LINE
  5
51
  8
TEAM-BODY
 10
-890.0
 20
599.848817
 30
0.0
 11
0.0
 21
599.848817
 31
0.0
  0
LINE
  5
52
  8
TEAM-DET1
 10
-250.0
 20
597.848817
 30
0.0
 11
0.0
 21
597.848817
 31
0.0
  0
LINE
  5
53
  8
TEAM-BODY
 10
-894.999239
 20
539.848817
 30
0.0
 11
-894.125341
 21
589.91438
 31
0.0
  0
LINE
  5
54
  8
TEAM-DET3
 10
169.313808
 20
99.939281
 30
0.0
 11
150.854415
 21
118.398674
 31
0.0
  0
ARC
  5
55
  8
TEAM-BODY
 10
52.233316
 20
109.860385
 30
0.0
 40
10.0
 50
92.804782
 51
120.0
  0
ARC
  5
56
  8
TEAM-BODY
 10
52.233316
 20
109.860385
 30
0.0
 40
5.0
 50
92.804782
 51
120.0
  0
LINE
  5
57
  8
TEAM-BODY
 10
-550.126604
 20
137.540608
 30
0.0
 11
-51.743985
 21
119.848406
 31
0.0
  0
LINE
  5
58
  8
TEAM-BODY
 10
-550.303988
 20
132.543755
 30
0.0
 11
-51.92137
 21
114.851553
 31
0.0
  0
LINE
  5
59
  8
TEAM-DET3
 10
-169.313809
 20
99.939281
 30
0.0
 11
-150.854416
 21
118.398674
 31
0.0
  0
LINE
  5
5A
  8
TEAM-DET3
 10
-169.313809
 20
99.939281
 30
0.0
 11
-471.313
 21
109.24036
 31
0.0
  0
LINE
  5
5B
  8
TEAM-DET3
 10
-471.313
 20
109.24036
 30
0.0
 11
-492.566769
 21
130.494128
 31
0.0
  0
ARC
  5
5C
  8
TEAM-BODY
 10
-679.609516
 20
305.3237
 30
0.0
 40
10.0
 50
15.0
 51
36.27462
  0
LINE
  5
5D
  8
TEAM-BODY
 10
-867.742274
 20
588.575046
 30
0.0
 11
-671.547612
 21
311.240261
 31
0.0
  0
LINE
  5
5E
  8
TEAM-BODY
 10
-669.950258
 20
307.91189
 30
0.0
 11
-644.151602
 21
211.629996
 31
0.0
  0
LINE
  5
5F
  8
TEAM-BODY
 10
-871.773226
 20
585.616766
 30
0.0
 11
-675.578564
 21
308.281981
 31
0.0
  0
ARC
  5
60
  8
TEAM-BODY
 10
-679.609516
 20
305.3237
 30
0.0
 40
5.0
 50
15.0
 51
36.27462
  0
LINE
  5
61
  8
TEAM-BODY
 10
-674.779887
 20
306.617795
 30
0.0
 11
-648.981231
 21
210.335901
 31
0.0
  0
ARC
  5
62
  8
TEAM-BODY
 10
-547.55902
 20
237.5119
 30
0.0
 40
100.0
 50
195.0
 51
268.0
  0
ARC
  5
63
  8
TEAM-BODY
 10
-547.55902
 20
237.5119
 30
0.0
 40
105.0
 50
195.0
 51
268.0
  0
ARC
  5
64
  8
TEAM-DET1
 10
-239.316983
 20
131.72988
 30
0.0
 40
466.241344
 50
91.312937
 51
155.539727
  0
LINE
  5
65
  8
TEAM-AXE
 10
0.0
 20
599.848817
 30
0.0
 11
0.0
 21
73.602894
 31
0.0
  0
LINE
  5
68
  8
TEAM-BODY
 10
28.09791
 20
101.699305
 30
0.0
 11
25.09791
 21
101.699305
 31
0.0
  0
LINE
  5
69
  8
TEAM-BODY
 10
25.09791
 20
105.740757
 30
0.0
 11
25.09791
 21
101.699305
 31
0.0
  0
LINE
  5
6A
  8
TEAM-BODY
 10
-25.097911
 20
105.740757
 30
0.0
 11
-25.097911
 21
101.699305
 31
0.0
  0
LINE
  5
6B
  8
TEAM-BODY
 10
-28.097911
 20
101.699305
 30
0.0
 11
-25.097911
 21
101.699305
 31
0.0
  0
LINE
  5
6C
  8
TEAM-BODY
 10
-47.233317
 20
118.520639
 30
0.0
 11
-25.097911
 21
105.740757
 31
0.0
  0
LINE
  5
6D
  8
TEAM-BODY
 10
-49.733317
 20
114.190512
 30
0.0
 11
-28.097911
 21
101.699305
 31
0.0
  0
ARC
  5
6E
  8
TEAM-BODY
 10
-52.233317
 20
109.860385
 30
0.0
 40
5.0
 50
60.0
 51
87.195218
  0
ARC
  5
6F
  8
TEAM-BODY
 10
-52.233317
 20
109.860385
 30
0.0
 40
10.0
 50
60.0
 51
87.195218
  0
LINE
  5
70
  8
TEAM-KAN
 10
-25.097911
 20
105.740757
 30
0.0
 11
25.09791
 21
105.740757
 31
0.0
  0
LINE
  5
72
  8
TEAM-KAN
 10
25.09791
 20
101.699305
 30
0.0
 11
-25.097911
 21
101.699305
 31
0.0
  0
LINE
  5
73
  8
TEAM-BODY
 10
-51.743985
 20
119.848406
 30
0.0
 11
51.760787
 21
119.849229
 31
0.0
  0
LINE
  5
74
  8
TEAM-BODY
 10
49.733316
 20
114.190512
 30
0.0
 11
28.09791
 21
101.699305
 31
0.0
  0
LINE
  5
75
  8
TEAM-BODY
 10
47.233316
 20
118.520639
 30
0.0
 11
25.09791
 21
105.740757
 31
0.0
  0
LINE
  5
76
  8
TEAM-BODY
 10
900.0
 20
539.848817
 30
0.0
 11
899.124579
 21
590.001642
 31
0.0
  0
ARC
  5
77
  8
TEAM-BODY
 10
889.126102
 20
589.827118
 30
0.0
 40
10.0
 50
1.0
 51
92.844715
  0
ARC
  5
78
  8
TEAM-BODY
 10
889.126102
 20
589.827118
 30
0.0
 40
5.0
 50
1.0
 51
92.844715
  0
LINE
  5
79
  8
TEAM-BODY
 10
894.999238
 20
539.848817
 30
0.0
 11
894.12534
 21
589.91438
 31
0.0
  0
LINE
  5
7A
  8
TEAM-DET3
 10
471.312999
 20
109.24036
 30
0.0
 11
492.566768
 21
130.494128
 31
0.0
  0
ARC
  5
7B
  8
TEAM-BODY
 10
547.559019
 20
237.5119
 30
0.0
 40
100.0
 50
272.0
 51
345.0
  0
ARC
  5
7C
  8
TEAM-BODY
 10
679.609516
 20
305.3237
 30
0.0
 40
10.0
 50
143.72538
 51
165.0
  0
LINE
  5
7D
  8
TEAM-BODY
 10
867.742273
 20
588.575046
 30
0.0
 11
671.547611
 21
311.240261
 31
0.0
  0
LINE
  5
7E
  8
TEAM-BODY
 10
669.950257
 20
307.91189
 30
0.0
 11
644.151601
 21
211.629996
 31
0.0
  0
ARC
  5
7F
  8
TEAM-BODY
 10
547.559019
 20
237.5119
 30
0.0
 40
105.0
 50
271.847669
 51
345.0
  0
LINE
  5
80
  8
TEAM-BODY
 10
674.779887
 20
306.617795
 30
0.0
 11
648.981231
 21
210.335901
 31
0.0
  0
ARC
  5
81
  8
TEAM-BODY
 10
679.609516
 20
305.3237
 30
0.0
 40
5.0
 50
143.72538
 51
165.0
  0
LINE
  5
82
  8
TEAM-BODY
 10
871.773225
 20
585.616766
 30
0.0
 11
675.578563
 21
308.281981
 31
0.0
  0
ARC
  5
83
  8
TEAM-BODY
 10
890.0
 20
572.240295
 30
0.0
 40
27.608522
 50
92.844715
 51
143.72538
  0
LINE
  5
84
  8
TEAM-BODY
 10
900.0
 20
539.848817
 30
0.0
 11
838.184528
 21
539.848817
 31
0.0
  0
ARC
  5
85
  8
TEAM-BODY
 10
890.0
 20
572.240295
 30
0.0
 40
22.608522
 50
92.844715
 51
143.72538
  0
ENDSEC
  0
EOF
