  0
SECTION
  2
HEADER
  9
$ACADVER
  1
AC1009
  9
$INSBASE
 10
0.0
 20
0.0
 30
0.0
  9
$EXTMIN
 10
-958.808977
 20
-535.681024
 30
-0.001526
  9
$EXTMAX
 10
956.006034
 20
452.13566
 30
0.0
  9
$LIMMIN
 10
-958.808977
 20
-535.681024
  9
$LIMMAX
 10
956.006034
 20
452.13566
  9
$ORTHOMODE
 70
     1
  9
$REGENMODE
 70
     1
  9
$FILLMODE
 70
     1
  9
$QTEXTMODE
 70
     0
  9
$MIRRTEXT
 70
     0
  9
$DRAGMODE
 70
     2
  9
$LTSCALE
 40
50.0
  9
$OSMODE
 70
     7
  9
$ATTMODE
 70
     1
  9
$TEXTSIZE
 40
200.0
  9
$TRACEWID
 40
1.0
  9
$TEXTSTYLE
  7
STANDARD
  9
$CLAYER
  8
TEAM-MAS
  9
$CELTYPE
  6
BYLAYER
  9
$CECOLOR
 62
   256
  9
$DIMSCALE
 40
0.0
  9
$DIMASZ
 40
20.0
  9
$DIMEXO
 40
10.0
  9
$DIMDLI
 40
1.0
  9
$DIMRND
 40
0.0
  9
$DIMDLE
 40
0.0
  9
$DIMEXE
 40
1.0
  9
$DIMTP
 40
0.0
  9
$DIMTM
 40
0.0
  9
$DIMTXT
 40
35.0
  9
$DIMCEN
 40
1.0
  9
$DIMTSZ
 40
0.0
  9
$DIMTOL
 70
     0
  9
$DIMLIM
 70
     0
  9
$DIMTIH
 70
     0
  9
$DIMTOH
 70
     0
  9
$DIMSE1
 70
     0
  9
$DIMSE2
 70
     0
  9
$DIMTAD
 70
     0
  9
$DIMZIN
 70
     0
  9
$DIMBLK
  1

  9
$DIMASO
 70
     1
  9
$DIMSHO
 70
     0
  9
$DIMPOST
  1

  9
$DIMAPOST
  1

  9
$DIMALT
 70
     0
  9
$DIMALTD
 70
     2
  9
$DIMALTF
 40
25.4
  9
$DIMLFAC
 40
1.0
  9
$DIMTOFL
 70
     0
  9
$DIMTVP
 40
0.0
  9
$DIMTIX
 70
     0
  9
$DIMSOXD
 70
     0
  9
$DIMSAH
 70
     0
  9
$DIMBLK1
  1

  9
$DIMBLK2
  1

  9
$DIMSTYLE
  2
TEAM
  9
$DIMCLRD
 70
     9
  9
$DIMCLRE
 70
     9
  9
$DIMCLRT
 70
    11
  9
$DIMTFAC
 40
1.0
  9
$DIMGAP
 40
7.0
  9
$LUNITS
 70
     2
  9
$LUPREC
 70
     1
  9
$SKETCHINC
 40
1.0
  9
$FILLETRAD
 40
9.5
  9
$AUNITS
 70
     0
  9
$AUPREC
 70
     0
  9
$MENU
  1
ROPLANS
  9
$ELEVATION
 40
0.0
  9
$PELEVATION
 40
0.0
  9
$THICKNESS
 40
0.0
  9
$LIMCHECK
 70
     0
  9
$BLIPMODE
 70
     1
  9
$CHAMFERA
 40
0.0
  9
$CHAMFERB
 40
0.0
  9
$SKPOLY
 70
     0
  9
$TDCREATE
 40
2450392.957851
  9
$TDUPDATE
 40
2455944.717343
  9
$TDINDWG
 40
3.569992
  9
$TDUSRTIMER
 40
3.569992
  9
$USRTIMER
 70
     1
  9
$ANGBASE
 50
0.0
  9
$ANGDIR
 70
     0
  9
$PDMODE
 70
     0
  9
$PDSIZE
 40
0.0
  9
$PLINEWID
 40
0.0
  9
$COORDS
 70
     2
  9
$SPLFRAME
 70
     0
  9
$SPLINETYPE
 70
     6
  9
$SPLINESEGS
 70
     8
  9
$ATTDIA
 70
     0
  9
$ATTREQ
 70
     0
  9
$HANDLING
 70
     1
  9
$HANDSEED
  5
134
  9
$SURFTAB1
 70
    24
  9
$SURFTAB2
 70
    24
  9
$SURFTYPE
 70
     6
  9
$SURFU
 70
     6
  9
$SURFV
 70
     6
  9
$UCSNAME
  2

  9
$UCSORG
 10
0.0
 20
0.0
 30
0.0
  9
$UCSXDIR
 10
1.0
 20
0.0
 30
0.0
  9
$UCSYDIR
 10
0.0
 20
1.0
 30
0.0
  9
$PUCSNAME
  2

  9
$PUCSORG
 10
0.0
 20
0.0
 30
0.0
  9
$PUCSXDIR
 10
1.0
 20
0.0
 30
0.0
  9
$PUCSYDIR
 10
0.0
 20
1.0
 30
0.0
  9
$USERI1
 70
     0
  9
$USERI2
 70
     0
  9
$USERI3
 70
     0
  9
$USERI4
 70
     0
  9
$USERI5
 70
     0
  9
$USERR1
 40
0.0
  9
$USERR2
 40
0.0
  9
$USERR3
 40
0.0
  9
$USERR4
 40
0.0
  9
$USERR5
 40
0.0
  9
$WORLDVIEW
 70
     1
  9
$SHADEDGE
 70
     0
  9
$SHADEDIF
 70
    70
  9
$TILEMODE
 70
     1
  9
$MAXACTVP
 70
    16
  9
$PLIMCHECK
 70
     0
  9
$PEXTMIN
 10
-0.805942
 20
0.005011
 30
0.0
  9
$PEXTMAX
 10
20.250094
 20
11.356329
 30
0.0
  9
$PLIMMIN
 10
0.0
 20
0.0
  9
$PLIMMAX
 10
12.0
 20
9.0
  9
$UNITMODE
 70
     0
  9
$VISRETAIN
 70
     0
  9
$PLINEGEN
 70
     0
  9
$PSLTSCALE
 70
     0
  0
ENDSEC
  0
SECTION
  2
TABLES
  0
TABLE
  2
VPORT
 70
     2
  0
VPORT
  2
*ACTIVE
 70
     0
 10
0.0
 20
0.0
 11
1.0
 21
1.0
 12
-1.401471
 22
-41.772682
 13
0.0
 23
0.0
 14
1.0
 24
1.0
 15
50.0
 25
50.0
 16
0.0
 26
0.0
 36
1.0
 17
0.0
 27
0.0
 37
0.0
 40
1009.116301
 41
1.903766
 42
50.0
 43
0.0
 44
0.0
 50
0.0
 51
0.0
 71
     0
 72
   100
 73
     1
 74
     1
 75
     0
 76
     0
 77
     0
 78
     0
  0
ENDTAB
  0
TABLE
  2
LTYPE
 70
     2
  0
LTYPE
  2
CONTINUOUS
 70
     0
  3
Solid Line
 72
    65
 73
     0
 40
0.0
  0
LTYPE
  2
31
 70
     0
  3

 72
    65
 73
     4
 40
2.1
 49
1.5
 49
-0.3
 49
0.0
 49
-0.3
  0
ENDTAB
  0
TABLE
  2
LAYER
 70
     9
  0
LAYER
  2
0
 70
     0
 62
     7
  6
CONTINUOUS
  0
LAYER
  2
DEFPOINTS
 70
     0
 62
     7
  6
CONTINUOUS
  0
LAYER
  2
TEAM-BODY
 70
     0
 62
     2
  6
CONTINUOUS
  0
LAYER
  2
TEAM-AXE
 70
     0
 62
    10
  6
31
  0
LAYER
  2
TEAM-MAS
 70
     0
 62
     9
  6
CONTINUOUS
  0
LAYER
  2
TEAM-TXT
 70
     0
 62
    11
  6
CONTINUOUS
  0
LAYER
  2
TEAM-DET1
 70
     0
 62
     4
  6
CONTINUOUS
  0
LAYER
  2
TEAM-DET3
 70
     0
 62
    14
  6
CONTINUOUS
  0
LAYER
  2
TEAM-INSP
 70
     0
 62
     5
  6
CONTINUOUS
  0
ENDTAB
  0
TABLE
  2
STYLE
 70
     2
  0
STYLE
  2
STANDARD
 70
     0
 40
0.0
 41
1.0
 50
0.0
 71
     0
 42
200.0
  3
txt
  4

  0
STYLE
  2
TEAM
 70
     0
 40
0.0
 41
0.8
 50
15.0
 71
     0
 42
7.0
  3
ROMANS.shx
  4

  0
ENDTAB
  0
TABLE
  2
VIEW
 70
     0
  0
ENDTAB
  0
TABLE
  2
UCS
 70
     0
  0
ENDTAB
  0
TABLE
  2
APPID
 70
     1
  0
APPID
  2
ACAD
 70
     0
  0
ENDTAB
  0
TABLE
  2
DIMSTYLE
 70
     1
  0
DIMSTYLE
  2
TEAM
 70
     0
  3

  4

  5

  6

  7

 40
0.0
 41
20.0
 42
10.0
 43
1.0
 44
1.0
 45
0.0
 46
0.0
 47
0.0
 48
0.0
140
35.0
141
1.0
142
0.0
143
25.4
144
1.0
145
0.0
146
1.0
147
7.0
 71
     0
 72
     0
 73
     0
 74
     0
 75
     0
 76
     0
 77
     0
 78
     0
170
     0
171
     2
172
     0
173
     0
174
     0
175
     0
176
     9
177
     9
178
    11
  0
ENDTAB
  0
ENDSEC
  0
SECTION
  2
BLOCKS
  0
BLOCK
  8
0
  2
$MODEL_SPACE
 70
     0
 10
0.0
 20
0.0
 30
0.0
  3
$MODEL_SPACE
  1

  0
ENDBLK
  5
104
  8
0
  0
BLOCK
 67
     1
  8
0
  2
$PAPER_SPACE
 70
     0
 10
0.0
 20
0.0
 30
0.0
  3
$PAPER_SPACE
  1

  0
ENDBLK
  5
102
 67
     1
  8
0
  0
BLOCK
  8
0
  2
*D0
 70
     1
 10
0.0
 20
0.0
 30
0.0
  3
*D0
  1

  0
LINE
  5
4A
  8
0
  6
BYBLOCK
 62
     9
 10
12902.384423
 20
15550.0
 30
0.0
 11
12939.447598
 21
15550.0
 31
0.0
  0
LINE
  5
4B
  8
0
  6
BYBLOCK
 62
     9
 10
12012.384423
 20
15830.0
 30
0.0
 11
12939.447598
 21
15830.0
 31
0.0
  0
LINE
  5
4C
  8
0
  6
BYBLOCK
 62
     9
 10
12938.447598
 20
15570.0
 30
0.0
 11
12938.447598
 21
15639.25
 31
0.0
  0
LINE
  5
4D
  8
0
  6
BYBLOCK
 62
     9
 10
12938.447598
 20
15810.0
 30
0.0
 11
12938.447598
 21
15740.75
 31
0.0
  0
SOLID
  5
4E
  8
0
  6
BYBLOCK
 62
     9
 10
12935.114265
 20
15570.0
 30
0.0
 11
12941.780931
 21
15570.0
 31
0.0
 12
12938.447598
 22
15550.0
 32
0.0
 13
12938.447598
 23
15550.0
 33
0.0
  0
SOLID
  5
4F
  8
0
  6
BYBLOCK
 62
     9
 10
12935.114265
 20
15810.0
 30
0.0
 11
12941.780931
 21
15810.0
 31
0.0
 12
12938.447598
 22
15830.0
 32
0.0
 13
12938.447598
 23
15830.0
 33
0.0
  0
TEXT
  5
50
  8
0
  6
BYBLOCK
 62
    11
 10
12955.947598
 20
15646.25
 30
0.0
 40
35.0
  1
280
 50
90.0
  0
POINT
  5
51
  8
DEFPOINTS
  6
BYBLOCK
 62
     0
 10
12892.384423
 20
15550.0
 30
0.0
  0
POINT
  5
52
  8
DEFPOINTS
  6
BYBLOCK
 62
     0
 10
12002.384423
 20
15830.0
 30
0.0
  0
POINT
  5
53
  8
DEFPOINTS
  6
BYBLOCK
 62
     0
 10
12938.447598
 20
15830.0
 30
0.0
  0
ENDBLK
  5
55
  8
0
  0
BLOCK
  8
0
  2
*D1
 70
     1
 10
0.0
 20
0.0
 30
0.0
  3
*D1
  1

  0
LINE
  5
3C
  8
0
  6
BYBLOCK
 62
     9
 10
12902.384423
 20
15990.0
 30
0.0
 11
12902.384423
 21
15513.431241
 31
0.0
  0
LINE
  5
3D
  8
0
  6
BYBLOCK
 62
     9
 10
12002.384423
 20
15820.0
 30
0.0
 11
12002.384423
 21
15513.431241
 31
0.0
  0
LINE
  5
3E
  8
0
  6
BYBLOCK
 62
     9
 10
12882.384423
 20
15514.431241
 30
0.0
 11
12500.217756
 21
15514.431241
 31
0.0
  0
LINE
  5
3F
  8
0
  6
BYBLOCK
 62
     9
 10
12022.384423
 20
15514.431241
 30
0.0
 11
12404.55109
 21
15514.431241
 31
0.0
  0
SOLID
  5
40
  8
0
  6
BYBLOCK
 62
     9
 10
12882.384423
 20
15517.764574
 30
0.0
 11
12882.384423
 21
15511.097907
 31
0.0
 12
12902.384423
 22
15514.431241
 32
0.0
 13
12902.384423
 23
15514.431241
 33
0.0
  0
SOLID
  5
41
  8
0
  6
BYBLOCK
 62
     9
 10
12022.384423
 20
15517.764574
 30
0.0
 11
12022.384423
 21
15511.097907
 31
0.0
 12
12002.384423
 22
15514.431241
 32
0.0
 13
12002.384423
 23
15514.431241
 33
0.0
  0
TEXT
  5
42
  8
0
  6
BYBLOCK
 62
    11
 10
12411.55109
 20
15496.931241
 30
0.0
 40
35.0
  1
900
  0
POINT
  5
43
  8
DEFPOINTS
  6
BYBLOCK
 62
     0
 10
12902.384423
 20
16000.0
 30
0.0
  0
POINT
  5
44
  8
DEFPOINTS
  6
BYBLOCK
 62
     0
 10
12002.384423
 20
15830.0
 30
0.0
  0
POINT
  5
45
  8
DEFPOINTS
  6
BYBLOCK
 62
     0
 10
12002.384423
 20
15514.431241
 30
0.0
  0
ENDBLK
  5
47
  8
0
  0
BLOCK
  8
0
  2
*D2
 70
     1
 10
0.0
 20
0.0
 30
0.0
  3
*D2
  1

  0
LINE
  5
27
  8
0
  6
BYBLOCK
 62
     9
 10
12902.384423
 20
15990.0
 30
0.0
 11
12902.384423
 21
15480.849053
 31
0.0
  0
LINE
  5
28
  8
0
  6
BYBLOCK
 62
     9
 10
11102.384423
 20
15550.0
 30
0.0
 11
11102.384423
 21
15480.849053
 31
0.0
  0
LINE
  5
29
  8
0
  6
BYBLOCK
 62
     9
 10
12882.384423
 20
15481.849053
 30
0.0
 11
12061.884423
 21
15481.849053
 31
0.0
  0
LINE
  5
2A
  8
0
  6
BYBLOCK
 62
     9
 10
11122.384423
 20
15481.849053
 30
0.0
 11
11942.884423
 21
15481.849053
 31
0.0
  0
SOLID
  5
2B
  8
0
  6
BYBLOCK
 62
     9
 10
12882.384423
 20
15485.182386
 30
0.0
 11
12882.384423
 21
15478.51572
 31
0.0
 12
12902.384423
 22
15481.849053
 32
0.0
 13
12902.384423
 23
15481.849053
 33
0.0
  0
SOLID
  5
2C
  8
0
  6
BYBLOCK
 62
     9
 10
11122.384423
 20
15485.182386
 30
0.0
 11
11122.384423
 21
15478.51572
 31
0.0
 12
11102.384423
 22
15481.849053
 32
0.0
 13
11102.384423
 23
15481.849053
 33
0.0
  0
TEXT
  5
2D
  8
0
  6
BYBLOCK
 62
    11
 10
11949.884423
 20
15464.349053
 30
0.0
 40
35.0
  1
1800
  0
POINT
  5
2E
  8
DEFPOINTS
  6
BYBLOCK
 62
     0
 10
12902.384423
 20
16000.0
 30
0.0
  0
POINT
  5
30
  8
DEFPOINTS
  6
BYBLOCK
 62
     0
 10
11102.384423
 20
15560.0
 30
0.0
  0
POINT
  5
31
  8
DEFPOINTS
  6
BYBLOCK
 62
     0
 10
11102.384423
 20
15481.849053
 30
0.0
  0
ENDBLK
  5
33
  8
0
  0
BLOCK
  8
0
  2
*D3
 70
     1
 10
0.0
 20
0.0
 30
0.0
  3
*D3
  1

  0
LINE
  5
5B
  8
0
  6
BYBLOCK
 62
     9
 10
11102.384423
 20
15550.0
 30
0.0
 11
11057.749451
 21
15550.0
 31
0.0
  0
LINE
  5
5C
  8
0
  6
BYBLOCK
 62
     9
 10
11102.384423
 20
16450.0
 30
0.0
 11
11057.749451
 21
16450.0
 31
0.0
  0
LINE
  5
5D
  8
0
  6
BYBLOCK
 62
     9
 10
11058.749451
 20
15570.0
 30
0.0
 11
11058.749451
 21
15952.166667
 31
0.0
  0
LINE
  5
5E
  8
0
  6
BYBLOCK
 62
     9
 10
11058.749451
 20
16430.0
 30
0.0
 11
11058.749451
 21
16047.833333
 31
0.0
  0
SOLID
  5
5F
  8
0
  6
BYBLOCK
 62
     9
 10
11055.416118
 20
15570.0
 30
0.0
 11
11062.082784
 21
15570.0
 31
0.0
 12
11058.749451
 22
15550.0
 32
0.0
 13
11058.749451
 23
15550.0
 33
0.0
  0
SOLID
  5
60
  8
0
  6
BYBLOCK
 62
     9
 10
11055.416118
 20
16430.0
 30
0.0
 11
11062.082784
 21
16430.0
 31
0.0
 12
11058.749451
 22
16450.0
 32
0.0
 13
11058.749451
 23
16450.0
 33
0.0
  0
TEXT
  5
61
  8
0
  6
BYBLOCK
 62
    11
 10
11076.249451
 20
15959.166667
 30
0.0
 40
35.0
  1
900
 50
90.0
  0
POINT
  5
62
  8
DEFPOINTS
  6
BYBLOCK
 62
     0
 10
11112.384423
 20
15550.0
 30
0.0
  0
POINT
  5
63
  8
DEFPOINTS
  6
BYBLOCK
 62
     0
 10
11112.384423
 20
16450.0
 30
0.0
  0
POINT
  5
64
  8
DEFPOINTS
  6
BYBLOCK
 62
     0
 10
11058.749451
 20
16450.0
 30
0.0
  0
ENDBLK
  5
66
  8
0
  0
ENDSEC
  0
SECTION
  2
ENTITIES
  0
LINE
  5
20
  8
TEAM-BODY
 10
472.116231
 20
-283.225822
 30
0.0
 11
-467.35306
 21
-283.225822
 31
0.0
  0
LINE
  5
22
  8
TEAM-BODY
 10
472.116231
 20
283.22675
 30
0.0
 11
-467.35306
 21
283.22675
 31
0.0
  0
LINE
  5
23
  8
TEAM-DET1
 10
777.386003
 20
-349.999536
 30
0.0
 11
-772.613997
 21
-349.999536
 31
0.0
  0
DIMENSION
  5
25
  8
TEAM-MAS
  2
*D2
 10
-897.615577
 20
-518.150947
 30
0.0
 11
2.384423
 21
-518.150947
 31
0.0
 12
-12000.0
 22
-16000.0
 32
0.0
 13
902.384423
 23
0.0
 33
0.0
 14
-897.615577
 24
-440.0
 34
0.0
1001
ACAD
1000
DSTYLE
1002
{
1070
    40
1040
1.0
1002
}
  0
LINE
  5
34
  8
TEAM-BODY
 10
892.384423
 20
-450.0
 30
0.0
 11
-887.615577
 21
-450.0
 31
0.0
  0
LINE
  5
35
  8
TEAM-DET1
 10
-772.613997
 20
350.000464
 30
0.0
 11
777.386003
 21
350.000464
 31
0.0
  0
LINE
  5
36
  8
TEAM-BODY
 10
-887.615577
 20
450.0
 30
0.0
 11
892.384423
 21
450.0
 31
0.0
  0
LINE
  5
37
  8
TEAM-AXE
 10
-917.854272
 20
0.0
 30
0.0
 11
917.854272
 21
0.0
 31
0.0
  0
DIMENSION
  5
3A
  8
TEAM-MAS
  2
*D1
 10
2.384423
 20
-485.568759
 30
0.0
 11
452.384423
 21
-485.568759
 31
0.0
 12
-12000.0
 22
-16000.0
 32
0.0
 13
902.384423
 23
0.0
 33
0.0
 14
2.384423
 24
-170.0
 34
0.0
1001
ACAD
1000
DSTYLE
1002
{
1070
    40
1040
1.0
1002
}
  0
DIMENSION
  5
48
  8
TEAM-MAS
  2
*D0
 10
938.447598
 20
-170.0
 30
0.0
 11
938.447598
 21
-310.0
 31
0.0
 12
-12000.0
 22
-16000.0
 32
0.0
 13
892.384423
 23
-450.0
 33
0.0
 14
2.384423
 24
-170.0
 34
0.0
 50
90.0
1001
ACAD
1000
DSTYLE
1002
{
1070
    40
1040
1.0
1002
}
  0
ARC
  5
56
  8
TEAM-BODY
 10
-467.35306
 20
203.22675
 30
0.0
 40
80.0
 50
90.0
 51
180.0
  0
LINE
  5
57
  8
TEAM-BODY
 10
-547.35306
 20
-203.225822
 30
0.0
 11
-547.35306
 21
203.22675
 31
0.0
  0
ARC
  5
58
  8
TEAM-BODY
 10
-467.35306
 20
-203.225822
 30
0.0
 40
80.0
 50
180.0
 51
270.0
  0
DIMENSION
  5
59
  8
TEAM-MAS
  2
*D3
 10
-941.250549
 20
450.0
 30
0.0
 11
-941.250549
 21
0.0
 31
0.0
 12
-12000.0
 22
-16000.0
 32
0.0
 13
-887.615577
 23
-450.0
 33
0.0
 14
-887.615577
 24
450.0
 34
0.0
 50
90.0
1001
ACAD
1000
DSTYLE
1002
{
1070
    40
1040
1.0
1002
}
  0
ARC
  5
67
  8
TEAM-BODY
 10
-887.615577
 20
-440.0
 30
0.0
 40
10.0
 50
180.0
 51
270.0
  0
ARC
  5
68
  8
TEAM-DET1
 10
-772.613997
 20
-324.999536
 30
0.0
 40
25.0
 50
180.0
 51
270.0
  0
LINE
  5
69
  8
TEAM-DET1
 10
-797.613997
 20
325.000464
 30
0.0
 11
-797.613997
 21
-324.999536
 31
0.0
  0
LINE
  5
6A
  8
TEAM-BODY
 10
-897.615577
 20
440.0
 30
0.0
 11
-897.615577
 21
-440.0
 31
0.0
  0
ARC
  5
6B
  8
TEAM-BODY
 10
-887.615577
 20
440.0
 30
0.0
 40
10.0
 50
90.0
 51
180.0
  0
ARC
  5
6C
  8
TEAM-DET1
 10
-772.613997
 20
325.000464
 30
0.0
 40
25.0
 50
90.0
 51
180.0
  0
TEXT
  5
6D
  8
TEAM-TXT
 10
-875.516172
 20
394.271702
 30
0.0
 40
30.0
  1
team 121069
 41
0.8
 51
15.0
  7
TEAM
  0
CIRCLE
  5
70
  8
TEAM-DET3
 10
2.384423
 20
-170.0
 30
0.0
 40
26.0
  0
CIRCLE
  5
72
  8
TEAM-DET1
 10
2.384423
 20
-170.0
 30
0.0
 40
52.0
  0
POLYLINE
  5
73
  8
TEAM-DET1
 66
     1
 10
0.0
 20
0.0
 30
0.0
 70
     1
  0
VERTEX
  5
10A
  8
TEAM-DET1
 10
28.384423
 20
-337.737518
 30
0.0
  0
VERTEX
  5
10B
  8
TEAM-DET1
 10
28.064319
 20
-336.83802
 30
0.0
  0
VERTEX
  5
10C
  8
TEAM-DET1
 10
27.111892
 20
-335.96067
 30
0.0
  0
VERTEX
  5
10D
  8
TEAM-DET1
 10
25.550592
 20
-335.127072
 30
0.0
  0
VERTEX
  5
10E
  8
TEAM-DET1
 10
23.418864
 20
-334.357752
 30
0.0
  0
VERTEX
  5
10F
  8
TEAM-DET1
 10
20.769199
 20
-333.671654
 30
0.0
  0
VERTEX
  5
110
  8
TEAM-DET1
 10
17.666839
 20
-333.08567
 30
0.0
  0
VERTEX
  5
111
  8
TEAM-DET1
 10
14.188176
 20
-332.61423
 30
0.0
  0
VERTEX
  5
112
  8
TEAM-DET1
 10
10.418864
 20
-332.268943
 30
0.0
  0
VERTEX
  5
113
  8
TEAM-DET1
 10
6.451719
 20
-332.05831
 30
0.0
  0
VERTEX
  5
114
  8
TEAM-DET1
 10
2.384423
 20
-331.987518
 30
0.0
  0
VERTEX
  5
115
  8
TEAM-DET1
 10
-1.682873
 20
-332.05831
 30
0.0
  0
VERTEX
  5
116
  8
TEAM-DET1
 10
-5.650019
 20
-332.268943
 30
0.0
  0
VERTEX
  5
117
  8
TEAM-DET1
 10
-9.41933
 20
-332.61423
 30
0.0
  0
VERTEX
  5
118
  8
TEAM-DET1
 10
-12.897994
 20
-333.08567
 30
0.0
  0
VERTEX
  5
119
  8
TEAM-DET1
 10
-16.000354
 20
-333.671654
 30
0.0
  0
VERTEX
  5
11A
  8
TEAM-DET1
 10
-18.650019
 20
-334.357752
 30
0.0
  0
VERTEX
  5
11B
  8
TEAM-DET1
 10
-20.781747
 20
-335.127072
 30
0.0
  0
VERTEX
  5
11C
  8
TEAM-DET1
 10
-22.343047
 20
-335.96067
 30
0.0
  0
VERTEX
  5
11D
  8
TEAM-DET1
 10
-23.295474
 20
-336.83802
 30
0.0
  0
VERTEX
  5
11E
  8
TEAM-DET1
 10
-23.615577
 20
-337.737518
 30
0.0
  0
VERTEX
  5
11F
  8
TEAM-DET1
 10
-23.295474
 20
-338.637016
 30
0.0
  0
VERTEX
  5
120
  8
TEAM-DET1
 10
-22.343047
 20
-339.514365
 30
0.0
  0
VERTEX
  5
121
  8
TEAM-DET1
 10
-20.781747
 20
-340.347963
 30
0.0
  0
VERTEX
  5
122
  8
TEAM-DET1
 10
-18.650019
 20
-341.117283
 30
0.0
  0
VERTEX
  5
123
  8
TEAM-DET1
 10
-16.000354
 20
-341.803382
 30
0.0
  0
VERTEX
  5
124
  8
TEAM-DET1
 10
-12.897994
 20
-342.389365
 30
0.0
  0
VERTEX
  5
125
  8
TEAM-DET1
 10
-9.41933
 20
-342.860805
 30
0.0
  0
VERTEX
  5
126
  8
TEAM-DET1
 10
-5.650019
 20
-343.206093
 30
0.0
  0
VERTEX
  5
127
  8
TEAM-DET1
 10
-1.682873
 20
-343.416726
 30
0.0
  0
VERTEX
  5
128
  8
TEAM-DET1
 10
2.384423
 20
-343.487518
 30
0.0
  0
VERTEX
  5
129
  8
TEAM-DET1
 10
6.451719
 20
-343.416726
 30
0.0
  0
VERTEX
  5
12A
  8
TEAM-DET1
 10
10.418864
 20
-343.206093
 30
0.0
  0
VERTEX
  5
12B
  8
TEAM-DET1
 10
14.188176
 20
-342.860805
 30
0.0
  0
VERTEX
  5
12C
  8
TEAM-DET1
 10
17.666839
 20
-342.389365
 30
0.0
  0
VERTEX
  5
12D
  8
TEAM-DET1
 10
20.769199
 20
-341.803382
 30
0.0
  0
VERTEX
  5
12E
  8
TEAM-DET1
 10
23.418864
 20
-341.117283
 30
0.0
  0
VERTEX
  5
12F
  8
TEAM-DET1
 10
25.550592
 20
-340.347963
 30
0.0
  0
VERTEX
  5
130
  8
TEAM-DET1
 10
27.111892
 20
-339.514365
 30
0.0
  0
VERTEX
  5
131
  8
TEAM-DET1
 10
28.064319
 20
-338.637016
 30
0.0
  0
SEQEND
  5
132
  8
TEAM-DET1
  0
CIRCLE
  5
74
  8
TEAM-INSP
 10
0.0
 20
0.0
 30
0.0
 40
10.0
  0
ARC
  5
76
  8
TEAM-BODY
 10
472.116231
 20
203.22675
 30
0.0
 40
80.0
 50
0.0
 51
90.0
  0
LINE
  5
77
  8
TEAM-BODY
 10
552.116231
 20
-203.225822
 30
0.0
 11
552.116231
 21
203.22675
 31
0.0
  0
ARC
  5
78
  8
TEAM-BODY
 10
472.116231
 20
-203.225822
 30
0.0
 40
80.0
 50
270.0
 51
0.0
  0
ARC
  5
79
  8
TEAM-BODY
 10
892.384423
 20
-440.0
 30
0.0
 40
10.0
 50
270.0
 51
0.0
  0
ARC
  5
7A
  8
TEAM-DET1
 10
777.386003
 20
-324.999536
 30
0.0
 40
25.0
 50
270.0
 51
0.0
  0
LINE
  5
7B
  8
TEAM-DET1
 10
802.386003
 20
325.000464
 30
0.0
 11
802.386003
 21
-324.999536
 31
0.0
  0
LINE
  5
7C
  8
TEAM-BODY
 10
902.384423
 20
440.0
 30
0.0
 11
902.384423
 21
-440.0
 31
0.0
  0
ARC
  5
7D
  8
TEAM-BODY
 10
892.384423
 20
440.0
 30
0.0
 40
10.0
 50
0.0
 51
90.0
  0
ARC
  5
7E
  8
TEAM-DET1
 10
777.386003
 20
325.000464
 30
0.0
 40
25.0
 50
0.0
 51
90.0
  0
ENDSEC
  0
EOF
