  0
SECTION
  2
HEADER
  9
$ACADVER
  1
AC1009
  9
$INSBASE
 10
0.0
 20
0.0
 30
0.0
  9
$EXTMIN
 10
-941.216883
 20
-650.063705
 30
0.0
  9
$EXTMAX
 10
968.86483
 20
512.853535
 30
0.000005
  9
$LIMMIN
 10
-941.216883
 20
-650.063705
  9
$LIMMAX
 10
968.86483
 20
512.853535
  9
$ORTHOMODE
 70
     1
  9
$REGENMODE
 70
     1
  9
$FILLMODE
 70
     1
  9
$QTEXTMODE
 70
     0
  9
$MIRRTEXT
 70
     0
  9
$DRAGMODE
 70
     2
  9
$LTSCALE
 40
50.0
  9
$OSMODE
 70
     0
  9
$ATTMODE
 70
     1
  9
$TEXTSIZE
 40
200.0
  9
$TRACEWID
 40
1.0
  9
$TEXTSTYLE
  7
STANDARD
  9
$CLAYER
  8
0
  9
$CELTYPE
  6
BYLAYER
  9
$CECOLOR
 62
   256
  9
$DIMSCALE
 40
0.0
  9
$DIMASZ
 40
20.0
  9
$DIMEXO
 40
10.0
  9
$DIMDLI
 40
1.0
  9
$DIMRND
 40
0.0
  9
$DIMDLE
 40
0.0
  9
$DIMEXE
 40
1.0
  9
$DIMTP
 40
0.0
  9
$DIMTM
 40
0.0
  9
$DIMTXT
 40
35.0
  9
$DIMCEN
 40
1.0
  9
$DIMTSZ
 40
0.0
  9
$DIMTOL
 70
     0
  9
$DIMLIM
 70
     0
  9
$DIMTIH
 70
     0
  9
$DIMTOH
 70
     0
  9
$DIMSE1
 70
     0
  9
$DIMSE2
 70
     0
  9
$DIMTAD
 70
     0
  9
$DIMZIN
 70
     0
  9
$DIMBLK
  1

  9
$DIMASO
 70
     1
  9
$DIMSHO
 70
     0
  9
$DIMPOST
  1

  9
$DIMAPOST
  1

  9
$DIMALT
 70
     0
  9
$DIMALTD
 70
     2
  9
$DIMALTF
 40
25.4
  9
$DIMLFAC
 40
1.0
  9
$DIMTOFL
 70
     0
  9
$DIMTVP
 40
0.0
  9
$DIMTIX
 70
     0
  9
$DIMSOXD
 70
     0
  9
$DIMSAH
 70
     0
  9
$DIMBLK1
  1

  9
$DIMBLK2
  1

  9
$DIMSTYLE
  2
TEAM
  9
$DIMCLRD
 70
     9
  9
$DIMCLRE
 70
     9
  9
$DIMCLRT
 70
    11
  9
$DIMTFAC
 40
1.0
  9
$DIMGAP
 40
7.0
  9
$LUNITS
 70
     2
  9
$LUPREC
 70
     1
  9
$SKETCHINC
 40
1.0
  9
$FILLETRAD
 40
30.0
  9
$AUNITS
 70
     0
  9
$AUPREC
 70
     0
  9
$MENU
  1
ROPLANS
  9
$ELEVATION
 40
0.0
  9
$PELEVATION
 40
0.0
  9
$THICKNESS
 40
0.0
  9
$LIMCHECK
 70
     0
  9
$BLIPMODE
 70
     1
  9
$CHAMFERA
 40
0.0
  9
$CHAMFERB
 40
0.0
  9
$SKPOLY
 70
     0
  9
$TDCREATE
 40
2450392.957851
  9
$TDUPDATE
 40
2457455.962239
  9
$TDINDWG
 40
2.150969
  9
$TDUSRTIMER
 40
2.150969
  9
$USRTIMER
 70
     1
  9
$ANGBASE
 50
0.0
  9
$ANGDIR
 70
     0
  9
$PDMODE
 70
     0
  9
$PDSIZE
 40
0.0
  9
$PLINEWID
 40
0.0
  9
$COORDS
 70
     2
  9
$SPLFRAME
 70
     0
  9
$SPLINETYPE
 70
     6
  9
$SPLINESEGS
 70
     8
  9
$ATTDIA
 70
     0
  9
$ATTREQ
 70
     0
  9
$HANDLING
 70
     1
  9
$HANDSEED
  5
1DC
  9
$SURFTAB1
 70
    36
  9
$SURFTAB2
 70
    36
  9
$SURFTYPE
 70
     6
  9
$SURFU
 70
     6
  9
$SURFV
 70
     6
  9
$UCSNAME
  2

  9
$UCSORG
 10
0.0
 20
0.0
 30
0.0
  9
$UCSXDIR
 10
1.0
 20
0.0
 30
0.0
  9
$UCSYDIR
 10
0.0
 20
1.0
 30
0.0
  9
$PUCSNAME
  2

  9
$PUCSORG
 10
0.0
 20
0.0
 30
0.0
  9
$PUCSXDIR
 10
1.0
 20
0.0
 30
0.0
  9
$PUCSYDIR
 10
0.0
 20
1.0
 30
0.0
  9
$USERI1
 70
     0
  9
$USERI2
 70
     0
  9
$USERI3
 70
     0
  9
$USERI4
 70
     0
  9
$USERI5
 70
     0
  9
$USERR1
 40
0.0
  9
$USERR2
 40
0.0
  9
$USERR3
 40
0.0
  9
$USERR4
 40
0.0
  9
$USERR5
 40
0.0
  9
$WORLDVIEW
 70
     1
  9
$SHADEDGE
 70
     0
  9
$SHADEDIF
 70
    70
  9
$TILEMODE
 70
     1
  9
$MAXACTVP
 70
    16
  9
$PLIMCHECK
 70
     0
  9
$PEXTMIN
 10
-0.805942
 20
0.005011
 30
0.0
  9
$PEXTMAX
 10
20.250094
 20
11.356329
 30
0.0
  9
$PLIMMIN
 10
0.0
 20
0.0
  9
$PLIMMAX
 10
12.0
 20
9.0
  9
$UNITMODE
 70
     0
  9
$VISRETAIN
 70
     0
  9
$PLINEGEN
 70
     0
  9
$PSLTSCALE
 70
     0
  0
ENDSEC
  0
SECTION
  2
TABLES
  0
TABLE
  2
VPORT
 70
     2
  0
VPORT
  2
*ACTIVE
 70
     0
 10
0.0
 20
0.0
 11
1.0
 21
1.0
 12
13.823973
 22
-68.605085
 13
0.0
 23
0.0
 14
1.0
 24
1.0
 15
50.0
 25
50.0
 16
0.0
 26
0.0
 36
1.0
 17
0.0
 27
0.0
 37
0.0
 40
1170.140329
 41
1.926425
 42
50.0
 43
0.0
 44
0.0
 50
0.0
 51
0.0
 71
     0
 72
   100
 73
     1
 74
     1
 75
     0
 76
     0
 77
     0
 78
     0
  0
ENDTAB
  0
TABLE
  2
LTYPE
 70
     2
  0
LTYPE
  2
CONTINUOUS
 70
     0
  3
Solid Line
 72
    65
 73
     0
 40
0.0
  0
LTYPE
  2
31
 70
     0
  3

 72
    65
 73
     4
 40
2.1
 49
1.5
 49
-0.3
 49
0.0
 49
-0.3
  0
ENDTAB
  0
TABLE
  2
LAYER
 70
     8
  0
LAYER
  2
0
 70
     0
 62
     7
  6
CONTINUOUS
  0
LAYER
  2
DEFPOINTS
 70
     0
 62
     7
  6
CONTINUOUS
  0
LAYER
  2
TEAM-BODY
 70
     0
 62
     2
  6
CONTINUOUS
  0
LAYER
  2
TEAM-AXE
 70
     0
 62
    10
  6
31
  0
LAYER
  2
TEAM-MAS
 70
     0
 62
     9
  6
CONTINUOUS
  0
LAYER
  2
TEAM-TXT
 70
     0
 62
    11
  6
CONTINUOUS
  0
LAYER
  2
TEAM-DET1
 70
     0
 62
     4
  6
CONTINUOUS
  0
LAYER
  2
TEAM-INSP
 70
     0
 62
     5
  6
CONTINUOUS
  0
ENDTAB
  0
TABLE
  2
STYLE
 70
     2
  0
STYLE
  2
STANDARD
 70
     0
 40
0.0
 41
1.0
 50
0.0
 71
     0
 42
200.0
  3
txt
  4

  0
STYLE
  2
TEAM
 70
     0
 40
0.0
 41
0.8
 50
15.0
 71
     0
 42
7.0
  3
ROMANS.shx
  4

  0
ENDTAB
  0
TABLE
  2
VIEW
 70
     0
  0
ENDTAB
  0
TABLE
  2
UCS
 70
     0
  0
ENDTAB
  0
TABLE
  2
APPID
 70
     1
  0
APPID
  2
ACAD
 70
     0
  0
ENDTAB
  0
TABLE
  2
DIMSTYLE
 70
     1
  0
DIMSTYLE
  2
TEAM
 70
     0
  3

  4

  5

  6

  7

 40
0.0
 41
20.0
 42
10.0
 43
1.0
 44
1.0
 45
0.0
 46
0.0
 47
0.0
 48
0.0
140
35.0
141
1.0
142
0.0
143
25.4
144
1.0
145
0.0
146
1.0
147
7.0
 71
     0
 72
     0
 73
     0
 74
     0
 75
     0
 76
     0
 77
     0
 78
     0
170
     0
171
     2
172
     0
173
     0
174
     0
175
     0
176
     9
177
     9
178
    11
  0
ENDTAB
  0
ENDSEC
  0
SECTION
  2
BLOCKS
  0
BLOCK
  8
0
  2
$MODEL_SPACE
 70
     0
 10
0.0
 20
0.0
 30
0.0
  3
$MODEL_SPACE
  1

  0
ENDBLK
  5
174
  8
0
  0
BLOCK
 67
     1
  8
0
  2
$PAPER_SPACE
 70
     0
 10
0.0
 20
0.0
 30
0.0
  3
$PAPER_SPACE
  1

  0
ENDBLK
  5
172
 67
     1
  8
0
  0
BLOCK
  8
0
  2
*D0
 70
     1
 10
0.0
 20
0.0
 30
0.0
  3
*D0
  1

  0
LINE
  5
22
  8
0
  6
BYBLOCK
 62
     9
 10
3125.0
 20
460.0
 30
0.0
 11
3125.0
 21
496.347801
 31
0.0
  0
LINE
  5
23
  8
0
  6
BYBLOCK
 62
     9
 10
4875.0
 20
460.0
 30
0.0
 11
4875.0
 21
496.347801
 31
0.0
  0
LINE
  5
24
  8
0
  6
BYBLOCK
 62
     9
 10
3145.0
 20
495.347801
 30
0.0
 11
3902.583333
 21
495.347801
 31
0.0
  0
LINE
  5
25
  8
0
  6
BYBLOCK
 62
     9
 10
4855.0
 20
495.347801
 30
0.0
 11
4097.416667
 21
495.347801
 31
0.0
  0
SOLID
  5
26
  8
0
  6
BYBLOCK
 62
     9
 10
3145.0
 20
498.681134
 30
0.0
 11
3145.0
 21
492.014467
 31
0.0
 12
3125.0
 22
495.347801
 32
0.0
 13
3125.0
 23
495.347801
 33
0.0
  0
SOLID
  5
27
  8
0
  6
BYBLOCK
 62
     9
 10
4855.0
 20
498.681134
 30
0.0
 11
4855.0
 21
492.014467
 31
0.0
 12
4875.0
 22
495.347801
 32
0.0
 13
4875.0
 23
495.347801
 33
0.0
  0
TEXT
  5
28
  8
0
  6
BYBLOCK
 62
    11
 10
3909.583333
 20
477.847801
 30
0.0
 40
35.0
  1
1750.00
  0
POINT
  5
29
  8
DEFPOINTS
  6
BYBLOCK
 62
     0
 10
3125.0
 20
450.0
 30
0.0
  0
POINT
  5
2B
  8
DEFPOINTS
  6
BYBLOCK
 62
     0
 10
4875.0
 20
450.0
 30
0.0
  0
POINT
  5
2C
  8
DEFPOINTS
  6
BYBLOCK
 62
     0
 10
4875.0
 20
495.347801
 30
0.0
  0
ENDBLK
  5
2E
  8
0
  0
BLOCK
  8
0
  2
*D1
 70
     1
 10
0.0
 20
0.0
 30
0.0
  3
*D1
  1

  0
LINE
  5
41
  8
0
  6
BYBLOCK
 62
     9
 10
3115.0
 20
450.0
 30
0.0
 11
3075.387805
 21
450.0
 31
0.0
  0
LINE
  5
42
  8
0
  6
BYBLOCK
 62
     9
 10
3115.0
 20
-650.0
 30
0.0
 11
3075.387805
 21
-650.0
 31
0.0
  0
LINE
  5
43
  8
0
  6
BYBLOCK
 62
     9
 10
3076.387805
 20
430.0
 30
0.0
 11
3076.387805
 21
-11.333333
 31
0.0
  0
LINE
  5
44
  8
0
  6
BYBLOCK
 62
     9
 10
3076.387805
 20
-630.0
 30
0.0
 11
3076.387805
 21
-188.666667
 31
0.0
  0
SOLID
  5
45
  8
0
  6
BYBLOCK
 62
     9
 10
3073.054472
 20
430.0
 30
0.0
 11
3079.721138
 21
430.0
 31
0.0
 12
3076.387805
 22
450.0
 32
0.0
 13
3076.387805
 23
450.0
 33
0.0
  0
SOLID
  5
46
  8
0
  6
BYBLOCK
 62
     9
 10
3073.054472
 20
-630.0
 30
0.0
 11
3079.721138
 21
-630.0
 31
0.0
 12
3076.387805
 22
-650.0
 32
0.0
 13
3076.387805
 23
-650.0
 33
0.0
  0
TEXT
  5
47
  8
0
  6
BYBLOCK
 62
    11
 10
3093.887805
 20
-181.666667
 30
0.0
 40
35.0
  1
1100.00
 50
90.0
  0
POINT
  5
48
  8
DEFPOINTS
  6
BYBLOCK
 62
     0
 10
3125.0
 20
450.0
 30
0.0
  0
POINT
  5
49
  8
DEFPOINTS
  6
BYBLOCK
 62
     0
 10
3125.0
 20
-650.0
 30
0.0
  0
POINT
  5
4A
  8
DEFPOINTS
  6
BYBLOCK
 62
     0
 10
3076.387805
 20
-650.0
 30
0.0
  0
ENDBLK
  5
4C
  8
0
  0
BLOCK
  8
0
  2
*D2
 70
     1
 10
0.0
 20
0.0
 30
0.0
  3
*D2
  1

  0
LINE
  5
73
  8
0
  6
BYBLOCK
 62
     9
 10
4180.0
 20
115.0
 30
0.0
 11
4910.767522
 21
115.0
 31
0.0
  0
LINE
  5
74
  8
0
  6
BYBLOCK
 62
     9
 10
4885.0
 20
450.0
 30
0.0
 11
4910.767522
 21
450.0
 31
0.0
  0
LINE
  5
75
  8
0
  6
BYBLOCK
 62
     9
 10
4909.767522
 20
135.0
 30
0.0
 11
4909.767522
 21
193.833333
 31
0.0
  0
LINE
  5
76
  8
0
  6
BYBLOCK
 62
     9
 10
4909.767522
 20
430.0
 30
0.0
 11
4909.767522
 21
371.166667
 31
0.0
  0
SOLID
  5
77
  8
0
  6
BYBLOCK
 62
     9
 10
4906.434189
 20
135.0
 30
0.0
 11
4913.100855
 21
135.0
 31
0.0
 12
4909.767522
 22
115.0
 32
0.0
 13
4909.767522
 23
115.0
 33
0.0
  0
SOLID
  5
78
  8
0
  6
BYBLOCK
 62
     9
 10
4906.434189
 20
430.0
 30
0.0
 11
4913.100855
 21
430.0
 31
0.0
 12
4909.767522
 22
450.0
 32
0.0
 13
4909.767522
 23
450.0
 33
0.0
  0
TEXT
  5
79
  8
0
  6
BYBLOCK
 62
    11
 10
4927.267522
 20
200.833333
 30
0.0
 40
35.0
  1
335.00
 50
90.0
  0
POINT
  5
7A
  8
DEFPOINTS
  6
BYBLOCK
 62
     0
 10
4170.0
 20
115.0
 30
0.0
  0
POINT
  5
7B
  8
DEFPOINTS
  6
BYBLOCK
 62
     0
 10
4875.0
 20
450.0
 30
0.0
  0
POINT
  5
7C
  8
DEFPOINTS
  6
BYBLOCK
 62
     0
 10
4909.767522
 20
450.0
 30
0.0
  0
ENDBLK
  5
7E
  8
0
  0
BLOCK
  8
0
  2
*D3
 70
     1
 10
0.0
 20
0.0
 30
0.0
  3
*D3
  1

  0
LINE
  5
4F
  8
0
  6
BYBLOCK
 62
     9
 10
4885.0
 20
-300.0
 30
0.0
 11
4952.224496
 21
-300.0
 31
0.0
  0
LINE
  5
50
  8
0
  6
BYBLOCK
 62
     9
 10
4885.0
 20
450.0
 30
0.0
 11
4952.224496
 21
450.0
 31
0.0
  0
LINE
  5
51
  8
0
  6
BYBLOCK
 62
     9
 10
4951.224496
 20
-280.0
 30
0.0
 11
4951.224496
 21
-10.75
 31
0.0
  0
LINE
  5
52
  8
0
  6
BYBLOCK
 62
     9
 10
4951.224496
 20
430.0
 30
0.0
 11
4951.224496
 21
160.75
 31
0.0
  0
SOLID
  5
53
  8
0
  6
BYBLOCK
 62
     9
 10
4947.891162
 20
-280.0
 30
0.0
 11
4954.557829
 21
-280.0
 31
0.0
 12
4951.224496
 22
-300.0
 32
0.0
 13
4951.224496
 23
-300.0
 33
0.0
  0
SOLID
  5
54
  8
0
  6
BYBLOCK
 62
     9
 10
4947.891162
 20
430.0
 30
0.0
 11
4954.557829
 21
430.0
 31
0.0
 12
4951.224496
 22
450.0
 32
0.0
 13
4951.224496
 23
450.0
 33
0.0
  0
TEXT
  5
55
  8
0
  6
BYBLOCK
 62
    11
 10
4968.724496
 20
-3.75
 30
0.0
 40
35.0
  1
750.00
 50
90.0
  0
POINT
  5
56
  8
DEFPOINTS
  6
BYBLOCK
 62
     0
 10
4875.0
 20
-300.0
 30
0.0
  0
POINT
  5
57
  8
DEFPOINTS
  6
BYBLOCK
 62
     0
 10
4875.0
 20
450.0
 30
0.0
  0
POINT
  5
58
  8
DEFPOINTS
  6
BYBLOCK
 62
     0
 10
4951.224496
 20
450.0
 30
0.0
  0
ENDBLK
  5
5A
  8
0
  0
BLOCK
  8
0
  2
*D4
 70
     1
 10
0.0
 20
0.0
 30
0.0
  3
*D4
  1

  0
LINE
  5
5D
  8
0
  6
BYBLOCK
 62
     9
 10
4875.0
 20
-310.0
 30
0.0
 11
4875.0
 21
-512.6682
 31
0.0
  0
LINE
  5
5E
  8
0
  6
BYBLOCK
 62
     9
 10
4095.0
 20
60.0
 30
0.0
 11
4095.0
 21
-512.6682
 31
0.0
  0
LINE
  5
5F
  8
0
  6
BYBLOCK
 62
     9
 10
4855.0
 20
-511.6682
 30
0.0
 11
4570.75
 21
-511.6682
 31
0.0
  0
LINE
  5
60
  8
0
  6
BYBLOCK
 62
     9
 10
4115.0
 20
-511.6682
 30
0.0
 11
4399.25
 21
-511.6682
 31
0.0
  0
SOLID
  5
61
  8
0
  6
BYBLOCK
 62
     9
 10
4855.0
 20
-508.334866
 30
0.0
 11
4855.0
 21
-515.001533
 31
0.0
 12
4875.0
 22
-511.6682
 32
0.0
 13
4875.0
 23
-511.6682
 33
0.0
  0
SOLID
  5
62
  8
0
  6
BYBLOCK
 62
     9
 10
4115.0
 20
-508.334866
 30
0.0
 11
4115.0
 21
-515.001533
 31
0.0
 12
4095.0
 22
-511.6682
 32
0.0
 13
4095.0
 23
-511.6682
 33
0.0
  0
TEXT
  5
63
  8
0
  6
BYBLOCK
 62
    11
 10
4406.25
 20
-529.1682
 30
0.0
 40
35.0
  1
780.00
  0
POINT
  5
64
  8
DEFPOINTS
  6
BYBLOCK
 62
     0
 10
4875.0
 20
-300.0
 30
0.0
  0
POINT
  5
65
  8
DEFPOINTS
  6
BYBLOCK
 62
     0
 10
4095.0
 20
70.0
 30
0.0
  0
POINT
  5
66
  8
DEFPOINTS
  6
BYBLOCK
 62
     0
 10
4095.0
 20
-511.6682
 30
0.0
  0
ENDBLK
  5
68
  8
0
  0
ENDSEC
  0
SECTION
  2
ENTITIES
  0
DIMENSION
  5
1F
  8
TEAM-MAS
  2
*D0
 10
875.0
 20
495.347801
 30
0.0
 11
0.0
 21
495.347801
 31
0.0
 12
-4000.0
 22
0.0
 32
0.0
 13
-875.0
 23
450.0
 33
0.0
 14
875.0
 24
450.0
 34
0.0
1001
ACAD
1000
DSTYLE
1002
{
1070
    40
1040
1.0
1002
}
  0
POLYLINE
  5
2F
  8
TEAM-BODY
 66
     1
 10
0.0
 20
0.0
 30
0.0
  0
VERTEX
  5
17A
  8
TEAM-BODY
 10
875.0
 20
0.0
 30
0.0
  0
VERTEX
  5
17B
  8
TEAM-BODY
 10
875.0
 20
-300.0
 30
0.0
  0
VERTEX
  5
17C
  8
TEAM-BODY
 10
-875.0
 20
-650.0
 30
0.0
  0
VERTEX
  5
17D
  8
TEAM-BODY
 10
-875.0
 20
0.0
 30
0.0
  0
SEQEND
  5
17E
  8
TEAM-BODY
  0
POLYLINE
  5
31
  8
TEAM-BODY
 66
     1
 10
0.0
 20
0.0
 30
0.0
  0
VERTEX
  5
17F
  8
TEAM-BODY
 10
804.995829
 20
0.0
 30
0.0
  0
VERTEX
  5
180
  8
TEAM-BODY
 10
812.58064
 20
-145.653136
 30
0.0
 42
-0.386377
  0
VERTEX
  5
181
  8
TEAM-BODY
 10
739.699101
 20
-258.665975
 30
0.0
  0
VERTEX
  5
182
  8
TEAM-BODY
 10
-497.720533
 20
-466.596544
 30
0.0
 42
-0.444894
  0
VERTEX
  5
183
  8
TEAM-BODY
 10
-746.793268
 20
-304.620431
 30
0.0
 42
-0.034279
  0
VERTEX
  5
184
  8
TEAM-BODY
 10
-765.949784
 20
0.0
 30
0.0
  0
SEQEND
  5
185
  8
TEAM-BODY
  0
POLYLINE
  5
32
  8
TEAM-BODY
 66
     1
 10
0.0
 20
0.0
 30
0.0
  0
VERTEX
  5
186
  8
TEAM-BODY
 10
677.505569
 20
0.0
 30
0.0
  0
VERTEX
  5
187
  8
TEAM-BODY
 10
682.247936
 20
-128.544403
 30
0.0
 42
-0.386377
  0
VERTEX
  5
188
  8
TEAM-BODY
 10
645.807166
 20
-185.050823
 30
0.0
  0
VERTEX
  5
189
  8
TEAM-BODY
 10
-399.809311
 20
-341.833883
 30
0.0
 42
-0.30844
  0
VERTEX
  5
18A
  8
TEAM-BODY
 10
-421.067884
 20
-334.367459
 30
0.0
 42
-0.140374
  0
VERTEX
  5
18B
  8
TEAM-BODY
 10
-512.6991
 20
0.0
 30
0.0
  0
SEQEND
  5
18C
  8
TEAM-BODY
  0
POLYLINE
  5
33
  8
TEAM-BODY
 66
     1
 10
0.0
 20
0.0
 30
0.0
  0
VERTEX
  5
18D
  8
TEAM-BODY
 10
-765.949784
 20
0.0
 30
0.0
 42
-0.016447
  0
VERTEX
  5
18E
  8
TEAM-BODY
 10
-758.776459
 20
189.202696
 30
0.0
 42
-0.386321
  0
VERTEX
  5
18F
  8
TEAM-BODY
 10
-559.700452
 20
370.0
 30
0.0
  0
VERTEX
  5
190
  8
TEAM-BODY
 10
667.074301
 20
370.0
 30
0.0
 42
-0.366775
  0
VERTEX
  5
191
  8
TEAM-BODY
 10
765.722105
 20
286.389345
 30
0.0
  0
VERTEX
  5
192
  8
TEAM-BODY
 10
804.995829
 20
0.0
 30
0.0
  0
SEQEND
  5
193
  8
TEAM-BODY
  0
LINE
  5
34
  8
TEAM-AXE
 10
-875.0
 20
0.0
 30
0.0
 11
875.0
 21
0.0
 31
0.0
  0
POLYLINE
  5
37
  8
TEAM-BODY
 66
     1
 10
0.0
 20
0.0
 30
0.0
  0
VERTEX
  5
194
  8
TEAM-BODY
 10
875.0
 20
0.0
 30
0.0
  0
VERTEX
  5
195
  8
TEAM-BODY
 10
875.0
 20
450.0
 30
0.0
  0
VERTEX
  5
196
  8
TEAM-BODY
 10
-875.0
 20
450.0
 30
0.0
  0
VERTEX
  5
197
  8
TEAM-BODY
 10
-875.0
 20
0.0
 30
0.0
  0
SEQEND
  5
198
  8
TEAM-BODY
  0
POLYLINE
  5
38
  8
TEAM-BODY
 66
     1
 10
0.0
 20
0.0
 30
0.0
  0
VERTEX
  5
199
  8
TEAM-BODY
 10
-512.6991
 20
0.0
 30
0.0
 42
-0.087481
  0
VERTEX
  5
19A
  8
TEAM-BODY
 10
-467.053052
 20
246.984514
 30
0.0
 42
-0.289345
  0
VERTEX
  5
19B
  8
TEAM-BODY
 10
-448.993817
 20
258.390095
 30
0.0
  0
VERTEX
  5
19C
  8
TEAM-BODY
 10
600.505275
 20
258.390095
 30
0.0
 42
-0.366775
  0
VERTEX
  5
19D
  8
TEAM-BODY
 10
649.829177
 20
216.584767
 30
0.0
  0
VERTEX
  5
19E
  8
TEAM-BODY
 10
677.505569
 20
0.0
 30
0.0
  0
SEQEND
  5
19F
  8
TEAM-BODY
  0
POLYLINE
  5
39
  8
TEAM-BODY
 66
     1
 10
0.0
 20
0.0
 30
0.0
  0
VERTEX
  5
1A0
  8
TEAM-BODY
 10
-625.729868
 20
-11.394408
 30
0.0
 42
0.037557
  0
VERTEX
  5
1A1
  8
TEAM-BODY
 10
-605.597669
 20
-270.854668
 30
0.0
 42
0.444894
  0
VERTEX
  5
1A2
  8
TEAM-BODY
 10
-356.524935
 20
-432.830781
 30
0.0
  0
SEQEND
  5
1A3
  8
TEAM-BODY
  0
POLYLINE
  5
3A
  8
TEAM-BODY
 66
     1
 10
0.0
 20
0.0
 30
0.0
  0
VERTEX
  5
1A4
  8
TEAM-BODY
 10
-418.504854
 20
358.605592
 30
0.0
 42
0.386321
  0
VERTEX
  5
1A5
  8
TEAM-BODY
 10
-617.58086
 20
177.808288
 30
0.0
 42
0.022636
  0
VERTEX
  5
1A6
  8
TEAM-BODY
 10
-625.729868
 20
-11.394408
 30
0.0
  0
SEQEND
  5
1A7
  8
TEAM-BODY
  0
TEXT
  5
3B
  8
TEAM-TXT
 10
-383.306333
 20
292.12799
 30
0.0
 40
30.0
  1
team 121079
 41
0.8
 51
15.0
  7
TEAM
  0
LINE
  5
3E
  8
TEAM-BODY
 10
-875.0
 20
370.0
 30
0.0
 11
-440.0
 21
370.0
 31
0.0
  0
DIMENSION
  5
3F
  8
TEAM-MAS
  2
*D1
 10
-923.612195
 20
-650.0
 30
0.0
 11
-923.612195
 21
-100.0
 31
0.0
 12
-4000.0
 22
0.0
 32
0.0
 13
-875.0
 23
450.0
 33
0.0
 14
-875.0
 24
-650.0
 34
0.0
 50
90.0
1001
ACAD
1000
DSTYLE
1002
{
1070
    40
1040
1.0
1002
}
  0
DIMENSION
  5
4D
  8
TEAM-MAS
  2
*D3
 10
951.224496
 20
450.0
 30
0.0
 11
951.224496
 21
75.0
 31
0.0
 12
-4000.0
 22
0.0
 32
0.0
 13
875.0
 23
-300.0
 33
0.0
 14
875.0
 24
450.0
 34
0.0
 50
90.0
1001
ACAD
1000
DSTYLE
1002
{
1070
    40
1040
1.0
1002
}
  0
DIMENSION
  5
5B
  8
TEAM-MAS
  2
*D4
 10
95.0
 20
-511.6682
 30
0.0
 11
485.0
 21
-511.6682
 31
0.0
 12
-4000.0
 22
0.0
 32
0.0
 13
875.0
 23
-300.0
 33
0.0
 14
95.0
 24
70.0
 34
0.0
1001
ACAD
1000
DSTYLE
1002
{
1070
    40
1040
1.0
1002
}
  0
LINE
  5
69
  8
TEAM-AXE
 10
95.0
 20
-424.666667
 30
0.0
 11
95.0
 21
450.0
 31
0.0
  0
POLYLINE
  5
6A
  8
TEAM-BODY
 66
     1
 10
0.0
 20
0.0
 30
0.0
  0
VERTEX
  5
1A8
  8
TEAM-BODY
 10
170.0
 20
115.0
 30
0.0
  0
VERTEX
  5
1A9
  8
TEAM-BODY
 10
170.0
 20
40.0
 30
0.0
  0
VERTEX
  5
1AA
  8
TEAM-BODY
 10
20.0
 20
40.0
 30
0.0
  0
VERTEX
  5
1AB
  8
TEAM-BODY
 10
20.0
 20
115.0
 30
0.0
  0
SEQEND
  5
1AC
  8
TEAM-BODY
  0
POLYLINE
  5
6B
  8
TEAM-BODY
 66
     1
 10
0.0
 20
0.0
 30
0.0
  0
VERTEX
  5
1AD
  8
TEAM-BODY
 10
170.0
 20
115.0
 30
0.0
  0
VERTEX
  5
1AE
  8
TEAM-BODY
 10
170.0
 20
190.0
 30
0.0
  0
VERTEX
  5
1AF
  8
TEAM-BODY
 10
20.0
 20
190.0
 30
0.0
  0
VERTEX
  5
1B0
  8
TEAM-BODY
 10
20.0
 20
115.0
 30
0.0
  0
SEQEND
  5
1B1
  8
TEAM-BODY
  0
CIRCLE
  5
6C
  8
TEAM-INSP
 10
0.0
 20
0.0
 30
0.0
 40
10.0
  0
LINE
  5
6E
  8
TEAM-AXE
 10
20.0
 20
115.0
 30
0.0
 11
170.0
 21
115.0
 31
0.0
  0
POLYLINE
  5
6F
  8
TEAM-DET1
 66
     1
 10
0.0
 20
0.0
 30
0.0
 70
     1
  0
VERTEX
  5
1B2
  8
TEAM-DET1
 10
116.85465
 20
349.519204
 30
0.0
  0
VERTEX
  5
1B3
  8
TEAM-DET1
 10
116.534546
 20
350.418702
 30
0.0
  0
VERTEX
  5
1B4
  8
TEAM-DET1
 10
115.582119
 20
351.296052
 30
0.0
  0
VERTEX
  5
1B5
  8
TEAM-DET1
 10
114.020819
 20
352.12965
 30
0.0
  0
VERTEX
  5
1B6
  8
TEAM-DET1
 10
111.889091
 20
352.89897
 30
0.0
  0
VERTEX
  5
1B7
  8
TEAM-DET1
 10
109.239426
 20
353.585068
 30
0.0
  0
VERTEX
  5
1B8
  8
TEAM-DET1
 10
106.137066
 20
354.171052
 30
0.0
  0
VERTEX
  5
1B9
  8
TEAM-DET1
 10
102.658403
 20
354.642492
 30
0.0
  0
VERTEX
  5
1BA
  8
TEAM-DET1
 10
98.889091
 20
354.987779
 30
0.0
  0
VERTEX
  5
1BB
  8
TEAM-DET1
 10
94.921946
 20
355.198412
 30
0.0
  0
VERTEX
  5
1BC
  8
TEAM-DET1
 10
90.85465
 20
355.269204
 30
0.0
  0
VERTEX
  5
1BD
  8
TEAM-DET1
 10
86.787354
 20
355.198412
 30
0.0
  0
VERTEX
  5
1BE
  8
TEAM-DET1
 10
82.820208
 20
354.987779
 30
0.0
  0
VERTEX
  5
1BF
  8
TEAM-DET1
 10
79.050897
 20
354.642492
 30
0.0
  0
VERTEX
  5
1C0
  8
TEAM-DET1
 10
75.572233
 20
354.171052
 30
0.0
  0
VERTEX
  5
1C1
  8
TEAM-DET1
 10
72.469873
 20
353.585068
 30
0.0
  0
VERTEX
  5
1C2
  8
TEAM-DET1
 10
69.820208
 20
352.89897
 30
0.0
  0
VERTEX
  5
1C3
  8
TEAM-DET1
 10
67.68848
 20
352.12965
 30
0.0
  0
VERTEX
  5
1C4
  8
TEAM-DET1
 10
66.12718
 20
351.296052
 30
0.0
  0
VERTEX
  5
1C5
  8
TEAM-DET1
 10
65.174753
 20
350.418702
 30
0.0
  0
VERTEX
  5
1C6
  8
TEAM-DET1
 10
64.85465
 20
349.519204
 30
0.0
  0
VERTEX
  5
1C7
  8
TEAM-DET1
 10
65.174753
 20
348.619706
 30
0.0
  0
VERTEX
  5
1C8
  8
TEAM-DET1
 10
66.12718
 20
347.742357
 30
0.0
  0
VERTEX
  5
1C9
  8
TEAM-DET1
 10
67.68848
 20
346.908759
 30
0.0
  0
VERTEX
  5
1CA
  8
TEAM-DET1
 10
69.820208
 20
346.139439
 30
0.0
  0
VERTEX
  5
1CB
  8
TEAM-DET1
 10
72.469873
 20
345.45334
 30
0.0
  0
VERTEX
  5
1CC
  8
TEAM-DET1
 10
75.572233
 20
344.867357
 30
0.0
  0
VERTEX
  5
1CD
  8
TEAM-DET1
 10
79.050897
 20
344.395917
 30
0.0
  0
VERTEX
  5
1CE
  8
TEAM-DET1
 10
82.820208
 20
344.050629
 30
0.0
  0
VERTEX
  5
1CF
  8
TEAM-DET1
 10
86.787354
 20
343.839996
 30
0.0
  0
VERTEX
  5
1D0
  8
TEAM-DET1
 10
90.85465
 20
343.769204
 30
0.0
  0
VERTEX
  5
1D1
  8
TEAM-DET1
 10
94.921946
 20
343.839996
 30
0.0
  0
VERTEX
  5
1D2
  8
TEAM-DET1
 10
98.889091
 20
344.050629
 30
0.0
  0
VERTEX
  5
1D3
  8
TEAM-DET1
 10
102.658403
 20
344.395917
 30
0.0
  0
VERTEX
  5
1D4
  8
TEAM-DET1
 10
106.137066
 20
344.867357
 30
0.0
  0
VERTEX
  5
1D5
  8
TEAM-DET1
 10
109.239426
 20
345.45334
 30
0.0
  0
VERTEX
  5
1D6
  8
TEAM-DET1
 10
111.889091
 20
346.139439
 30
0.0
  0
VERTEX
  5
1D7
  8
TEAM-DET1
 10
114.020819
 20
346.908759
 30
0.0
  0
VERTEX
  5
1D8
  8
TEAM-DET1
 10
115.582119
 20
347.742357
 30
0.0
  0
VERTEX
  5
1D9
  8
TEAM-DET1
 10
116.534546
 20
348.619706
 30
0.0
  0
SEQEND
  5
1DA
  8
TEAM-DET1
  0
DIMENSION
  5
71
  8
TEAM-MAS
  2
*D2
 10
909.767522
 20
450.0
 30
0.0
 11
909.767522
 21
282.5
 31
0.0
 12
-4000.0
 22
0.0
 32
0.0
 13
170.0
 23
115.0
 33
0.0
 14
875.0
 24
450.0
 34
0.0
 50
90.0
1001
ACAD
1000
DSTYLE
1002
{
1070
    78
1070
     0
1070
    40
1040
1.0
1002
}
  0
ENDSEC
  0
EOF
