  0
SECTION
  2
HEADER
  9
$ACADVER
  1
AC1009
  9
$INSBASE
 10
0.0
 20
0.0
 30
0.0
  9
$EXTMIN
 10
-651.273105
 20
-10.048461
 30
0.0
  9
$EXTMAX
 10
558.592325
 20
697.866183
 30
0.000005
  9
$LIMMIN
 10
-651.273105
 20
-10.048461
  9
$LIMMAX
 10
558.592325
 20
697.866183
  9
$ORTHOMODE
 70
     1
  9
$REGENMODE
 70
     1
  9
$FILLMODE
 70
     1
  9
$QTEXTMODE
 70
     0
  9
$MIRRTEXT
 70
     0
  9
$DRAGMODE
 70
     2
  9
$LTSCALE
 40
50.0
  9
$OSMODE
 70
     0
  9
$ATTMODE
 70
     1
  9
$TEXTSIZE
 40
200.0
  9
$TRACEWID
 40
1.0
  9
$TEXTSTYLE
  7
STANDARD
  9
$CLAYER
  8
0
  9
$CELTYPE
  6
BYLAYER
  9
$CECOLOR
 62
   256
  9
$DIMSCALE
 40
0.0
  9
$DIMASZ
 40
20.0
  9
$DIMEXO
 40
10.0
  9
$DIMDLI
 40
1.0
  9
$DIMRND
 40
0.0
  9
$DIMDLE
 40
0.0
  9
$DIMEXE
 40
1.0
  9
$DIMTP
 40
0.0
  9
$DIMTM
 40
0.0
  9
$DIMTXT
 40
35.0
  9
$DIMCEN
 40
1.0
  9
$DIMTSZ
 40
0.0
  9
$DIMTOL
 70
     0
  9
$DIMLIM
 70
     0
  9
$DIMTIH
 70
     0
  9
$DIMTOH
 70
     0
  9
$DIMSE1
 70
     0
  9
$DIMSE2
 70
     0
  9
$DIMTAD
 70
     0
  9
$DIMZIN
 70
     0
  9
$DIMBLK
  1

  9
$DIMASO
 70
     1
  9
$DIMSHO
 70
     0
  9
$DIMPOST
  1

  9
$DIMAPOST
  1

  9
$DIMALT
 70
     0
  9
$DIMALTD
 70
     2
  9
$DIMALTF
 40
25.4
  9
$DIMLFAC
 40
1.0
  9
$DIMTOFL
 70
     0
  9
$DIMTVP
 40
0.0
  9
$DIMTIX
 70
     0
  9
$DIMSOXD
 70
     0
  9
$DIMSAH
 70
     0
  9
$DIMBLK1
  1

  9
$DIMBLK2
  1

  9
$DIMSTYLE
  2
TEAM
  9
$DIMCLRD
 70
     9
  9
$DIMCLRE
 70
     9
  9
$DIMCLRT
 70
    11
  9
$DIMTFAC
 40
1.0
  9
$DIMGAP
 40
7.0
  9
$LUNITS
 70
     2
  9
$LUPREC
 70
     1
  9
$SKETCHINC
 40
1.0
  9
$FILLETRAD
 40
30.0
  9
$AUNITS
 70
     0
  9
$AUPREC
 70
     0
  9
$MENU
  1
ROPLANS
  9
$ELEVATION
 40
0.0
  9
$PELEVATION
 40
0.0
  9
$THICKNESS
 40
0.0
  9
$LIMCHECK
 70
     0
  9
$BLIPMODE
 70
     1
  9
$CHAMFERA
 40
0.0
  9
$CHAMFERB
 40
0.0
  9
$SKPOLY
 70
     0
  9
$TDCREATE
 40
2450392.957851
  9
$TDUPDATE
 40
2457455.962239
  9
$TDINDWG
 40
2.150969
  9
$TDUSRTIMER
 40
2.150969
  9
$USRTIMER
 70
     1
  9
$ANGBASE
 50
0.0
  9
$ANGDIR
 70
     0
  9
$PDMODE
 70
     0
  9
$PDSIZE
 40
0.0
  9
$PLINEWID
 40
0.0
  9
$COORDS
 70
     2
  9
$SPLFRAME
 70
     0
  9
$SPLINETYPE
 70
     6
  9
$SPLINESEGS
 70
     8
  9
$ATTDIA
 70
     0
  9
$ATTREQ
 70
     0
  9
$HANDLING
 70
     1
  9
$HANDSEED
  5
C7
  9
$SURFTAB1
 70
    36
  9
$SURFTAB2
 70
    36
  9
$SURFTYPE
 70
     6
  9
$SURFU
 70
     6
  9
$SURFV
 70
     6
  9
$UCSNAME
  2

  9
$UCSORG
 10
0.0
 20
0.0
 30
0.0
  9
$UCSXDIR
 10
1.0
 20
0.0
 30
0.0
  9
$UCSYDIR
 10
0.0
 20
1.0
 30
0.0
  9
$PUCSNAME
  2

  9
$PUCSORG
 10
0.0
 20
0.0
 30
0.0
  9
$PUCSXDIR
 10
1.0
 20
0.0
 30
0.0
  9
$PUCSYDIR
 10
0.0
 20
1.0
 30
0.0
  9
$USERI1
 70
     0
  9
$USERI2
 70
     0
  9
$USERI3
 70
     0
  9
$USERI4
 70
     0
  9
$USERI5
 70
     0
  9
$USERR1
 40
0.0
  9
$USERR2
 40
0.0
  9
$USERR3
 40
0.0
  9
$USERR4
 40
0.0
  9
$USERR5
 40
0.0
  9
$WORLDVIEW
 70
     1
  9
$SHADEDGE
 70
     0
  9
$SHADEDIF
 70
    70
  9
$TILEMODE
 70
     1
  9
$MAXACTVP
 70
    16
  9
$PLIMCHECK
 70
     0
  9
$PEXTMIN
 10
-0.805942
 20
0.005011
 30
0.0
  9
$PEXTMAX
 10
20.250094
 20
11.356329
 30
0.0
  9
$PLIMMIN
 10
0.0
 20
0.0
  9
$PLIMMAX
 10
12.0
 20
9.0
  9
$UNITMODE
 70
     0
  9
$VISRETAIN
 70
     0
  9
$PLINEGEN
 70
     0
  9
$PSLTSCALE
 70
     0
  0
ENDSEC
  0
SECTION
  2
TABLES
  0
TABLE
  2
VPORT
 70
     2
  0
VPORT
  2
*ACTIVE
 70
     0
 10
0.0
 20
0.0
 11
1.0
 21
1.0
 12
-46.34039
 22
343.908861
 13
0.0
 23
0.0
 14
1.0
 24
1.0
 15
50.0
 25
50.0
 16
0.0
 26
0.0
 36
1.0
 17
0.0
 27
0.0
 37
0.0
 40
712.311629
 41
1.926425
 42
50.0
 43
0.0
 44
0.0
 50
0.0
 51
0.0
 71
     0
 72
   100
 73
     1
 74
     1
 75
     0
 76
     0
 77
     0
 78
     0
  0
ENDTAB
  0
TABLE
  2
LTYPE
 70
     2
  0
LTYPE
  2
CONTINUOUS
 70
     0
  3
Solid Line
 72
    65
 73
     0
 40
0.0
  0
LTYPE
  2
31
 70
     0
  3

 72
    65
 73
     4
 40
2.1
 49
1.5
 49
-0.3
 49
0.0
 49
-0.3
  0
ENDTAB
  0
TABLE
  2
LAYER
 70
     9
  0
LAYER
  2
0
 70
     0
 62
     7
  6
CONTINUOUS
  0
LAYER
  2
DEFPOINTS
 70
     0
 62
     7
  6
CONTINUOUS
  0
LAYER
  2
TEAM-BODY
 70
     0
 62
     2
  6
CONTINUOUS
  0
LAYER
  2
TEAM-AXE
 70
     0
 62
    10
  6
31
  0
LAYER
  2
TEAM-MAS
 70
     0
 62
     9
  6
CONTINUOUS
  0
LAYER
  2
TEAM-TXT
 70
     0
 62
    11
  6
CONTINUOUS
  0
LAYER
  2
TEAM-DET1
 70
     0
 62
     4
  6
CONTINUOUS
  0
LAYER
  2
TEAM-KAN
 70
     0
 62
     6
  6
CONTINUOUS
  0
LAYER
  2
TEAM-INSP
 70
     0
 62
     5
  6
CONTINUOUS
  0
ENDTAB
  0
TABLE
  2
STYLE
 70
     2
  0
STYLE
  2
STANDARD
 70
     0
 40
0.0
 41
1.0
 50
0.0
 71
     0
 42
200.0
  3
txt
  4

  0
STYLE
  2
TEAM
 70
     0
 40
0.0
 41
0.8
 50
15.0
 71
     0
 42
7.0
  3
ROMANS.shx
  4

  0
ENDTAB
  0
TABLE
  2
VIEW
 70
     0
  0
ENDTAB
  0
TABLE
  2
UCS
 70
     0
  0
ENDTAB
  0
TABLE
  2
APPID
 70
     1
  0
APPID
  2
ACAD
 70
     0
  0
ENDTAB
  0
TABLE
  2
DIMSTYLE
 70
     1
  0
DIMSTYLE
  2
TEAM
 70
     0
  3

  4

  5

  6

  7

 40
0.0
 41
20.0
 42
10.0
 43
1.0
 44
1.0
 45
0.0
 46
0.0
 47
0.0
 48
0.0
140
35.0
141
1.0
142
0.0
143
25.4
144
1.0
145
0.0
146
1.0
147
7.0
 71
     0
 72
     0
 73
     0
 74
     0
 75
     0
 76
     0
 77
     0
 78
     0
170
     0
171
     2
172
     0
173
     0
174
     0
175
     0
176
     9
177
     9
178
    11
  0
ENDTAB
  0
ENDSEC
  0
SECTION
  2
BLOCKS
  0
BLOCK
  8
0
  2
$MODEL_SPACE
 70
     0
 10
0.0
 20
0.0
 30
0.0
  3
$MODEL_SPACE
  1

  0
ENDBLK
  5
C0
  8
0
  0
BLOCK
 67
     1
  8
0
  2
$PAPER_SPACE
 70
     0
 10
0.0
 20
0.0
 30
0.0
  3
$PAPER_SPACE
  1

  0
ENDBLK
  5
BE
 67
     1
  8
0
  0
BLOCK
  8
0
  2
*D0
 70
     1
 10
0.0
 20
0.0
 30
0.0
  3
*D0
  1

  0
LINE
  5
64
  8
0
  6
BYBLOCK
 62
     9
 10
8450.0
 20
604.0
 30
0.0
 11
8450.0
 21
637.225557
 31
0.0
  0
LINE
  5
65
  8
0
  6
BYBLOCK
 62
     9
 10
7700.0
 20
604.0
 30
0.0
 11
7700.0
 21
637.225557
 31
0.0
  0
LINE
  5
66
  8
0
  6
BYBLOCK
 62
     9
 10
8430.0
 20
636.225557
 30
0.0
 11
8160.75
 21
636.225557
 31
0.0
  0
LINE
  5
67
  8
0
  6
BYBLOCK
 62
     9
 10
7720.0
 20
636.225557
 30
0.0
 11
7989.25
 21
636.225557
 31
0.0
  0
SOLID
  5
68
  8
0
  6
BYBLOCK
 62
     9
 10
8430.0
 20
639.558891
 30
0.0
 11
8430.0
 21
632.892224
 31
0.0
 12
8450.0
 22
636.225557
 32
0.0
 13
8450.0
 23
636.225557
 33
0.0
  0
SOLID
  5
69
  8
0
  6
BYBLOCK
 62
     9
 10
7720.0
 20
639.558891
 30
0.0
 11
7720.0
 21
632.892224
 31
0.0
 12
7700.0
 22
636.225557
 32
0.0
 13
7700.0
 23
636.225557
 33
0.0
  0
TEXT
  5
6A
  8
0
  6
BYBLOCK
 62
    11
 10
7996.25
 20
618.725557
 30
0.0
 40
35.0
  1
750.00
  0
POINT
  5
6B
  8
DEFPOINTS
  6
BYBLOCK
 62
     0
 10
8450.0
 20
594.0
 30
0.0
  0
POINT
  5
6C
  8
DEFPOINTS
  6
BYBLOCK
 62
     0
 10
7700.0
 20
594.0
 30
0.0
  0
POINT
  5
6D
  8
DEFPOINTS
  6
BYBLOCK
 62
     0
 10
7700.0
 20
636.225557
 30
0.0
  0
ENDBLK
  5
6F
  8
0
  0
BLOCK
  8
0
  2
*D1
 70
     1
 10
0.0
 20
0.0
 30
0.0
  3
*D1
  1

  0
LINE
  5
35
  8
0
  6
BYBLOCK
 62
     9
 10
8454.0
 20
600.0
 30
0.0
 11
8542.017187
 21
600.0
 31
0.0
  0
LINE
  5
36
  8
0
  6
BYBLOCK
 62
     9
 10
8010.0
 20
0.0
 30
0.0
 11
8542.017187
 21
0.0
 31
0.0
  0
LINE
  5
37
  8
0
  6
BYBLOCK
 62
     9
 10
8541.017187
 20
580.0
 30
0.0
 11
8541.017187
 21
382.833333
 31
0.0
  0
LINE
  5
38
  8
0
  6
BYBLOCK
 62
     9
 10
8541.017187
 20
20.0
 30
0.0
 11
8541.017187
 21
217.166667
 31
0.0
  0
SOLID
  5
39
  8
0
  6
BYBLOCK
 62
     9
 10
8537.683853
 20
580.0
 30
0.0
 11
8544.35052
 21
580.0
 31
0.0
 12
8541.017187
 22
600.0
 32
0.0
 13
8541.017187
 23
600.0
 33
0.0
  0
SOLID
  5
3A
  8
0
  6
BYBLOCK
 62
     9
 10
8537.683853
 20
20.0
 30
0.0
 11
8544.35052
 21
20.0
 31
0.0
 12
8541.017187
 22
0.0
 32
0.0
 13
8541.017187
 23
0.0
 33
0.0
  0
TEXT
  5
3B
  8
0
  6
BYBLOCK
 62
    11
 10
8558.517187
 20
224.166667
 30
0.0
 40
35.0
  1
600.00
 50
90.0
  0
POINT
  5
3C
  8
DEFPOINTS
  6
BYBLOCK
 62
     0
 10
8444.0
 20
600.0
 30
0.0
  0
POINT
  5
3D
  8
DEFPOINTS
  6
BYBLOCK
 62
     0
 10
8000.0
 20
0.0
 30
0.0
  0
POINT
  5
3E
  8
DEFPOINTS
  6
BYBLOCK
 62
     0
 10
8541.017187
 20
0.0
 30
0.0
  0
ENDBLK
  5
40
  8
0
  0
BLOCK
  8
0
  2
*D2
 70
     1
 10
0.0
 20
0.0
 30
0.0
  3
*D2
  1

  0
LINE
  5
55
  8
0
  6
BYBLOCK
 62
     9
 10
8139.83
 20
72.685052
 30
0.0
 11
8139.83
 21
44.556898
 31
0.0
  0
LINE
  5
56
  8
0
  6
BYBLOCK
 62
     9
 10
8087.83
 20
72.685052
 30
0.0
 11
8087.83
 21
44.556898
 31
0.0
  0
LINE
  5
57
  8
0
  6
BYBLOCK
 62
     9
 10
8159.83
 20
45.556898
 30
0.0
 11
8179.83
 21
45.556898
 31
0.0
  0
LINE
  5
58
  8
0
  6
BYBLOCK
 62
     9
 10
8067.83
 20
45.556898
 30
0.0
 11
8047.83
 21
45.556898
 31
0.0
  0
TEXT
  5
59
  8
0
  6
BYBLOCK
 62
    11
 10
8185.184572
 20
28.528811
 30
0.0
 40
35.0
  1
52.00
  0
LINE
  5
5A
  8
0
  6
BYBLOCK
 62
     9
 10
8139.83
 20
45.556898
 30
0.0
 11
8087.83
 21
45.556898
 31
0.0
  0
SOLID
  5
5B
  8
0
  6
BYBLOCK
 62
     9
 10
8159.83
 20
48.890231
 30
0.0
 11
8159.83
 21
42.223565
 31
0.0
 12
8139.83
 22
45.556898
 32
0.0
 13
8139.83
 23
45.556898
 33
0.0
  0
SOLID
  5
5C
  8
0
  6
BYBLOCK
 62
     9
 10
8067.83
 20
48.890231
 30
0.0
 11
8067.83
 21
42.223565
 31
0.0
 12
8087.83
 22
45.556898
 32
0.0
 13
8087.83
 23
45.556898
 33
0.0
  0
POINT
  5
5D
  8
DEFPOINTS
  6
BYBLOCK
 62
     0
 10
8139.83
 20
82.685052
 30
0.0
  0
POINT
  5
5E
  8
DEFPOINTS
  6
BYBLOCK
 62
     0
 10
8087.83
 20
82.685052
 30
0.0
  0
POINT
  5
5F
  8
DEFPOINTS
  6
BYBLOCK
 62
     0
 10
8087.83
 20
45.556898
 30
0.0
  0
ENDBLK
  5
61
  8
0
  0
BLOCK
  8
0
  2
*D3
 70
     1
 10
0.0
 20
0.0
 30
0.0
  3
*D3
  1

  0
LINE
  5
80
  8
0
  6
BYBLOCK
 62
     9
 10
8450.0
 20
604.0
 30
0.0
 11
8450.0
 21
681.339381
 31
0.0
  0
LINE
  5
81
  8
0
  6
BYBLOCK
 62
     9
 10
7350.0
 20
604.0
 30
0.0
 11
7350.0
 21
681.339381
 31
0.0
  0
LINE
  5
82
  8
0
  6
BYBLOCK
 62
     9
 10
8430.0
 20
680.339381
 30
0.0
 11
7988.666667
 21
680.339381
 31
0.0
  0
LINE
  5
83
  8
0
  6
BYBLOCK
 62
     9
 10
7370.0
 20
680.339381
 30
0.0
 11
7811.333333
 21
680.339381
 31
0.0
  0
SOLID
  5
84
  8
0
  6
BYBLOCK
 62
     9
 10
8430.0
 20
683.672715
 30
0.0
 11
8430.0
 21
677.006048
 31
0.0
 12
8450.0
 22
680.339381
 32
0.0
 13
8450.0
 23
680.339381
 33
0.0
  0
SOLID
  5
85
  8
0
  6
BYBLOCK
 62
     9
 10
7370.0
 20
683.672715
 30
0.0
 11
7370.0
 21
677.006048
 31
0.0
 12
7350.0
 22
680.339381
 32
0.0
 13
7350.0
 23
680.339381
 33
0.0
  0
TEXT
  5
86
  8
0
  6
BYBLOCK
 62
    11
 10
7818.333333
 20
662.839381
 30
0.0
 40
35.0
  1
1100.00
  0
POINT
  5
87
  8
DEFPOINTS
  6
BYBLOCK
 62
     0
 10
8450.0
 20
594.0
 30
0.0
  0
POINT
  5
88
  8
DEFPOINTS
  6
BYBLOCK
 62
     0
 10
7350.0
 20
594.0
 30
0.0
  0
POINT
  5
89
  8
DEFPOINTS
  6
BYBLOCK
 62
     0
 10
7350.0
 20
680.339381
 30
0.0
  0
ENDBLK
  5
8B
  8
0
  0
BLOCK
  8
0
  2
*D4
 70
     1
 10
0.0
 20
0.0
 30
0.0
  3
*D4
  1

  0
LINE
  5
25
  8
0
  6
BYBLOCK
 62
     9
 10
8454.505
 20
600.0
 30
0.0
 11
8496.349707
 21
600.0
 31
0.0
  0
LINE
  5
26
  8
0
  6
BYBLOCK
 62
     9
 10
8124.997892
 20
110.0
 30
0.0
 11
8496.349707
 21
110.0
 31
0.0
  0
LINE
  5
27
  8
0
  6
BYBLOCK
 62
     9
 10
8495.349707
 20
580.0
 30
0.0
 11
8495.349707
 21
440.75
 31
0.0
  0
LINE
  5
28
  8
0
  6
BYBLOCK
 62
     9
 10
8495.349707
 20
130.0
 30
0.0
 11
8495.349707
 21
269.25
 31
0.0
  0
SOLID
  5
29
  8
0
  6
BYBLOCK
 62
     9
 10
8492.016374
 20
580.0
 30
0.0
 11
8498.683041
 21
580.0
 31
0.0
 12
8495.349707
 22
600.0
 32
0.0
 13
8495.349707
 23
600.0
 33
0.0
  0
SOLID
  5
2A
  8
0
  6
BYBLOCK
 62
     9
 10
8492.016374
 20
130.0
 30
0.0
 11
8498.683041
 21
130.0
 31
0.0
 12
8495.349707
 22
110.0
 32
0.0
 13
8495.349707
 23
110.0
 33
0.0
  0
TEXT
  5
2B
  8
0
  6
BYBLOCK
 62
    11
 10
8512.849707
 20
276.25
 30
0.0
 40
35.0
  1
490.00
 50
90.0
  0
POINT
  5
2C
  8
DEFPOINTS
  6
BYBLOCK
 62
     0
 10
8444.505
 20
600.0
 30
0.0
  0
POINT
  5
2E
  8
DEFPOINTS
  6
BYBLOCK
 62
     0
 10
8114.997892
 20
110.0
 30
0.0
  0
POINT
  5
2F
  8
DEFPOINTS
  6
BYBLOCK
 62
     0
 10
8495.349707
 20
110.0
 30
0.0
  0
ENDBLK
  5
31
  8
0
  0
ENDSEC
  0
SECTION
  2
ENTITIES
  0
ARC
  5
1F
  8
TEAM-BODY
 10
5069.762885
 20
955.145824
 30
0.0
 40
5303.91113
 50
184.185886
 51
188.160394
  0
ARC
  5
21
  8
TEAM-BODY
 10
-5599.423509
 20
1596.900175
 30
0.0
 40
6057.446046
 50
346.501423
 51
350.22049
  0
DIMENSION
  5
22
  8
TEAM-MAS
  2
*D4
 10
495.349707
 20
110.0
 30
0.0
 11
495.349707
 21
355.0
 31
0.0
 12
-8000.0
 22
0.0
 32
0.0
 13
444.505
 23
600.0
 33
0.0
 14
114.997892
 24
110.0
 34
0.0
 50
90.0
1001
ACAD
1000
DSTYLE
1002
{
1070
    40
1040
1.0
1002
}
  0
ARC
  5
32
  8
TEAM-BODY
 10
4200.901563
 20
935.808964
 30
0.0
 40
4785.058533
 50
184.408454
 51
188.592921
  0
DIMENSION
  5
33
  8
TEAM-MAS
  2
*D1
 10
541.017187
 20
0.0
 30
0.0
 11
541.017187
 21
300.0
 31
0.0
 12
-8000.0
 22
0.0
 32
0.0
 13
444.0
 23
600.0
 33
0.0
 14
0.0
 24
0.0
 34
0.0
 50
90.0
1001
ACAD
1000
DSTYLE
1002
{
1070
    40
1040
1.0
1002
}
  0
ARC
  5
41
  8
TEAM-BODY
 10
-88.951956
 20
221.41679
 30
0.0
 40
93.47685
 50
191.811067
 51
263.267807
  0
ARC
  5
42
  8
TEAM-BODY
 10
2871.924279
 20
23236.958548
 30
0.0
 40
23298.685635
 50
262.671745
 51
263.015612
  0
LINE
  5
43
  8
TEAM-KAN
 10
87.83
 20
82.685052
 30
0.0
 11
139.83
 21
82.685052
 31
0.0
  0
LINE
  5
45
  8
TEAM-KAN
 10
87.83
 20
82.685052
 30
0.0
 11
87.83
 21
86.726504
 31
0.0
  0
ARC
  5
46
  8
TEAM-BODY
 10
187.389485
 20
219.601147
 30
0.0
 40
109.610614
 50
270.753009
 51
340.472896
  0
LINE
  5
47
  8
TEAM-DET1
 10
139.83
 20
86.726504
 30
0.0
 11
188.83
 21
110.0
 31
0.0
  0
LINE
  5
49
  8
TEAM-KAN
 10
139.83
 20
82.685052
 30
0.0
 11
139.83
 21
86.726504
 31
0.0
  0
LINE
  5
4A
  8
TEAM-AXE
 10
113.83
 20
67.004764
 30
0.0
 11
113.83
 21
108.36534
 31
0.0
  0
ARC
  5
4D
  8
TEAM-BODY
 10
-438.951956
 20
239.9912
 30
0.0
 40
93.47685
 50
191.811067
 51
263.267807
  0
ARC
  5
4E
  8
TEAM-BODY
 10
8.350308
 20
3027.026749
 30
0.0
 40
2916.02109
 50
260.968383
 51
270.598895
  0
CIRCLE
  5
4F
  8
TEAM-INSP
 10
0.0
 20
0.0
 30
0.0
 40
10.0
  0
LINE
  5
51
  8
TEAM-BODY
 10
41.165784
 20
110.0
 30
0.0
 11
188.83
 21
110.0
 31
0.0
  0
LINE
  5
52
  8
TEAM-DET1
 10
38.83
 20
111.164958
 30
0.0
 11
87.83
 21
86.726504
 31
0.0
  0
DIMENSION
  5
53
  8
TEAM-MAS
  2
*D2
 10
87.83
 20
45.556898
 30
0.0
 11
249.351238
 21
46.028811
 31
0.0
 12
-8000.0
 22
0.0
 32
0.0
 70
   128
 13
139.83
 23
82.685052
 33
0.0
 14
87.83
 24
82.685052
 34
0.0
1001
ACAD
1000
DSTYLE
1002
{
1070
    78
1070
     0
1070
    40
1040
1.0
1002
}
  0
DIMENSION
  5
62
  8
TEAM-MAS
  2
*D0
 10
-300.0
 20
636.225557
 30
0.0
 11
75.0
 21
636.225557
 31
0.0
 12
-8000.0
 22
0.0
 32
0.0
 13
450.0
 23
594.0
 33
0.0
 14
-300.0
 24
594.0
 34
0.0
1001
ACAD
1000
DSTYLE
1002
{
1070
    40
1040
1.0
1002
}
  0
LINE
  5
70
  8
TEAM-BODY
 10
-300.0
 20
594.0
 30
0.0
 11
-300.0
 21
574.0
 31
0.0
  0
ARC
  5
71
  8
TEAM-BODY
 10
-294.0
 20
574.0
 30
0.0
 40
6.0
 50
180.0
 51
270.0
  0
ARC
  5
72
  8
TEAM-BODY
 10
-294.0
 20
594.0
 30
0.0
 40
6.0
 50
90.0
 51
180.0
  0
ARC
  5
73
  8
TEAM-BODY
 10
444.0
 20
594.0
 30
0.0
 40
6.0
 50
0.0
 51
90.0
  0
ARC
  5
74
  8
TEAM-BODY
 10
444.0
 20
574.0
 30
0.0
 40
6.0
 50
270.0
 51
0.0
  0
LINE
  5
75
  8
TEAM-BODY
 10
450.0
 20
594.0
 30
0.0
 11
450.0
 21
574.0
 31
0.0
  0
TEXT
  5
76
  8
TEAM-TXT
 10
-521.68272
 20
515.75601
 30
0.0
 40
30.0
  1
team 121079
 41
0.8
 51
15.0
  7
TEAM
  0
LINE
  5
79
  8
TEAM-BODY
 10
-650.0
 20
594.0
 30
0.0
 11
-650.0
 21
574.0
 31
0.0
  0
ARC
  5
7A
  8
TEAM-BODY
 10
-644.0
 20
574.0
 30
0.0
 40
6.0
 50
180.0
 51
270.0
  0
ARC
  5
7B
  8
TEAM-BODY
 10
-644.0
 20
594.0
 30
0.0
 40
6.0
 50
90.0
 51
180.0
  0
LINE
  5
7C
  8
TEAM-DET1
 10
444.0
 20
568.0
 30
0.0
 11
-644.0
 21
568.0
 31
0.0
  0
LINE
  5
7D
  8
TEAM-BODY
 10
-644.0
 20
600.0
 30
0.0
 11
444.0
 21
600.0
 31
0.0
  0
DIMENSION
  5
7E
  8
TEAM-MAS
  2
*D3
 10
-650.0
 20
680.339381
 30
0.0
 11
-100.0
 21
680.339381
 31
0.0
 12
-8000.0
 22
0.0
 32
0.0
 13
450.0
 23
594.0
 33
0.0
 14
-650.0
 24
594.0
 34
0.0
1001
ACAD
1000
DSTYLE
1002
{
1070
    40
1040
1.0
1002
}
  0
ENDSEC
  0
EOF
