  0
SECTION
  2
HEADER
  9
$ACADVER
  1
AC1009
  9
$INSBASE
 10
0.0
 20
0.0
 30
0.0
  9
$EXTMIN
 10
-853.032055
 20
-10.018614
 30
-0.001526
  9
$EXTMAX
 10
904.291531
 20
602.112886
 30
0.0
  9
$LIMMIN
 10
-853.032055
 20
-10.018614
  9
$LIMMAX
 10
904.291531
 20
602.112886
  9
$ORTHOMODE
 70
     1
  9
$REGENMODE
 70
     1
  9
$FILLMODE
 70
     1
  9
$QTEXTMODE
 70
     0
  9
$MIRRTEXT
 70
     0
  9
$DRAGMODE
 70
     2
  9
$LTSCALE
 40
50.0
  9
$OSMODE
 70
     7
  9
$ATTMODE
 70
     1
  9
$TEXTSIZE
 40
200.0
  9
$TRACEWID
 40
1.0
  9
$TEXTSTYLE
  7
STANDARD
  9
$CLAYER
  8
TEAM-MAS
  9
$CELTYPE
  6
BYLAYER
  9
$CECOLOR
 62
   256
  9
$DIMSCALE
 40
0.0
  9
$DIMASZ
 40
20.0
  9
$DIMEXO
 40
10.0
  9
$DIMDLI
 40
1.0
  9
$DIMRND
 40
0.0
  9
$DIMDLE
 40
0.0
  9
$DIMEXE
 40
1.0
  9
$DIMTP
 40
0.0
  9
$DIMTM
 40
0.0
  9
$DIMTXT
 40
35.0
  9
$DIMCEN
 40
1.0
  9
$DIMTSZ
 40
0.0
  9
$DIMTOL
 70
     0
  9
$DIMLIM
 70
     0
  9
$DIMTIH
 70
     0
  9
$DIMTOH
 70
     0
  9
$DIMSE1
 70
     0
  9
$DIMSE2
 70
     0
  9
$DIMTAD
 70
     0
  9
$DIMZIN
 70
     0
  9
$DIMBLK
  1

  9
$DIMASO
 70
     1
  9
$DIMSHO
 70
     0
  9
$DIMPOST
  1

  9
$DIMAPOST
  1

  9
$DIMALT
 70
     0
  9
$DIMALTD
 70
     2
  9
$DIMALTF
 40
25.4
  9
$DIMLFAC
 40
1.0
  9
$DIMTOFL
 70
     0
  9
$DIMTVP
 40
0.0
  9
$DIMTIX
 70
     0
  9
$DIMSOXD
 70
     0
  9
$DIMSAH
 70
     0
  9
$DIMBLK1
  1

  9
$DIMBLK2
  1

  9
$DIMSTYLE
  2
TEAM
  9
$DIMCLRD
 70
     9
  9
$DIMCLRE
 70
     9
  9
$DIMCLRT
 70
    11
  9
$DIMTFAC
 40
1.0
  9
$DIMGAP
 40
7.0
  9
$LUNITS
 70
     2
  9
$LUPREC
 70
     1
  9
$SKETCHINC
 40
1.0
  9
$FILLETRAD
 40
9.5
  9
$AUNITS
 70
     0
  9
$AUPREC
 70
     0
  9
$MENU
  1
ROPLANS
  9
$ELEVATION
 40
0.0
  9
$PELEVATION
 40
0.0
  9
$THICKNESS
 40
0.0
  9
$LIMCHECK
 70
     0
  9
$BLIPMODE
 70
     1
  9
$CHAMFERA
 40
0.0
  9
$CHAMFERB
 40
0.0
  9
$SKPOLY
 70
     0
  9
$TDCREATE
 40
2450392.957851
  9
$TDUPDATE
 40
2455944.717343
  9
$TDINDWG
 40
3.569992
  9
$TDUSRTIMER
 40
3.569992
  9
$USRTIMER
 70
     1
  9
$ANGBASE
 50
0.0
  9
$ANGDIR
 70
     0
  9
$PDMODE
 70
     0
  9
$PDSIZE
 40
0.0
  9
$PLINEWID
 40
0.0
  9
$COORDS
 70
     2
  9
$SPLFRAME
 70
     0
  9
$SPLINETYPE
 70
     6
  9
$SPLINESEGS
 70
     8
  9
$ATTDIA
 70
     0
  9
$ATTREQ
 70
     0
  9
$HANDLING
 70
     1
  9
$HANDSEED
  5
16C
  9
$SURFTAB1
 70
    24
  9
$SURFTAB2
 70
    24
  9
$SURFTYPE
 70
     6
  9
$SURFU
 70
     6
  9
$SURFV
 70
     6
  9
$UCSNAME
  2

  9
$UCSORG
 10
0.0
 20
0.0
 30
0.0
  9
$UCSXDIR
 10
1.0
 20
0.0
 30
0.0
  9
$UCSYDIR
 10
0.0
 20
1.0
 30
0.0
  9
$PUCSNAME
  2

  9
$PUCSORG
 10
0.0
 20
0.0
 30
0.0
  9
$PUCSXDIR
 10
1.0
 20
0.0
 30
0.0
  9
$PUCSYDIR
 10
0.0
 20
1.0
 30
0.0
  9
$USERI1
 70
     0
  9
$USERI2
 70
     0
  9
$USERI3
 70
     0
  9
$USERI4
 70
     0
  9
$USERI5
 70
     0
  9
$USERR1
 40
0.0
  9
$USERR2
 40
0.0
  9
$USERR3
 40
0.0
  9
$USERR4
 40
0.0
  9
$USERR5
 40
0.0
  9
$WORLDVIEW
 70
     1
  9
$SHADEDGE
 70
     0
  9
$SHADEDIF
 70
    70
  9
$TILEMODE
 70
     1
  9
$MAXACTVP
 70
    16
  9
$PLIMCHECK
 70
     0
  9
$PEXTMIN
 10
-0.805942
 20
0.005011
 30
0.0
  9
$PEXTMAX
 10
20.250094
 20
11.356329
 30
0.0
  9
$PLIMMIN
 10
0.0
 20
0.0
  9
$PLIMMAX
 10
12.0
 20
9.0
  9
$UNITMODE
 70
     0
  9
$VISRETAIN
 70
     0
  9
$PLINEGEN
 70
     0
  9
$PSLTSCALE
 70
     0
  0
ENDSEC
  0
SECTION
  2
TABLES
  0
TABLE
  2
VPORT
 70
     2
  0
VPORT
  2
*ACTIVE
 70
     0
 10
0.0
 20
0.0
 11
1.0
 21
1.0
 12
25.629738
 22
296.047136
 13
0.0
 23
0.0
 14
1.0
 24
1.0
 15
50.0
 25
50.0
 16
0.0
 26
0.0
 36
1.0
 17
0.0
 27
0.0
 37
0.0
 40
926.117597
 41
1.903766
 42
50.0
 43
0.0
 44
0.0
 50
0.0
 51
0.0
 71
     0
 72
   100
 73
     1
 74
     1
 75
     0
 76
     0
 77
     0
 78
     0
  0
ENDTAB
  0
TABLE
  2
LTYPE
 70
     2
  0
LTYPE
  2
CONTINUOUS
 70
     0
  3
Solid Line
 72
    65
 73
     0
 40
0.0
  0
LTYPE
  2
22
 70
     0
  3

 72
    65
 73
     2
 40
1.4
 49
1.2
 49
-0.2
  0
ENDTAB
  0
TABLE
  2
LAYER
 70
    10
  0
LAYER
  2
0
 70
     0
 62
     7
  6
CONTINUOUS
  0
LAYER
  2
DEFPOINTS
 70
     0
 62
     7
  6
CONTINUOUS
  0
LAYER
  2
TEAM-BODY
 70
     0
 62
     2
  6
CONTINUOUS
  0
LAYER
  2
TEAM-MAS
 70
     0
 62
     9
  6
CONTINUOUS
  0
LAYER
  2
TEAM-TXT
 70
     0
 62
    11
  6
CONTINUOUS
  0
LAYER
  2
TEAM-DET1
 70
     0
 62
     4
  6
CONTINUOUS
  0
LAYER
  2
TEAM-HIDE
 70
     0
 62
     8
  6
22
  0
LAYER
  2
TEAM-KAN
 70
     0
 62
     6
  6
CONTINUOUS
  0
LAYER
  2
TEAM-DET3
 70
     0
 62
    14
  6
CONTINUOUS
  0
LAYER
  2
TEAM-INSP
 70
     0
 62
     5
  6
CONTINUOUS
  0
ENDTAB
  0
TABLE
  2
STYLE
 70
     2
  0
STYLE
  2
STANDARD
 70
     0
 40
0.0
 41
1.0
 50
0.0
 71
     0
 42
200.0
  3
txt
  4

  0
STYLE
  2
TEAM
 70
     0
 40
0.0
 41
0.8
 50
15.0
 71
     0
 42
7.0
  3
ROMANS.shx
  4

  0
ENDTAB
  0
TABLE
  2
VIEW
 70
     0
  0
ENDTAB
  0
TABLE
  2
UCS
 70
     0
  0
ENDTAB
  0
TABLE
  2
APPID
 70
     1
  0
APPID
  2
ACAD
 70
     0
  0
ENDTAB
  0
TABLE
  2
DIMSTYLE
 70
     1
  0
DIMSTYLE
  2
TEAM
 70
     0
  3

  4

  5

  6

  7

 40
0.0
 41
20.0
 42
10.0
 43
1.0
 44
1.0
 45
0.0
 46
0.0
 47
0.0
 48
0.0
140
35.0
141
1.0
142
0.0
143
25.4
144
1.0
145
0.0
146
1.0
147
7.0
 71
     0
 72
     0
 73
     0
 74
     0
 75
     0
 76
     0
 77
     0
 78
     0
170
     0
171
     2
172
     0
173
     0
174
     0
175
     0
176
     9
177
     9
178
    11
  0
ENDTAB
  0
ENDSEC
  0
SECTION
  2
BLOCKS
  0
BLOCK
  8
0
  2
$MODEL_SPACE
 70
     0
 10
0.0
 20
0.0
 30
0.0
  3
$MODEL_SPACE
  1

  0
ENDBLK
  5
13C
  8
0
  0
BLOCK
 67
     1
  8
0
  2
$PAPER_SPACE
 70
     0
 10
0.0
 20
0.0
 30
0.0
  3
$PAPER_SPACE
  1

  0
ENDBLK
  5
13A
 67
     1
  8
0
  0
BLOCK
  8
0
  2
*D0
 70
     1
 10
0.0
 20
0.0
 30
0.0
  3
*D0
  1

  0
LINE
  5
43
  8
0
  6
BYBLOCK
 62
     9
 10
8313.801706
 20
56110.005032
 30
0.0
 11
8313.801706
 21
56077.851312
 31
0.0
  0
LINE
  5
44
  8
0
  6
BYBLOCK
 62
     9
 10
8365.801706
 20
56110.005032
 30
0.0
 11
8365.801706
 21
56077.851312
 31
0.0
  0
LINE
  5
45
  8
0
  6
BYBLOCK
 62
     9
 10
8293.801706
 20
56078.851312
 30
0.0
 11
8273.801706
 21
56078.851312
 31
0.0
  0
LINE
  5
46
  8
0
  6
BYBLOCK
 62
     9
 10
8385.801706
 20
56078.851312
 30
0.0
 11
8405.801706
 21
56078.851312
 31
0.0
  0
TEXT
  5
47
  8
0
  6
BYBLOCK
 62
    11
 10
8186.182363
 20
56061.351312
 30
0.0
 40
35.0
  1
52
  0
LINE
  5
48
  8
0
  6
BYBLOCK
 62
     9
 10
8313.801706
 20
56078.851312
 30
0.0
 11
8365.801706
 21
56078.851312
 31
0.0
  0
SOLID
  5
49
  8
0
  6
BYBLOCK
 62
     9
 10
8293.801706
 20
56082.184645
 30
0.0
 11
8293.801706
 21
56075.517979
 31
0.0
 12
8313.801706
 22
56078.851312
 32
0.0
 13
8313.801706
 23
56078.851312
 33
0.0
  0
SOLID
  5
4A
  8
0
  6
BYBLOCK
 62
     9
 10
8385.801706
 20
56082.184645
 30
0.0
 11
8385.801706
 21
56075.517979
 31
0.0
 12
8365.801706
 22
56078.851312
 32
0.0
 13
8365.801706
 23
56078.851312
 33
0.0
  0
POINT
  5
4B
  8
DEFPOINTS
  6
BYBLOCK
 62
     0
 10
8313.801706
 20
56120.005032
 30
0.0
  0
POINT
  5
4C
  8
DEFPOINTS
  6
BYBLOCK
 62
     0
 10
8365.801706
 20
56120.005032
 30
0.0
  0
POINT
  5
4D
  8
DEFPOINTS
  6
BYBLOCK
 62
     0
 10
8365.801706
 20
56078.851312
 30
0.0
  0
ENDBLK
  5
4F
  8
0
  0
BLOCK
  8
0
  2
*D1
 70
     1
 10
0.0
 20
0.0
 30
0.0
  3
*D1
  1

  0
LINE
  5
2E
  8
0
  6
BYBLOCK
 62
     9
 10
8849.056709
 20
56600.0
 30
0.0
 11
8887.737967
 21
56600.0
 31
0.0
  0
LINE
  5
2F
  8
0
  6
BYBLOCK
 62
     9
 10
8375.801706
 20
56120.005032
 30
0.0
 11
8887.737967
 21
56120.005032
 31
0.0
  0
LINE
  5
30
  8
0
  6
BYBLOCK
 62
     9
 10
8886.737967
 20
56580.0
 30
0.0
 11
8886.737967
 21
56410.752516
 31
0.0
  0
LINE
  5
31
  8
0
  6
BYBLOCK
 62
     9
 10
8886.737967
 20
56140.005032
 30
0.0
 11
8886.737967
 21
56309.252516
 31
0.0
  0
SOLID
  5
32
  8
0
  6
BYBLOCK
 62
     9
 10
8883.404633
 20
56580.0
 30
0.0
 11
8890.0713
 21
56580.0
 31
0.0
 12
8886.737967
 22
56600.0
 32
0.0
 13
8886.737967
 23
56600.0
 33
0.0
  0
SOLID
  5
33
  8
0
  6
BYBLOCK
 62
     9
 10
8883.404633
 20
56140.005032
 30
0.0
 11
8890.0713
 21
56140.005032
 31
0.0
 12
8886.737967
 22
56120.005032
 32
0.0
 13
8886.737967
 23
56120.005032
 33
0.0
  0
TEXT
  5
34
  8
0
  6
BYBLOCK
 62
    11
 10
8904.237967
 20
56316.252516
 30
0.0
 40
35.0
  1
480
 50
90.0
  0
POINT
  5
35
  8
DEFPOINTS
  6
BYBLOCK
 62
     0
 10
8839.056709
 20
56600.0
 30
0.0
  0
POINT
  5
37
  8
DEFPOINTS
  6
BYBLOCK
 62
     0
 10
8365.801706
 20
56120.005032
 30
0.0
  0
POINT
  5
38
  8
DEFPOINTS
  6
BYBLOCK
 62
     0
 10
8886.737967
 20
56120.005032
 30
0.0
  0
ENDBLK
  5
3A
  8
0
  0
ENDSEC
  0
SECTION
  2
ENTITIES
  0
LINE
  5
20
  8
TEAM-BODY
 10
-849.056709
 20
570.0
 30
0.0
 11
847.277344
 21
570.0
 31
0.0
  0
LINE
  5
22
  8
TEAM-BODY
 10
849.056709
 20
570.0
 30
0.0
 11
-850.836074
 21
570.0
 31
0.0
  0
LINE
  5
23
  8
TEAM-BODY
 10
839.056709
 20
600.0
 30
0.0
 11
-840.836074
 21
600.0
 31
0.0
  0
LINE
  5
24
  8
TEAM-HIDE
 10
-805.144102
 20
0.0
 30
0.0
 11
805.144102
 21
0.0
 31
0.0
  0
ARC
  5
27
  8
TEAM-BODY
 10
-802.255693
 20
325.850978
 30
0.0
 40
245.0
 50
26.971847
 51
69.200419
  0
ARC
  5
28
  8
TEAM-BODY
 10
-933.836074
 20
-20.544445
 30
0.0
 40
615.544444
 50
69.200419
 51
73.614531
  0
LINE
  5
29
  8
TEAM-BODY
 10
-850.836074
 20
570.0
 30
0.0
 11
-850.836074
 21
590.0
 31
0.0
  0
ARC
  5
2A
  8
TEAM-BODY
 10
-840.836074
 20
590.0
 30
0.0
 40
10.0
 50
90.0
 51
180.0
  0
ARC
  5
2B
  8
TEAM-BODY
 10
461.249711
 20
235.04187
 30
0.0
 40
87.215481
 50
270.22278
 51
358.919663
  0
DIMENSION
  5
2C
  8
TEAM-MAS
  2
*D1
 10
886.737967
 20
120.005032
 30
0.0
 11
886.737967
 21
360.002516
 31
0.0
 12
-8000.0
 22
-56000.0
 32
0.0
 13
839.056709
 23
600.0
 33
0.0
 14
365.801706
 24
120.005032
 34
0.0
 50
90.0
1001
ACAD
1000
DSTYLE
1002
{
1070
    40
1040
1.0
1002
}
  0
POLYLINE
  5
3B
  8
TEAM-DET1
 66
     1
 10
0.0
 20
0.0
 30
0.0
 70
     1
  0
VERTEX
  5
142
  8
TEAM-DET1
 10
477.141054
 20
535.0
 30
0.0
  0
VERTEX
  5
143
  8
TEAM-DET1
 10
476.805411
 20
538.909899
 30
0.0
  0
VERTEX
  5
144
  8
TEAM-DET1
 10
475.80675
 20
542.723524
 30
0.0
  0
VERTEX
  5
145
  8
TEAM-DET1
 10
474.169659
 20
546.34697
 30
0.0
  0
VERTEX
  5
146
  8
TEAM-DET1
 10
471.934449
 20
549.691016
 30
0.0
  0
VERTEX
  5
147
  8
TEAM-DET1
 10
469.156159
 20
552.67332
 30
0.0
  0
VERTEX
  5
148
  8
TEAM-DET1
 10
465.9032
 20
555.220449
 30
0.0
  0
VERTEX
  5
149
  8
TEAM-DET1
 10
462.25567
 20
557.269682
 30
0.0
  0
VERTEX
  5
14A
  8
TEAM-DET1
 10
458.303383
 20
558.770563
 30
0.0
  0
VERTEX
  5
14B
  8
TEAM-DET1
 10
454.143657
 20
559.686133
 30
0.0
  0
VERTEX
  5
14C
  8
TEAM-DET1
 10
449.87892
 20
559.993849
 30
0.0
  0
VERTEX
  5
14D
  8
TEAM-DET1
 10
445.614183
 20
559.686133
 30
0.0
  0
VERTEX
  5
14E
  8
TEAM-DET1
 10
441.454457
 20
558.770563
 30
0.0
  0
VERTEX
  5
14F
  8
TEAM-DET1
 10
437.50217
 20
557.269682
 30
0.0
  0
VERTEX
  5
150
  8
TEAM-DET1
 10
433.85464
 20
555.220449
 30
0.0
  0
VERTEX
  5
151
  8
TEAM-DET1
 10
430.601681
 20
552.67332
 30
0.0
  0
VERTEX
  5
152
  8
TEAM-DET1
 10
427.823391
 20
549.691016
 30
0.0
  0
VERTEX
  5
153
  8
TEAM-DET1
 10
425.588181
 20
546.34697
 30
0.0
  0
VERTEX
  5
154
  8
TEAM-DET1
 10
423.95109
 20
542.723524
 30
0.0
  0
VERTEX
  5
155
  8
TEAM-DET1
 10
422.952429
 20
538.909899
 30
0.0
  0
VERTEX
  5
156
  8
TEAM-DET1
 10
422.616787
 20
535.0
 30
0.0
  0
VERTEX
  5
157
  8
TEAM-DET1
 10
422.952429
 20
531.0901
 30
0.0
  0
VERTEX
  5
158
  8
TEAM-DET1
 10
423.95109
 20
527.276476
 30
0.0
  0
VERTEX
  5
159
  8
TEAM-DET1
 10
425.588181
 20
523.65303
 30
0.0
  0
VERTEX
  5
15A
  8
TEAM-DET1
 10
427.823391
 20
520.308984
 30
0.0
  0
VERTEX
  5
15B
  8
TEAM-DET1
 10
430.601681
 20
517.32668
 30
0.0
  0
VERTEX
  5
15C
  8
TEAM-DET1
 10
433.85464
 20
514.779551
 30
0.0
  0
VERTEX
  5
15D
  8
TEAM-DET1
 10
437.50217
 20
512.730317
 30
0.0
  0
VERTEX
  5
15E
  8
TEAM-DET1
 10
441.454457
 20
511.229437
 30
0.0
  0
VERTEX
  5
15F
  8
TEAM-DET1
 10
445.614183
 20
510.313866
 30
0.0
  0
VERTEX
  5
160
  8
TEAM-DET1
 10
449.87892
 20
510.006151
 30
0.0
  0
VERTEX
  5
161
  8
TEAM-DET1
 10
454.143657
 20
510.313866
 30
0.0
  0
VERTEX
  5
162
  8
TEAM-DET1
 10
458.303383
 20
511.229437
 30
0.0
  0
VERTEX
  5
163
  8
TEAM-DET1
 10
462.25567
 20
512.730317
 30
0.0
  0
VERTEX
  5
164
  8
TEAM-DET1
 10
465.9032
 20
514.779551
 30
0.0
  0
VERTEX
  5
165
  8
TEAM-DET1
 10
469.156159
 20
517.32668
 30
0.0
  0
VERTEX
  5
166
  8
TEAM-DET1
 10
471.934449
 20
520.308984
 30
0.0
  0
VERTEX
  5
167
  8
TEAM-DET1
 10
474.169659
 20
523.65303
 30
0.0
  0
VERTEX
  5
168
  8
TEAM-DET1
 10
475.80675
 20
527.276476
 30
0.0
  0
VERTEX
  5
169
  8
TEAM-DET1
 10
476.805411
 20
531.0901
 30
0.0
  0
SEQEND
  5
16A
  8
TEAM-DET1
  0
TEXT
  5
3D
  8
TEAM-TXT
 10
91.236659
 20
515.75601
 30
0.0
 40
30.0
  1
team 121137
 41
0.8
 51
15.0
  7
TEAM
  0
LINE
  5
40
  8
TEAM-BODY
 10
368.801706
 20
126.505032
 30
0.0
 11
388.934757
 21
138.128855
 31
0.0
  0
DIMENSION
  5
41
  8
TEAM-MAS
  2
*D0
 10
365.801706
 20
78.851312
 30
0.0
 11
215.34903
 21
78.851312
 31
0.0
 12
-8000.0
 22
-56000.0
 32
0.0
 70
   128
 13
313.801706
 23
120.005032
 33
0.0
 14
365.801706
 24
120.005032
 34
0.0
1001
ACAD
1000
DSTYLE
1002
{
1070
    78
1070
     0
1070
    40
1040
1.0
1002
}
  0
LINE
  5
50
  8
TEAM-DET3
 10
-8.341795
 20
10.0
 30
0.0
 11
-8.341795
 21
0.0
 31
0.0
  0
LINE
  5
52
  8
TEAM-DET3
 10
258.452042
 20
139.372519
 30
0.0
 11
239.807924
 21
120.728401
 31
0.0
  0
LINE
  5
53
  8
TEAM-BODY
 10
310.801706
 20
126.505032
 30
0.0
 11
290.668655
 21
138.128855
 31
0.0
  0
ARC
  5
54
  8
TEAM-BODY
 10
288.168655
 20
133.798728
 30
0.0
 40
5.0
 50
60.0
 51
88.895617
  0
LINE
  5
55
  8
TEAM-BODY
 10
368.801706
 20
126.505032
 30
0.0
 11
310.801706
 21
126.505032
 31
0.0
  0
LINE
  5
56
  8
TEAM-KAN
 10
365.801706
 20
122.505032
 30
0.0
 11
365.801706
 21
120.005032
 31
0.0
  0
LINE
  5
58
  8
TEAM-KAN
 10
365.801706
 20
120.005032
 30
0.0
 11
313.801706
 21
120.005032
 31
0.0
  0
LINE
  5
59
  8
TEAM-KAN
 10
313.801706
 20
120.005032
 30
0.0
 11
313.801706
 21
122.505032
 31
0.0
  0
LINE
  5
5A
  8
TEAM-KAN
 10
313.801706
 20
126.505032
 30
0.0
 11
365.801706
 21
126.505032
 31
0.0
  0
LINE
  5
5B
  8
TEAM-KAN
 10
365.801706
 20
126.505032
 30
0.0
 11
365.801706
 21
122.505032
 31
0.0
  0
LINE
  5
5C
  8
TEAM-KAN
 10
313.801706
 20
122.505032
 30
0.0
 11
313.801706
 21
126.505032
 31
0.0
  0
CIRCLE
  5
5D
  8
TEAM-INSP
 10
0.0
 20
0.0
 30
0.0
 40
10.0
  0
LINE
  5
5F
  8
TEAM-DET3
 10
496.255821
 20
127.613291
 30
0.0
 11
522.457128
 21
172.911425
 31
0.0
  0
LINE
  5
60
  8
TEAM-DET3
 10
439.795488
 20
120.728401
 30
0.0
 11
496.255821
 21
127.613291
 31
0.0
  0
LINE
  5
61
  8
TEAM-DET3
 10
462.669647
 20
10.0
 30
0.0
 11
498.669647
 21
10.0
 31
0.0
  0
LINE
  5
62
  8
TEAM-DET3
 10
498.669647
 20
0.0
 30
0.0
 11
462.669647
 21
0.0
 31
0.0
  0
LINE
  5
63
  8
TEAM-DET3
 10
469.69967
 20
137.65
 30
0.0
 11
491.639624
 21
137.65
 31
0.0
  0
LINE
  5
64
  8
TEAM-DET3
 10
469.69967
 20
127.65
 30
0.0
 11
491.639624
 21
127.65
 31
0.0
  0
LINE
  5
65
  8
TEAM-DET3
 10
469.930958
 20
109.65
 30
0.0
 11
491.408336
 21
109.65
 31
0.0
  0
LINE
  5
66
  8
TEAM-DET3
 10
469.930958
 20
113.65
 30
0.0
 11
491.408336
 21
113.65
 31
0.0
  0
LINE
  5
67
  8
TEAM-BODY
 10
391.338388
 20
138.797799
 30
0.0
 11
461.588825
 21
147.827048
 31
0.0
  0
LINE
  5
68
  8
TEAM-DET3
 10
421.15137
 20
139.372519
 30
0.0
 11
439.795488
 21
120.728401
 31
0.0
  0
ARC
  5
69
  8
TEAM-BODY
 10
391.434757
 20
133.798728
 30
0.0
 40
5.0
 50
91.104383
 51
120.0
  0
LINE
  5
6A
  8
TEAM-DET3
 10
468.169647
 20
15.0
 30
0.0
 11
462.669647
 21
10.0
 31
0.0
  0
LINE
  5
6B
  8
TEAM-DET3
 10
462.669647
 20
10.0
 30
0.0
 11
462.669647
 21
0.0
 31
0.0
  0
LINE
  5
6C
  8
TEAM-DET3
 10
469.69967
 20
127.65
 30
0.0
 11
469.69967
 21
137.65
 31
0.0
  0
LINE
  5
6D
  8
TEAM-DET3
 10
469.930958
 20
109.65
 30
0.0
 11
469.930958
 21
113.54097
 31
0.0
  0
LINE
  5
6E
  8
TEAM-DET3
 10
471.169647
 20
109.65
 30
0.0
 11
470.430942
 21
109.65
 31
0.0
  0
LINE
  5
6F
  8
TEAM-DET3
 10
471.169647
 20
109.65
 30
0.0
 11
471.169647
 21
95.65
 31
0.0
  0
LINE
  5
70
  8
TEAM-DET3
 10
468.169647
 20
86.65
 30
0.0
 11
468.169647
 21
15.0
 31
0.0
  0
LINE
  5
71
  8
TEAM-DET3
 10
468.169647
 20
86.65
 30
0.0
 11
471.169647
 21
95.65
 31
0.0
  0
LINE
  5
72
  8
TEAM-DET3
 10
493.169647
 20
15.0
 30
0.0
 11
498.669647
 21
10.0
 31
0.0
  0
LINE
  5
73
  8
TEAM-DET3
 10
498.669647
 20
10.0
 30
0.0
 11
498.669647
 21
0.0
 31
0.0
  0
LINE
  5
74
  8
TEAM-DET3
 10
491.639624
 20
127.65
 30
0.0
 11
491.639624
 21
137.65
 31
0.0
  0
LINE
  5
75
  8
TEAM-DET3
 10
486.669647
 20
113.65
 30
0.0
 11
486.669647
 21
127.65
 31
0.0
  0
LINE
  5
76
  8
TEAM-DET3
 10
491.408336
 20
109.65
 30
0.0
 11
491.408336
 21
113.54097
 31
0.0
  0
LINE
  5
77
  8
TEAM-DET3
 10
490.908352
 20
109.65
 30
0.0
 11
490.169647
 21
109.65
 31
0.0
  0
LINE
  5
78
  8
TEAM-DET3
 10
490.169647
 20
109.65
 30
0.0
 11
490.169647
 21
95.65
 31
0.0
  0
LINE
  5
79
  8
TEAM-DET3
 10
493.169647
 20
15.0
 30
0.0
 11
493.169647
 21
86.65
 31
0.0
  0
LINE
  5
7A
  8
TEAM-DET3
 10
490.169647
 20
95.65
 30
0.0
 11
493.169647
 21
86.65
 31
0.0
  0
LINE
  5
7B
  8
TEAM-DET3
 10
474.669647
 20
113.65
 30
0.0
 11
474.669647
 21
127.65
 31
0.0
  0
LINE
  5
7C
  8
TEAM-DET3
 10
480.669647
 20
140.648559
 30
0.0
 11
480.669647
 21
-3.74943
 31
0.0
  0
ARC
  5
7D
  8
TEAM-BODY
 10
-409.506722
 20
252.889849
 30
0.0
 40
105.0
 50
189.491439
 51
268.895617
  0
LINE
  5
7E
  8
TEAM-DET3
 10
-38.841795
 20
15.0
 30
0.0
 11
-44.341795
 21
10.0
 31
0.0
  0
LINE
  5
7F
  8
TEAM-DET3
 10
-44.341795
 20
10.0
 30
0.0
 11
-44.341795
 21
0.0
 31
0.0
  0
LINE
  5
80
  8
TEAM-DET3
 10
-37.311772
 20
127.65
 30
0.0
 11
-37.311772
 21
137.65
 31
0.0
  0
LINE
  5
81
  8
TEAM-DET3
 10
-15.371818
 20
127.65
 30
0.0
 11
-15.371818
 21
137.65
 31
0.0
  0
LINE
  5
82
  8
TEAM-DET3
 10
-15.371818
 20
137.65
 30
0.0
 11
-37.311772
 21
137.65
 31
0.0
  0
LINE
  5
83
  8
TEAM-DET3
 10
-15.371818
 20
127.65
 30
0.0
 11
-37.311772
 21
127.65
 31
0.0
  0
LINE
  5
84
  8
TEAM-DET3
 10
-32.341795
 20
113.65
 30
0.0
 11
-32.341795
 21
127.65
 31
0.0
  0
LINE
  5
85
  8
TEAM-DET3
 10
-20.341795
 20
113.65
 30
0.0
 11
-20.341795
 21
127.65
 31
0.0
  0
LINE
  5
86
  8
TEAM-DET3
 10
-15.603106
 20
109.65
 30
0.0
 11
-15.603106
 21
113.54097
 31
0.0
  0
LINE
  5
87
  8
TEAM-DET3
 10
-37.080484
 20
109.65
 30
0.0
 11
-37.080484
 21
113.54097
 31
0.0
  0
LINE
  5
88
  8
TEAM-DET3
 10
-36.5805
 20
109.65
 30
0.0
 11
-35.841795
 21
109.65
 31
0.0
  0
LINE
  5
89
  8
TEAM-DET3
 10
-15.603106
 20
109.65
 30
0.0
 11
-37.080484
 21
109.65
 31
0.0
  0
LINE
  5
8A
  8
TEAM-DET3
 10
-16.841795
 20
109.65
 30
0.0
 11
-16.10309
 21
109.65
 31
0.0
  0
LINE
  5
8B
  8
TEAM-DET3
 10
-35.841795
 20
109.65
 30
0.0
 11
-35.841795
 21
95.65
 31
0.0
  0
LINE
  5
8C
  8
TEAM-DET3
 10
-16.841795
 20
109.65
 30
0.0
 11
-16.841795
 21
95.65
 31
0.0
  0
LINE
  5
8D
  8
TEAM-DET3
 10
-38.841795
 20
15.0
 30
0.0
 11
-38.841795
 21
86.65
 31
0.0
  0
LINE
  5
8E
  8
TEAM-DET3
 10
-13.841795
 20
86.65
 30
0.0
 11
-13.841795
 21
15.0
 31
0.0
  0
LINE
  5
8F
  8
TEAM-DET3
 10
-35.841795
 20
95.65
 30
0.0
 11
-38.841795
 21
86.65
 31
0.0
  0
LINE
  5
90
  8
TEAM-DET3
 10
-13.841795
 20
86.65
 30
0.0
 11
-16.841795
 21
95.65
 31
0.0
  0
LINE
  5
91
  8
TEAM-DET3
 10
-26.341795
 20
130.648559
 30
0.0
 11
-26.341795
 21
-3.74943
 31
0.0
  0
LINE
  5
92
  8
TEAM-DET3
 10
-15.603106
 20
113.65
 30
0.0
 11
-37.080484
 21
113.65
 31
0.0
  0
LINE
  5
93
  8
TEAM-DET3
 10
-403.331208
 20
127.613291
 30
0.0
 11
-430.177588
 21
149.944644
 31
0.0
  0
LINE
  5
94
  8
TEAM-DET3
 10
-321.603106
 20
113.65
 30
0.0
 11
-343.080484
 21
113.65
 31
0.0
  0
LINE
  5
95
  8
TEAM-DET3
 10
-332.341795
 20
130.648559
 30
0.0
 11
-332.341795
 21
-3.74943
 31
0.0
  0
LINE
  5
96
  8
TEAM-DET3
 10
-319.841795
 20
86.65
 30
0.0
 11
-322.841795
 21
95.65
 31
0.0
  0
LINE
  5
97
  8
TEAM-DET3
 10
-341.841795
 20
95.65
 30
0.0
 11
-344.841795
 21
86.65
 31
0.0
  0
LINE
  5
98
  8
TEAM-DET3
 10
-319.841795
 20
86.65
 30
0.0
 11
-319.841795
 21
15.0
 31
0.0
  0
LINE
  5
99
  8
TEAM-DET3
 10
-344.841795
 20
15.0
 30
0.0
 11
-344.841795
 21
86.65
 31
0.0
  0
LINE
  5
9A
  8
TEAM-DET3
 10
-322.841795
 20
109.65
 30
0.0
 11
-322.841795
 21
95.65
 31
0.0
  0
LINE
  5
9B
  8
TEAM-DET3
 10
-341.841795
 20
109.65
 30
0.0
 11
-341.841795
 21
95.65
 31
0.0
  0
LINE
  5
9C
  8
TEAM-DET3
 10
-322.841795
 20
109.65
 30
0.0
 11
-322.10309
 21
109.65
 31
0.0
  0
LINE
  5
9D
  8
TEAM-DET3
 10
-321.603106
 20
109.65
 30
0.0
 11
-343.080484
 21
109.65
 31
0.0
  0
LINE
  5
9E
  8
TEAM-DET3
 10
-342.5805
 20
109.65
 30
0.0
 11
-341.841795
 21
109.65
 31
0.0
  0
LINE
  5
9F
  8
TEAM-DET3
 10
-343.080484
 20
109.65
 30
0.0
 11
-343.080484
 21
113.54097
 31
0.0
  0
LINE
  5
A0
  8
TEAM-DET3
 10
-321.603106
 20
109.65
 30
0.0
 11
-321.603106
 21
113.54097
 31
0.0
  0
LINE
  5
A1
  8
TEAM-DET3
 10
-326.341795
 20
113.65
 30
0.0
 11
-326.341795
 21
127.65
 31
0.0
  0
LINE
  5
A2
  8
TEAM-DET3
 10
-338.341795
 20
113.65
 30
0.0
 11
-338.341795
 21
127.65
 31
0.0
  0
LINE
  5
A3
  8
TEAM-DET3
 10
-321.371818
 20
127.65
 30
0.0
 11
-343.311772
 21
127.65
 31
0.0
  0
LINE
  5
A4
  8
TEAM-DET3
 10
-321.371818
 20
137.65
 30
0.0
 11
-343.311772
 21
137.65
 31
0.0
  0
LINE
  5
A5
  8
TEAM-DET3
 10
-321.371818
 20
127.65
 30
0.0
 11
-321.371818
 21
137.65
 31
0.0
  0
LINE
  5
A6
  8
TEAM-DET3
 10
-343.311772
 20
127.65
 30
0.0
 11
-343.311772
 21
137.65
 31
0.0
  0
LINE
  5
A7
  8
TEAM-DET3
 10
-350.341795
 20
0.0
 30
0.0
 11
-314.341795
 21
0.0
 31
0.0
  0
LINE
  5
A8
  8
TEAM-DET3
 10
-350.341795
 20
10.0
 30
0.0
 11
-350.341795
 21
0.0
 31
0.0
  0
LINE
  5
A9
  8
TEAM-DET3
 10
-314.341795
 20
10.0
 30
0.0
 11
-314.341795
 21
0.0
 31
0.0
  0
LINE
  5
AA
  8
TEAM-DET3
 10
-344.841795
 20
15.0
 30
0.0
 11
-350.341795
 21
10.0
 31
0.0
  0
LINE
  5
AB
  8
TEAM-DET3
 10
-319.841795
 20
15.0
 30
0.0
 11
-314.341795
 21
10.0
 31
0.0
  0
LINE
  5
AC
  8
TEAM-DET3
 10
-314.341795
 20
10.0
 30
0.0
 11
-350.341795
 21
10.0
 31
0.0
  0
ARC
  5
AD
  8
TEAM-BODY
 10
-1165.642376
 20
119.206955
 30
0.0
 40
662.867422
 50
10.110842
 51
28.644821
  0
LINE
  5
AE
  8
TEAM-DET3
 10
-8.341795
 20
10.0
 30
0.0
 11
-44.341795
 21
10.0
 31
0.0
  0
LINE
  5
AF
  8
TEAM-DET3
 10
-13.841795
 20
15.0
 30
0.0
 11
-8.341795
 21
10.0
 31
0.0
  0
LINE
  5
B0
  8
TEAM-DET3
 10
-44.341795
 20
0.0
 30
0.0
 11
-8.341795
 21
0.0
 31
0.0
  0
LINE
  5
B1
  8
TEAM-BODY
 10
288.265024
 20
138.797799
 30
0.0
 11
-411.530485
 21
147.909354
 31
0.0
  0
LINE
  5
B2
  8
TEAM-DET3
 10
-403.335035
 20
127.613365
 30
0.0
 11
239.795677
 21
120.728637
 31
0.0
  0
LINE
  5
B3
  8
TEAM-BODY
 10
849.056709
 20
570.0
 30
0.0
 11
849.056709
 21
590.0
 31
0.0
  0
ARC
  5
B4
  8
TEAM-BODY
 10
839.056709
 20
590.0
 30
0.0
 40
10.0
 50
0.0
 51
90.0
  0
ARC
  5
B5
  8
TEAM-BODY
 10
947.067452
 20
-20.544445
 30
0.0
 40
615.544444
 50
106.385469
 51
110.703815
  0
ARC
  5
B6
  8
TEAM-BODY
 10
815.486615
 20
325.852195
 30
0.0
 40
245.0
 50
110.558975
 51
153.028153
  0
ARC
  5
B7
  8
TEAM-BODY
 10
1172.409655
 20
191.863028
 30
0.0
 40
625.314366
 50
156.92248
 51
176.191908
  0
ENDSEC
  0
EOF
