  0
SECTION
  2
HEADER
  9
$ACADVER
  1
AC1009
  9
$INSBASE
 10
0.0
 20
0.0
 30
0.0
  9
$EXTMIN
 10
-528.294546
 20
-10.020137
 30
-0.001526
  9
$EXTMAX
 10
619.929289
 20
649.932031
 30
0.0
  9
$LIMMIN
 10
-528.294546
 20
-10.020137
  9
$LIMMAX
 10
619.929289
 20
649.932031
  9
$ORTHOMODE
 70
     1
  9
$REGENMODE
 70
     1
  9
$FILLMODE
 70
     1
  9
$QTEXTMODE
 70
     0
  9
$MIRRTEXT
 70
     0
  9
$DRAGMODE
 70
     2
  9
$LTSCALE
 40
50.0
  9
$OSMODE
 70
     7
  9
$ATTMODE
 70
     1
  9
$TEXTSIZE
 40
200.0
  9
$TRACEWID
 40
1.0
  9
$TEXTSTYLE
  7
STANDARD
  9
$CLAYER
  8
TEAM-MAS
  9
$CELTYPE
  6
BYLAYER
  9
$CECOLOR
 62
   256
  9
$DIMSCALE
 40
0.0
  9
$DIMASZ
 40
20.0
  9
$DIMEXO
 40
10.0
  9
$DIMDLI
 40
1.0
  9
$DIMRND
 40
0.0
  9
$DIMDLE
 40
0.0
  9
$DIMEXE
 40
1.0
  9
$DIMTP
 40
0.0
  9
$DIMTM
 40
0.0
  9
$DIMTXT
 40
35.0
  9
$DIMCEN
 40
1.0
  9
$DIMTSZ
 40
0.0
  9
$DIMTOL
 70
     0
  9
$DIMLIM
 70
     0
  9
$DIMTIH
 70
     0
  9
$DIMTOH
 70
     0
  9
$DIMSE1
 70
     0
  9
$DIMSE2
 70
     0
  9
$DIMTAD
 70
     0
  9
$DIMZIN
 70
     0
  9
$DIMBLK
  1

  9
$DIMASO
 70
     1
  9
$DIMSHO
 70
     0
  9
$DIMPOST
  1

  9
$DIMAPOST
  1

  9
$DIMALT
 70
     0
  9
$DIMALTD
 70
     2
  9
$DIMALTF
 40
25.4
  9
$DIMLFAC
 40
1.0
  9
$DIMTOFL
 70
     0
  9
$DIMTVP
 40
0.0
  9
$DIMTIX
 70
     0
  9
$DIMSOXD
 70
     0
  9
$DIMSAH
 70
     0
  9
$DIMBLK1
  1

  9
$DIMBLK2
  1

  9
$DIMSTYLE
  2
TEAM
  9
$DIMCLRD
 70
     9
  9
$DIMCLRE
 70
     9
  9
$DIMCLRT
 70
    11
  9
$DIMTFAC
 40
1.0
  9
$DIMGAP
 40
7.0
  9
$LUNITS
 70
     2
  9
$LUPREC
 70
     1
  9
$SKETCHINC
 40
1.0
  9
$FILLETRAD
 40
9.5
  9
$AUNITS
 70
     0
  9
$AUPREC
 70
     0
  9
$MENU
  1
ROPLANS
  9
$ELEVATION
 40
0.0
  9
$PELEVATION
 40
0.0
  9
$THICKNESS
 40
0.0
  9
$LIMCHECK
 70
     0
  9
$BLIPMODE
 70
     1
  9
$CHAMFERA
 40
0.0
  9
$CHAMFERB
 40
0.0
  9
$SKPOLY
 70
     0
  9
$TDCREATE
 40
2450392.957851
  9
$TDUPDATE
 40
2455944.717343
  9
$TDINDWG
 40
3.569992
  9
$TDUSRTIMER
 40
3.569992
  9
$USRTIMER
 70
     1
  9
$ANGBASE
 50
0.0
  9
$ANGDIR
 70
     0
  9
$PDMODE
 70
     0
  9
$PDSIZE
 40
0.0
  9
$PLINEWID
 40
0.0
  9
$COORDS
 70
     2
  9
$SPLFRAME
 70
     0
  9
$SPLINETYPE
 70
     6
  9
$SPLINESEGS
 70
     8
  9
$ATTDIA
 70
     0
  9
$ATTREQ
 70
     0
  9
$HANDLING
 70
     1
  9
$HANDSEED
  5
103
  9
$SURFTAB1
 70
    24
  9
$SURFTAB2
 70
    24
  9
$SURFTYPE
 70
     6
  9
$SURFU
 70
     6
  9
$SURFV
 70
     6
  9
$UCSNAME
  2

  9
$UCSORG
 10
0.0
 20
0.0
 30
0.0
  9
$UCSXDIR
 10
1.0
 20
0.0
 30
0.0
  9
$UCSYDIR
 10
0.0
 20
1.0
 30
0.0
  9
$PUCSNAME
  2

  9
$PUCSORG
 10
0.0
 20
0.0
 30
0.0
  9
$PUCSXDIR
 10
1.0
 20
0.0
 30
0.0
  9
$PUCSYDIR
 10
0.0
 20
1.0
 30
0.0
  9
$USERI1
 70
     0
  9
$USERI2
 70
     0
  9
$USERI3
 70
     0
  9
$USERI4
 70
     0
  9
$USERI5
 70
     0
  9
$USERR1
 40
0.0
  9
$USERR2
 40
0.0
  9
$USERR3
 40
0.0
  9
$USERR4
 40
0.0
  9
$USERR5
 40
0.0
  9
$WORLDVIEW
 70
     1
  9
$SHADEDGE
 70
     0
  9
$SHADEDIF
 70
    70
  9
$TILEMODE
 70
     1
  9
$MAXACTVP
 70
    16
  9
$PLIMCHECK
 70
     0
  9
$PEXTMIN
 10
-0.805942
 20
0.005011
 30
0.0
  9
$PEXTMAX
 10
20.250094
 20
11.356329
 30
0.0
  9
$PLIMMIN
 10
0.0
 20
0.0
  9
$PLIMMAX
 10
12.0
 20
9.0
  9
$UNITMODE
 70
     0
  9
$VISRETAIN
 70
     0
  9
$PLINEGEN
 70
     0
  9
$PSLTSCALE
 70
     0
  0
ENDSEC
  0
SECTION
  2
TABLES
  0
TABLE
  2
VPORT
 70
     2
  0
VPORT
  2
*ACTIVE
 70
     0
 10
0.0
 20
0.0
 11
1.0
 21
1.0
 12
45.817371
 22
319.955947
 13
0.0
 23
0.0
 14
1.0
 24
1.0
 15
50.0
 25
50.0
 16
0.0
 26
0.0
 36
1.0
 17
0.0
 27
0.0
 37
0.0
 40
664.089799
 41
1.903766
 42
50.0
 43
0.0
 44
0.0
 50
0.0
 51
0.0
 71
     0
 72
   100
 73
     1
 74
     1
 75
     0
 76
     0
 77
     0
 78
     0
  0
ENDTAB
  0
TABLE
  2
LTYPE
 70
     2
  0
LTYPE
  2
CONTINUOUS
 70
     0
  3
Solid Line
 72
    65
 73
     0
 40
0.0
  0
LTYPE
  2
22
 70
     0
  3

 72
    65
 73
     2
 40
1.4
 49
1.2
 49
-0.2
  0
ENDTAB
  0
TABLE
  2
LAYER
 70
     9
  0
LAYER
  2
0
 70
     0
 62
     7
  6
CONTINUOUS
  0
LAYER
  2
DEFPOINTS
 70
     0
 62
     7
  6
CONTINUOUS
  0
LAYER
  2
TEAM-BODY
 70
     0
 62
     2
  6
CONTINUOUS
  0
LAYER
  2
TEAM-MAS
 70
     0
 62
     9
  6
CONTINUOUS
  0
LAYER
  2
TEAM-TXT
 70
     0
 62
    11
  6
CONTINUOUS
  0
LAYER
  2
TEAM-HIDE
 70
     0
 62
     8
  6
22
  0
LAYER
  2
TEAM-KAN
 70
     0
 62
     6
  6
CONTINUOUS
  0
LAYER
  2
TEAM-DET3
 70
     0
 62
    14
  6
CONTINUOUS
  0
LAYER
  2
TEAM-INSP
 70
     0
 62
     5
  6
CONTINUOUS
  0
ENDTAB
  0
TABLE
  2
STYLE
 70
     2
  0
STYLE
  2
STANDARD
 70
     0
 40
0.0
 41
1.0
 50
0.0
 71
     0
 42
200.0
  3
txt
  4

  0
STYLE
  2
TEAM
 70
     0
 40
0.0
 41
0.8
 50
15.0
 71
     0
 42
7.0
  3
ROMANS.shx
  4

  0
ENDTAB
  0
TABLE
  2
VIEW
 70
     0
  0
ENDTAB
  0
TABLE
  2
UCS
 70
     0
  0
ENDTAB
  0
TABLE
  2
APPID
 70
     1
  0
APPID
  2
ACAD
 70
     0
  0
ENDTAB
  0
TABLE
  2
DIMSTYLE
 70
     1
  0
DIMSTYLE
  2
TEAM
 70
     0
  3

  4

  5

  6

  7

 40
0.0
 41
20.0
 42
10.0
 43
1.0
 44
1.0
 45
0.0
 46
0.0
 47
0.0
 48
0.0
140
35.0
141
1.0
142
0.0
143
25.4
144
1.0
145
0.0
146
1.0
147
7.0
 71
     0
 72
     0
 73
     0
 74
     0
 75
     0
 76
     0
 77
     0
 78
     0
170
     0
171
     2
172
     0
173
     0
174
     0
175
     0
176
     9
177
     9
178
    11
  0
ENDTAB
  0
ENDSEC
  0
SECTION
  2
BLOCKS
  0
BLOCK
  8
0
  2
$MODEL_SPACE
 70
     0
 10
0.0
 20
0.0
 30
0.0
  3
$MODEL_SPACE
  1

  0
ENDBLK
  5
FC
  8
0
  0
BLOCK
 67
     1
  8
0
  2
$PAPER_SPACE
 70
     0
 10
0.0
 20
0.0
 30
0.0
  3
$PAPER_SPACE
  1

  0
ENDBLK
  5
FA
 67
     1
  8
0
  0
BLOCK
  8
0
  2
*D0
 70
     1
 10
0.0
 20
0.0
 30
0.0
  3
*D0
  1

  0
LINE
  5
31
  8
0
  6
BYBLOCK
 62
     9
 10
505.0
 20
60600.0
 30
0.0
 11
557.13482
 21
60600.0
 31
0.0
  0
LINE
  5
32
  8
0
  6
BYBLOCK
 62
     9
 10
36.0
 20
60120.005032
 30
0.0
 11
557.13482
 21
60120.005032
 31
0.0
  0
LINE
  5
33
  8
0
  6
BYBLOCK
 62
     9
 10
556.13482
 20
60580.0
 30
0.0
 11
556.13482
 21
60410.752516
 31
0.0
  0
LINE
  5
34
  8
0
  6
BYBLOCK
 62
     9
 10
556.13482
 20
60140.005032
 30
0.0
 11
556.13482
 21
60309.252516
 31
0.0
  0
SOLID
  5
35
  8
0
  6
BYBLOCK
 62
     9
 10
552.801487
 20
60580.0
 30
0.0
 11
559.468153
 21
60580.0
 31
0.0
 12
556.13482
 22
60600.0
 32
0.0
 13
556.13482
 23
60600.0
 33
0.0
  0
SOLID
  5
36
  8
0
  6
BYBLOCK
 62
     9
 10
552.801487
 20
60140.005032
 30
0.0
 11
559.468153
 21
60140.005032
 31
0.0
 12
556.13482
 22
60120.005032
 32
0.0
 13
556.13482
 23
60120.005032
 33
0.0
  0
TEXT
  5
37
  8
0
  6
BYBLOCK
 62
    11
 10
573.63482
 20
60316.252516
 30
0.0
 40
35.0
  1
480
 50
90.0
  0
POINT
  5
38
  8
DEFPOINTS
  6
BYBLOCK
 62
     0
 10
495.0
 20
60600.0
 30
0.0
  0
POINT
  5
39
  8
DEFPOINTS
  6
BYBLOCK
 62
     0
 10
26.0
 20
60120.005032
 30
0.0
  0
POINT
  5
3A
  8
DEFPOINTS
  6
BYBLOCK
 62
     0
 10
556.13482
 20
60120.005032
 30
0.0
  0
ENDBLK
  5
3C
  8
0
  0
BLOCK
  8
0
  2
*D1
 70
     1
 10
0.0
 20
0.0
 30
0.0
  3
*D1
  1

  0
LINE
  5
22
  8
0
  6
BYBLOCK
 62
     9
 10
505.0
 20
60600.0
 30
0.0
 11
608.394413
 21
60600.0
 31
0.0
  0
LINE
  5
23
  8
0
  6
BYBLOCK
 62
     9
 10
10.0
 20
60000.0
 30
0.0
 11
608.394413
 21
60000.0
 31
0.0
  0
LINE
  5
24
  8
0
  6
BYBLOCK
 62
     9
 10
607.394413
 20
60580.0
 30
0.0
 11
607.394413
 21
60401.833333
 31
0.0
  0
LINE
  5
25
  8
0
  6
BYBLOCK
 62
     9
 10
607.394413
 20
60020.0
 30
0.0
 11
607.394413
 21
60306.166667
 31
0.0
  0
TEXT
  5
26
  8
0
  6
BYBLOCK
 62
    11
 10
619.894413
 20
60313.166667
 30
0.0
 40
35.0
  1
600
 50
90.0
  0
SOLID
  5
27
  8
0
  6
BYBLOCK
 62
     9
 10
604.061079
 20
60580.0
 30
0.0
 11
610.727746
 21
60580.0
 31
0.0
 12
607.394413
 22
60600.0
 32
0.0
 13
607.394413
 23
60600.0
 33
0.0
  0
SOLID
  5
28
  8
0
  6
BYBLOCK
 62
     9
 10
604.061079
 20
60020.0
 30
0.0
 11
610.727746
 21
60020.0
 31
0.0
 12
607.394413
 22
60000.0
 32
0.0
 13
607.394413
 23
60000.0
 33
0.0
  0
POINT
  5
29
  8
DEFPOINTS
  6
BYBLOCK
 62
     0
 10
495.0
 20
60600.0
 30
0.0
  0
POINT
  5
2B
  8
DEFPOINTS
  6
BYBLOCK
 62
     0
 10
0.0
 20
60000.0
 30
0.0
  0
POINT
  5
2C
  8
DEFPOINTS
  6
BYBLOCK
 62
     0
 10
607.394413
 20
60000.0
 30
0.0
  0
ENDBLK
  5
2E
  8
0
  0
BLOCK
  8
0
  2
*D2
 70
     1
 10
0.0
 20
0.0
 30
0.0
  3
*D2
  1

  0
LINE
  5
5A
  8
0
  6
BYBLOCK
 62
     9
 10
505.0
 20
60590.0
 30
0.0
 11
505.0
 21
60633.41189
 31
0.0
  0
LINE
  5
5B
  8
0
  6
BYBLOCK
 62
     9
 10
-505.0
 20
60590.0
 30
0.0
 11
-505.0
 21
60633.41189
 31
0.0
  0
LINE
  5
5C
  8
0
  6
BYBLOCK
 62
     9
 10
485.0
 20
60632.41189
 30
0.0
 11
53.666667
 21
60632.41189
 31
0.0
  0
LINE
  5
5D
  8
0
  6
BYBLOCK
 62
     9
 10
-485.0
 20
60632.41189
 30
0.0
 11
-53.666667
 21
60632.41189
 31
0.0
  0
SOLID
  5
5E
  8
0
  6
BYBLOCK
 62
     9
 10
485.0
 20
60635.745224
 30
0.0
 11
485.0
 21
60629.078557
 31
0.0
 12
505.0
 22
60632.41189
 32
0.0
 13
505.0
 23
60632.41189
 33
0.0
  0
SOLID
  5
5F
  8
0
  6
BYBLOCK
 62
     9
 10
-485.0
 20
60635.745224
 30
0.0
 11
-485.0
 21
60629.078557
 31
0.0
 12
-505.0
 22
60632.41189
 32
0.0
 13
-505.0
 23
60632.41189
 33
0.0
  0
TEXT
  5
60
  8
0
  6
BYBLOCK
 62
    11
 10
-46.666667
 20
60614.91189
 30
0.0
 40
35.0
  1
1010
  0
POINT
  5
61
  8
DEFPOINTS
  6
BYBLOCK
 62
     0
 10
505.0
 20
60580.0
 30
0.0
  0
POINT
  5
62
  8
DEFPOINTS
  6
BYBLOCK
 62
     0
 10
-505.0
 20
60580.0
 30
0.0
  0
POINT
  5
63
  8
DEFPOINTS
  6
BYBLOCK
 62
     0
 10
-505.0
 20
60632.41189
 30
0.0
  0
ENDBLK
  5
65
  8
0
  0
BLOCK
  8
0
  2
*D3
 70
     1
 10
0.0
 20
0.0
 30
0.0
  3
*D3
  1

  0
LINE
  5
45
  8
0
  6
BYBLOCK
 62
     9
 10
-26.0
 20
60110.005032
 30
0.0
 11
-26.0
 21
60077.851312
 31
0.0
  0
LINE
  5
46
  8
0
  6
BYBLOCK
 62
     9
 10
26.0
 20
60110.005032
 30
0.0
 11
26.0
 21
60077.851312
 31
0.0
  0
LINE
  5
47
  8
0
  6
BYBLOCK
 62
     9
 10
-46.0
 20
60078.851312
 30
0.0
 11
-66.0
 21
60078.851312
 31
0.0
  0
LINE
  5
48
  8
0
  6
BYBLOCK
 62
     9
 10
46.0
 20
60078.851312
 30
0.0
 11
66.0
 21
60078.851312
 31
0.0
  0
TEXT
  5
49
  8
0
  6
BYBLOCK
 62
    11
 10
84.744884
 20
60061.351312
 30
0.0
 40
35.0
  1
52
  0
LINE
  5
4A
  8
0
  6
BYBLOCK
 62
     9
 10
-26.0
 20
60078.851312
 30
0.0
 11
26.0
 21
60078.851312
 31
0.0
  0
SOLID
  5
4B
  8
0
  6
BYBLOCK
 62
     9
 10
-46.0
 20
60082.184645
 30
0.0
 11
-46.0
 21
60075.517979
 31
0.0
 12
-26.0
 22
60078.851312
 32
0.0
 13
-26.0
 23
60078.851312
 33
0.0
  0
SOLID
  5
4C
  8
0
  6
BYBLOCK
 62
     9
 10
46.0
 20
60082.184645
 30
0.0
 11
46.0
 21
60075.517979
 31
0.0
 12
26.0
 22
60078.851312
 32
0.0
 13
26.0
 23
60078.851312
 33
0.0
  0
POINT
  5
4D
  8
DEFPOINTS
  6
BYBLOCK
 62
     0
 10
-26.0
 20
60120.005032
 30
0.0
  0
POINT
  5
4E
  8
DEFPOINTS
  6
BYBLOCK
 62
     0
 10
26.0
 20
60120.005032
 30
0.0
  0
POINT
  5
4F
  8
DEFPOINTS
  6
BYBLOCK
 62
     0
 10
26.0
 20
60078.851312
 30
0.0
  0
ENDBLK
  5
51
  8
0
  0
ENDSEC
  0
SECTION
  2
ENTITIES
  0
DIMENSION
  5
20
  8
TEAM-MAS
  2
*D1
 10
607.394413
 20
0.0
 30
0.0
 11
602.394413
 21
354.0
 31
0.0
 12
0.0
 22
-60000.0
 32
0.0
 70
   128
 13
495.0
 23
600.0
 33
0.0
 14
0.0
 24
0.0
 34
0.0
 50
90.0
1001
ACAD
1000
DSTYLE
1002
{
1070
    40
1040
1.0
1002
}
  0
DIMENSION
  5
2F
  8
TEAM-MAS
  2
*D0
 10
556.13482
 20
120.005032
 30
0.0
 11
556.13482
 21
360.002516
 31
0.0
 12
0.0
 22
-60000.0
 32
0.0
 13
495.0
 23
600.0
 33
0.0
 14
26.0
 24
120.005032
 34
0.0
 50
90.0
1001
ACAD
1000
DSTYLE
1002
{
1070
    40
1040
1.0
1002
}
  0
ARC
  5
3D
  8
TEAM-DET3
 10
-643.83713
 20
424.055133
 30
0.0
 40
1166.856562
 50
349.459841
 51
6.716351
  0
TEXT
  5
3F
  8
TEAM-TXT
 10
49.312622
 20
515.75601
 30
0.0
 40
30.0
  1
team 121138
 41
0.8
 51
15.0
  7
TEAM
  0
LINE
  5
42
  8
TEAM-DET3
 10
460.912896
 20
50.0
 30
0.0
 11
0.0
 21
50.0
 31
0.0
  0
DIMENSION
  5
43
  8
TEAM-MAS
  2
*D3
 10
26.0
 20
78.851312
 30
0.0
 11
113.911551
 21
78.851312
 31
0.0
 12
0.0
 22
-60000.0
 32
0.0
 70
   128
 13
-26.0
 23
120.005032
 33
0.0
 14
26.0
 24
120.005032
 34
0.0
1001
ACAD
1000
DSTYLE
1002
{
1070
    78
1070
     0
1070
    40
1040
1.0
1002
}
  0
LINE
  5
52
  8
TEAM-DET3
 10
70.913754
 20
119.420727
 30
0.0
 11
51.536682
 21
138.797799
 31
0.0
  0
LINE
  5
53
  8
TEAM-BODY
 10
51.536682
 20
138.797799
 30
0.0
 11
187.424899
 21
147.827048
 31
0.0
  0
LINE
  5
55
  8
TEAM-BODY
 10
495.0
 20
600.0
 30
0.0
 11
-495.0
 21
600.0
 31
0.0
  0
LINE
  5
56
  8
TEAM-BODY
 10
505.0
 20
570.0
 30
0.0
 11
-505.0
 21
570.0
 31
0.0
  0
LINE
  5
57
  8
TEAM-BODY
 10
-503.220635
 20
570.0
 30
0.0
 11
503.220635
 21
570.0
 31
0.0
  0
DIMENSION
  5
58
  8
TEAM-MAS
  2
*D2
 10
-505.0
 20
632.41189
 30
0.0
 11
0.0
 21
632.41189
 31
0.0
 12
0.0
 22
-60000.0
 32
0.0
 13
505.0
 23
580.0
 33
0.0
 14
-505.0
 24
580.0
 34
0.0
1001
ACAD
1000
DSTYLE
1002
{
1070
    40
1040
1.0
1002
}
  0
LINE
  5
66
  8
TEAM-HIDE
 10
-456.087393
 20
0.0
 30
0.0
 11
456.087393
 21
0.0
 31
0.0
  0
LINE
  5
69
  8
TEAM-BODY
 10
29.0
 20
126.505032
 30
0.0
 11
-29.0
 21
126.505032
 31
0.0
  0
LINE
  5
6A
  8
TEAM-BODY
 10
-29.0
 20
126.505032
 30
0.0
 11
-49.133051
 21
138.128855
 31
0.0
  0
LINE
  5
6B
  8
TEAM-KAN
 10
-26.0
 20
120.005032
 30
0.0
 11
-26.0
 21
122.505032
 31
0.0
  0
LINE
  5
6D
  8
TEAM-KAN
 10
-26.0
 20
122.505032
 30
0.0
 11
-26.0
 21
126.505032
 31
0.0
  0
LINE
  5
6E
  8
TEAM-KAN
 10
-26.0
 20
126.505032
 30
0.0
 11
26.0
 21
126.505032
 31
0.0
  0
LINE
  5
6F
  8
TEAM-KAN
 10
26.0
 20
120.005032
 30
0.0
 11
-26.0
 21
120.005032
 31
0.0
  0
LINE
  5
70
  8
TEAM-KAN
 10
26.0
 20
122.505032
 30
0.0
 11
26.0
 21
120.005032
 31
0.0
  0
LINE
  5
71
  8
TEAM-KAN
 10
26.0
 20
126.505032
 30
0.0
 11
26.0
 21
122.505032
 31
0.0
  0
LINE
  5
72
  8
TEAM-BODY
 10
29.0
 20
126.505032
 30
0.0
 11
49.133051
 21
138.128855
 31
0.0
  0
ARC
  5
73
  8
TEAM-BODY
 10
-51.633051
 20
133.798728
 30
0.0
 40
5.0
 50
60.0
 51
88.895617
  0
ARC
  5
74
  8
TEAM-BODY
 10
51.633051
 20
133.798728
 30
0.0
 40
5.0
 50
91.104383
 51
120.0
  0
LINE
  5
75
  8
TEAM-DET3
 10
-70.913754
 20
119.420727
 30
0.0
 11
-51.536682
 21
138.797799
 31
0.0
  0
CIRCLE
  5
76
  8
TEAM-INSP
 10
0.0
 20
0.0
 30
0.0
 40
10.0
  0
ARC
  5
78
  8
TEAM-BODY
 10
-611.879598
 20
-20.544445
 30
0.0
 40
615.544444
 50
69.200419
 51
73.614531
  0
ARC
  5
79
  8
TEAM-BODY
 10
-1122.49981
 20
159.004046
 30
0.0
 40
856.889774
 50
4.980574
 51
18.928683
  0
LINE
  5
7A
  8
TEAM-DET3
 10
-231.794616
 20
171.320256
 30
0.0
 11
-227.087049
 21
135.257482
 31
0.0
  0
LINE
  5
7B
  8
TEAM-HIDE
 10
-165.081909
 20
127.65
 30
0.0
 11
-165.081909
 21
137.65
 31
0.0
  0
LINE
  5
7C
  8
TEAM-HIDE
 10
-170.051886
 20
113.65
 30
0.0
 11
-170.051886
 21
127.65
 31
0.0
  0
LINE
  5
7D
  8
TEAM-HIDE
 10
-165.313197
 20
109.65
 30
0.0
 11
-165.313197
 21
113.54097
 31
0.0
  0
LINE
  5
7E
  8
TEAM-HIDE
 10
-166.551886
 20
109.65
 30
0.0
 11
-165.813181
 21
109.65
 31
0.0
  0
LINE
  5
7F
  8
TEAM-HIDE
 10
-166.551886
 20
109.65
 30
0.0
 11
-166.551886
 21
95.65
 31
0.0
  0
LINE
  5
80
  8
TEAM-HIDE
 10
-163.551886
 20
86.65
 30
0.0
 11
-163.551886
 21
15.0
 31
0.0
  0
LINE
  5
81
  8
TEAM-HIDE
 10
-163.551886
 20
86.65
 30
0.0
 11
-166.551886
 21
95.65
 31
0.0
  0
LINE
  5
82
  8
TEAM-HIDE
 10
-187.021863
 20
127.65
 30
0.0
 11
-187.021863
 21
137.65
 31
0.0
  0
LINE
  5
83
  8
TEAM-HIDE
 10
-182.051886
 20
113.65
 30
0.0
 11
-182.051886
 21
127.65
 31
0.0
  0
LINE
  5
84
  8
TEAM-HIDE
 10
-186.790575
 20
109.65
 30
0.0
 11
-186.790575
 21
113.54097
 31
0.0
  0
LINE
  5
85
  8
TEAM-HIDE
 10
-186.290591
 20
109.65
 30
0.0
 11
-185.551886
 21
109.65
 31
0.0
  0
LINE
  5
86
  8
TEAM-HIDE
 10
-185.551886
 20
109.65
 30
0.0
 11
-185.551886
 21
95.65
 31
0.0
  0
LINE
  5
87
  8
TEAM-HIDE
 10
-188.551886
 20
15.0
 30
0.0
 11
-188.551886
 21
86.65
 31
0.0
  0
LINE
  5
88
  8
TEAM-HIDE
 10
-185.551886
 20
95.65
 30
0.0
 11
-188.551886
 21
86.65
 31
0.0
  0
LINE
  5
89
  8
TEAM-HIDE
 10
-176.051886
 20
130.648559
 30
0.0
 11
-176.051886
 21
-3.74943
 31
0.0
  0
LINE
  5
8A
  8
TEAM-HIDE
 10
-165.081909
 20
137.65
 30
0.0
 11
-187.021863
 21
137.65
 31
0.0
  0
LINE
  5
8B
  8
TEAM-HIDE
 10
-165.081909
 20
127.65
 30
0.0
 11
-187.021863
 21
127.65
 31
0.0
  0
LINE
  5
8C
  8
TEAM-HIDE
 10
-165.313197
 20
109.65
 30
0.0
 11
-186.790575
 21
109.65
 31
0.0
  0
LINE
  5
8D
  8
TEAM-HIDE
 10
-165.313197
 20
113.65
 30
0.0
 11
-186.790575
 21
113.65
 31
0.0
  0
LINE
  5
8E
  8
TEAM-HIDE
 10
-194.051886
 20
0.0
 30
0.0
 11
-158.051886
 21
0.0
 31
0.0
  0
LINE
  5
8F
  8
TEAM-HIDE
 10
-158.051886
 20
10.0
 30
0.0
 11
-194.051886
 21
10.0
 31
0.0
  0
LINE
  5
90
  8
TEAM-HIDE
 10
-194.051886
 20
10.0
 30
0.0
 11
-194.051886
 21
0.0
 31
0.0
  0
LINE
  5
91
  8
TEAM-HIDE
 10
-188.551886
 20
15.0
 30
0.0
 11
-194.051886
 21
10.0
 31
0.0
  0
LINE
  5
92
  8
TEAM-HIDE
 10
-158.051886
 20
10.0
 30
0.0
 11
-158.051886
 21
0.0
 31
0.0
  0
LINE
  5
93
  8
TEAM-HIDE
 10
-163.551886
 20
15.0
 30
0.0
 11
-158.051886
 21
10.0
 31
0.0
  0
ARC
  5
94
  8
TEAM-BODY
 10
-165.515278
 20
252.974708
 30
0.0
 40
105.168436
 50
190.728255
 51
271.138914
  0
ARC
  5
95
  8
TEAM-BODY
 10
-474.220732
 20
412.033984
 30
0.0
 40
164.177695
 50
8.736626
 51
60.469489
  0
LINE
  5
96
  8
TEAM-BODY
 10
-505.0
 20
570.0
 30
0.0
 11
-505.0
 21
590.0
 31
0.0
  0
ARC
  5
97
  8
TEAM-BODY
 10
-495.0
 20
590.0
 30
0.0
 40
10.0
 50
90.0
 51
180.0
  0
ARC
  5
98
  8
TEAM-DET3
 10
-505.0
 20
560.0
 30
0.0
 40
10.0
 50
90.0
 51
172.91324
  0
LINE
  5
99
  8
TEAM-DET3
 10
-456.087393
 20
0.0
 30
0.0
 11
-456.087393
 21
45.003046
 31
0.0
  0
ARC
  5
9A
  8
TEAM-DET3
 10
-476.127651
 20
60.537406
 30
0.0
 40
10.0
 50
180.437788
 51
268.0
  0
ARC
  5
9B
  8
TEAM-DET3
 10
-1217.743623
 20
52.692865
 30
0.0
 40
731.657504
 50
0.60833
 51
12.46437
  0
ARC
  5
9C
  8
TEAM-DET3
 10
-461.087393
 20
45.003046
 30
0.0
 40
5.0
 50
0.0
 51
88.0
  0
LINE
  5
9D
  8
TEAM-DET3
 10
-460.912896
 20
50.0
 30
0.0
 11
-476.476646
 21
50.543498
 31
0.0
  0
ARC
  5
9E
  8
TEAM-DET3
 10
643.83713
 20
424.055133
 30
0.0
 40
1166.856562
 50
173.283649
 51
190.540159
  0
LINE
  5
9F
  8
TEAM-DET3
 10
-227.087049
 20
135.257482
 30
0.0
 11
-70.913754
 21
119.420727
 31
0.0
  0
LINE
  5
A0
  8
TEAM-BODY
 10
-51.536682
 20
138.797799
 30
0.0
 11
-163.424899
 21
147.827048
 31
0.0
  0
LINE
  5
A1
  8
TEAM-DET3
 10
-460.912896
 20
50.0
 30
0.0
 11
0.0
 21
50.0
 31
0.0
  0
ARC
  5
A2
  8
TEAM-BODY
 10
188.118123
 20
241.8939
 30
0.0
 40
94.069407
 50
269.577768
 51
354.817941
  0
ARC
  5
A3
  8
TEAM-BODY
 10
894.520965
 20
222.908938
 30
0.0
 40
612.781384
 50
159.553708
 51
179.019664
  0
LINE
  5
A4
  8
TEAM-DET3
 10
251.30387
 20
172.204485
 30
0.0
 11
237.950045
 21
134.520849
 31
0.0
  0
LINE
  5
A5
  8
TEAM-HIDE
 10
207.282018
 20
127.65
 30
0.0
 11
207.282018
 21
137.65
 31
0.0
  0
LINE
  5
A6
  8
TEAM-HIDE
 10
185.342064
 20
127.65
 30
0.0
 11
185.342064
 21
137.65
 31
0.0
  0
LINE
  5
A7
  8
TEAM-HIDE
 10
185.342064
 20
137.65
 30
0.0
 11
207.282018
 21
137.65
 31
0.0
  0
LINE
  5
A8
  8
TEAM-HIDE
 10
185.342064
 20
127.65
 30
0.0
 11
207.282018
 21
127.65
 31
0.0
  0
LINE
  5
A9
  8
TEAM-HIDE
 10
202.312041
 20
113.65
 30
0.0
 11
202.312041
 21
127.65
 31
0.0
  0
LINE
  5
AA
  8
TEAM-HIDE
 10
190.312041
 20
113.65
 30
0.0
 11
190.312041
 21
127.65
 31
0.0
  0
LINE
  5
AB
  8
TEAM-HIDE
 10
185.573352
 20
109.65
 30
0.0
 11
185.573352
 21
113.54097
 31
0.0
  0
LINE
  5
AC
  8
TEAM-HIDE
 10
207.05073
 20
109.65
 30
0.0
 11
207.05073
 21
113.54097
 31
0.0
  0
LINE
  5
AD
  8
TEAM-HIDE
 10
206.550746
 20
109.65
 30
0.0
 11
205.812041
 21
109.65
 31
0.0
  0
LINE
  5
AE
  8
TEAM-HIDE
 10
185.573352
 20
109.65
 30
0.0
 11
207.05073
 21
109.65
 31
0.0
  0
LINE
  5
AF
  8
TEAM-HIDE
 10
186.812041
 20
109.65
 30
0.0
 11
186.073336
 21
109.65
 31
0.0
  0
LINE
  5
B0
  8
TEAM-HIDE
 10
205.812041
 20
109.65
 30
0.0
 11
205.812041
 21
95.65
 31
0.0
  0
LINE
  5
B1
  8
TEAM-HIDE
 10
186.812041
 20
109.65
 30
0.0
 11
186.812041
 21
95.65
 31
0.0
  0
LINE
  5
B2
  8
TEAM-HIDE
 10
208.812041
 20
15.0
 30
0.0
 11
208.812041
 21
86.65
 31
0.0
  0
LINE
  5
B3
  8
TEAM-HIDE
 10
183.812041
 20
86.65
 30
0.0
 11
183.812041
 21
15.0
 31
0.0
  0
LINE
  5
B4
  8
TEAM-HIDE
 10
205.812041
 20
95.65
 30
0.0
 11
208.812041
 21
86.65
 31
0.0
  0
LINE
  5
B5
  8
TEAM-HIDE
 10
183.812041
 20
86.65
 30
0.0
 11
186.812041
 21
95.65
 31
0.0
  0
LINE
  5
B6
  8
TEAM-HIDE
 10
196.312041
 20
140.648559
 30
0.0
 11
196.312041
 21
-3.74943
 31
0.0
  0
LINE
  5
B7
  8
TEAM-HIDE
 10
185.573352
 20
113.65
 30
0.0
 11
207.05073
 21
113.65
 31
0.0
  0
LINE
  5
B8
  8
TEAM-HIDE
 10
214.312041
 20
0.0
 30
0.0
 11
178.312041
 21
0.0
 31
0.0
  0
LINE
  5
B9
  8
TEAM-HIDE
 10
214.312041
 20
10.0
 30
0.0
 11
214.312041
 21
0.0
 31
0.0
  0
LINE
  5
BA
  8
TEAM-HIDE
 10
178.312041
 20
10.0
 30
0.0
 11
178.312041
 21
0.0
 31
0.0
  0
LINE
  5
BB
  8
TEAM-HIDE
 10
208.812041
 20
15.0
 30
0.0
 11
214.312041
 21
10.0
 31
0.0
  0
LINE
  5
BC
  8
TEAM-HIDE
 10
183.812041
 20
15.0
 30
0.0
 11
178.312041
 21
10.0
 31
0.0
  0
LINE
  5
BD
  8
TEAM-HIDE
 10
178.312041
 20
10.0
 30
0.0
 11
214.312041
 21
10.0
 31
0.0
  0
LINE
  5
BE
  8
TEAM-DET3
 10
237.950045
 20
134.520849
 30
0.0
 11
70.913754
 21
119.420727
 31
0.0
  0
LINE
  5
BF
  8
TEAM-BODY
 10
505.0
 20
570.0
 30
0.0
 11
505.0
 21
590.0
 31
0.0
  0
ARC
  5
C0
  8
TEAM-BODY
 10
495.0
 20
590.0
 30
0.0
 40
10.0
 50
0.0
 51
90.0
  0
ARC
  5
C1
  8
TEAM-BODY
 10
632.392804
 20
-20.544445
 30
0.0
 40
615.544444
 50
106.385469
 51
110.703815
  0
ARC
  5
C2
  8
TEAM-DET3
 10
505.0
 20
560.0
 30
0.0
 40
10.0
 50
7.08676
 51
90.0
  0
LINE
  5
C3
  8
TEAM-DET3
 10
456.087393
 20
0.0
 30
0.0
 11
456.087393
 21
45.003046
 31
0.0
  0
ARC
  5
C4
  8
TEAM-DET3
 10
461.087393
 20
45.003046
 30
0.0
 40
5.0
 50
92.0
 51
180.0
  0
LINE
  5
C5
  8
TEAM-DET3
 10
460.912896
 20
50.0
 30
0.0
 11
476.476646
 21
50.543498
 31
0.0
  0
ARC
  5
C6
  8
TEAM-DET3
 10
476.127651
 20
60.537406
 30
0.0
 40
10.0
 50
272.0
 51
359.562212
  0
ARC
  5
C7
  8
TEAM-DET3
 10
1217.743623
 20
52.692865
 30
0.0
 40
731.657504
 50
167.53563
 51
179.39167
  0
ARC
  5
C8
  8
TEAM-BODY
 10
495.578509
 20
393.901093
 30
0.0
 40
180.449927
 50
116.601925
 51
166.190795
  0
ENDSEC
  0
EOF
