  0
SECTION
  2
HEADER
  9
$ACADVER
  1
AC1009
  9
$INSBASE
 10
0.0
 20
0.0
 30
0.0
  9
$EXTMIN
 10
-1037.881406
 20
-898.630436
 30
0.0
  9
$EXTMAX
 10
1051.124495
 20
762.496126
 30
0.000005
  9
$LIMMIN
 10
-1037.881406
 20
-898.630436
  9
$LIMMAX
 10
1051.124495
 20
762.496126
  9
$ORTHOMODE
 70
     1
  9
$REGENMODE
 70
     1
  9
$FILLMODE
 70
     1
  9
$QTEXTMODE
 70
     0
  9
$MIRRTEXT
 70
     0
  9
$DRAGMODE
 70
     2
  9
$LTSCALE
 40
50.0
  9
$OSMODE
 70
     7
  9
$ATTMODE
 70
     1
  9
$TEXTSIZE
 40
200.0
  9
$TRACEWID
 40
1.0
  9
$TEXTSTYLE
  7
STANDARD
  9
$CLAYER
  8
TEAM-MAS
  9
$CELTYPE
  6
BYLAYER
  9
$CECOLOR
 62
   256
  9
$DIMSCALE
 40
0.0
  9
$DIMASZ
 40
20.0
  9
$DIMEXO
 40
10.0
  9
$DIMDLI
 40
1.0
  9
$DIMRND
 40
0.0
  9
$DIMDLE
 40
0.0
  9
$DIMEXE
 40
1.0
  9
$DIMTP
 40
0.0
  9
$DIMTM
 40
0.0
  9
$DIMTXT
 40
35.0
  9
$DIMCEN
 40
1.0
  9
$DIMTSZ
 40
0.0
  9
$DIMTOL
 70
     0
  9
$DIMLIM
 70
     0
  9
$DIMTIH
 70
     0
  9
$DIMTOH
 70
     0
  9
$DIMSE1
 70
     0
  9
$DIMSE2
 70
     0
  9
$DIMTAD
 70
     0
  9
$DIMZIN
 70
     0
  9
$DIMBLK
  1

  9
$DIMASO
 70
     1
  9
$DIMSHO
 70
     0
  9
$DIMPOST
  1

  9
$DIMAPOST
  1

  9
$DIMALT
 70
     0
  9
$DIMALTD
 70
     2
  9
$DIMALTF
 40
25.4
  9
$DIMLFAC
 40
1.0
  9
$DIMTOFL
 70
     0
  9
$DIMTVP
 40
0.0
  9
$DIMTIX
 70
     0
  9
$DIMSOXD
 70
     0
  9
$DIMSAH
 70
     0
  9
$DIMBLK1
  1

  9
$DIMBLK2
  1

  9
$DIMSTYLE
  2
TEAM
  9
$DIMCLRD
 70
     9
  9
$DIMCLRE
 70
     9
  9
$DIMCLRT
 70
    11
  9
$DIMTFAC
 40
1.0
  9
$DIMGAP
 40
7.0
  9
$LUNITS
 70
     2
  9
$LUPREC
 70
     1
  9
$SKETCHINC
 40
1.0
  9
$FILLETRAD
 40
9.5
  9
$AUNITS
 70
     0
  9
$AUPREC
 70
     0
  9
$MENU
  1
ROPLANS
  9
$ELEVATION
 40
0.0
  9
$PELEVATION
 40
0.0
  9
$THICKNESS
 40
0.0
  9
$LIMCHECK
 70
     0
  9
$BLIPMODE
 70
     1
  9
$CHAMFERA
 40
0.0
  9
$CHAMFERB
 40
0.0
  9
$SKPOLY
 70
     0
  9
$TDCREATE
 40
2450392.957851
  9
$TDUPDATE
 40
2455944.717343
  9
$TDINDWG
 40
3.569992
  9
$TDUSRTIMER
 40
3.569992
  9
$USRTIMER
 70
     1
  9
$ANGBASE
 50
0.0
  9
$ANGDIR
 70
     0
  9
$PDMODE
 70
     0
  9
$PDSIZE
 40
0.0
  9
$PLINEWID
 40
0.0
  9
$COORDS
 70
     2
  9
$SPLFRAME
 70
     0
  9
$SPLINETYPE
 70
     6
  9
$SPLINESEGS
 70
     8
  9
$ATTDIA
 70
     0
  9
$ATTREQ
 70
     0
  9
$HANDLING
 70
     1
  9
$HANDSEED
  5
1BC
  9
$SURFTAB1
 70
    24
  9
$SURFTAB2
 70
    24
  9
$SURFTYPE
 70
     6
  9
$SURFU
 70
     6
  9
$SURFV
 70
     6
  9
$UCSNAME
  2

  9
$UCSORG
 10
0.0
 20
0.0
 30
0.0
  9
$UCSXDIR
 10
1.0
 20
0.0
 30
0.0
  9
$UCSYDIR
 10
0.0
 20
1.0
 30
0.0
  9
$PUCSNAME
  2

  9
$PUCSORG
 10
0.0
 20
0.0
 30
0.0
  9
$PUCSXDIR
 10
1.0
 20
0.0
 30
0.0
  9
$PUCSYDIR
 10
0.0
 20
1.0
 30
0.0
  9
$USERI1
 70
     0
  9
$USERI2
 70
     0
  9
$USERI3
 70
     0
  9
$USERI4
 70
     0
  9
$USERI5
 70
     0
  9
$USERR1
 40
0.0
  9
$USERR2
 40
0.0
  9
$USERR3
 40
0.0
  9
$USERR4
 40
0.0
  9
$USERR5
 40
0.0
  9
$WORLDVIEW
 70
     1
  9
$SHADEDGE
 70
     0
  9
$SHADEDIF
 70
    70
  9
$TILEMODE
 70
     1
  9
$MAXACTVP
 70
    16
  9
$PLIMCHECK
 70
     0
  9
$PEXTMIN
 10
-0.805942
 20
0.005011
 30
0.0
  9
$PEXTMAX
 10
20.250094
 20
11.356329
 30
0.0
  9
$PLIMMIN
 10
0.0
 20
0.0
  9
$PLIMMAX
 10
12.0
 20
9.0
  9
$UNITMODE
 70
     0
  9
$VISRETAIN
 70
     0
  9
$PLINEGEN
 70
     0
  9
$PSLTSCALE
 70
     0
  0
ENDSEC
  0
SECTION
  2
TABLES
  0
TABLE
  2
VPORT
 70
     2
  0
VPORT
  2
*ACTIVE
 70
     0
 10
0.0
 20
0.0
 11
1.0
 21
1.0
 12
6.621544
 22
-68.067155
 13
0.0
 23
0.0
 14
1.0
 24
1.0
 15
50.0
 25
50.0
 16
0.0
 26
0.0
 36
1.0
 17
0.0
 27
0.0
 37
0.0
 40
1671.541149
 41
1.903766
 42
50.0
 43
0.0
 44
0.0
 50
0.0
 51
0.0
 71
     0
 72
   100
 73
     1
 74
     1
 75
     0
 76
     0
 77
     0
 78
     0
  0
ENDTAB
  0
TABLE
  2
LTYPE
 70
     2
  0
LTYPE
  2
CONTINUOUS
 70
     0
  3
Solid Line
 72
    65
 73
     0
 40
0.0
  0
LTYPE
  2
31
 70
     0
  3

 72
    65
 73
     4
 40
2.1
 49
1.5
 49
-0.3
 49
0.0
 49
-0.3
  0
ENDTAB
  0
TABLE
  2
LAYER
 70
     9
  0
LAYER
  2
0
 70
     0
 62
     7
  6
CONTINUOUS
  0
LAYER
  2
DEFPOINTS
 70
     0
 62
     7
  6
CONTINUOUS
  0
LAYER
  2
TEAM-BODY
 70
     0
 62
     2
  6
CONTINUOUS
  0
LAYER
  2
TEAM-AXE
 70
     0
 62
    10
  6
31
  0
LAYER
  2
TEAM-MAS
 70
     0
 62
     9
  6
CONTINUOUS
  0
LAYER
  2
TEAM-TXT
 70
     0
 62
    11
  6
CONTINUOUS
  0
LAYER
  2
TEAM-DET1
 70
     0
 62
     4
  6
CONTINUOUS
  0
LAYER
  2
TEAM-KAN
 70
     0
 62
     6
  6
CONTINUOUS
  0
LAYER
  2
TEAM-INSP
 70
     0
 62
     5
  6
CONTINUOUS
  0
ENDTAB
  0
TABLE
  2
STYLE
 70
     2
  0
STYLE
  2
STANDARD
 70
     0
 40
0.0
 41
1.0
 50
0.0
 71
     0
 42
200.0
  3
txt
  4

  0
STYLE
  2
TEAM
 70
     0
 40
0.0
 41
0.8
 50
15.0
 71
     0
 42
7.0
  3
ROMANS.shx
  4

  0
ENDTAB
  0
TABLE
  2
VIEW
 70
     0
  0
ENDTAB
  0
TABLE
  2
UCS
 70
     0
  0
ENDTAB
  0
TABLE
  2
APPID
 70
     1
  0
APPID
  2
ACAD
 70
     0
  0
ENDTAB
  0
TABLE
  2
DIMSTYLE
 70
     1
  0
DIMSTYLE
  2
TEAM
 70
     0
  3

  4

  5

  6

  7

 40
0.0
 41
20.0
 42
10.0
 43
1.0
 44
1.0
 45
0.0
 46
0.0
 47
0.0
 48
0.0
140
35.0
141
1.0
142
0.0
143
25.4
144
1.0
145
0.0
146
1.0
147
7.0
 71
     0
 72
     0
 73
     0
 74
     0
 75
     0
 76
     0
 77
     0
 78
     0
170
     0
171
     2
172
     0
173
     0
174
     0
175
     0
176
     9
177
     9
178
    11
  0
ENDTAB
  0
ENDSEC
  0
SECTION
  2
BLOCKS
  0
BLOCK
  8
0
  2
$MODEL_SPACE
 70
     0
 10
0.0
 20
0.0
 30
0.0
  3
$MODEL_SPACE
  1

  0
ENDBLK
  5
15B
  8
0
  0
BLOCK
 67
     1
  8
0
  2
$PAPER_SPACE
 70
     0
 10
0.0
 20
0.0
 30
0.0
  3
$PAPER_SPACE
  1

  0
ENDBLK
  5
159
 67
     1
  8
0
  0
BLOCK
  8
0
  2
*D0
 70
     1
 10
0.0
 20
0.0
 30
0.0
  3
*D0
  1

  0
LINE
  5
24
  8
0
  6
BYBLOCK
 62
     9
 10
3990.0
 20
76734.0
 30
0.0
 11
2978.681319
 21
76734.0
 31
0.0
  0
LINE
  5
25
  8
0
  6
BYBLOCK
 62
     9
 10
3990.0
 20
75266.0
 30
0.0
 11
2978.681319
 21
75266.0
 31
0.0
  0
LINE
  5
26
  8
0
  6
BYBLOCK
 62
     9
 10
2979.681319
 20
76714.0
 30
0.0
 11
2979.681319
 21
76065.333333
 31
0.0
  0
LINE
  5
27
  8
0
  6
BYBLOCK
 62
     9
 10
2979.681319
 20
75286.0
 30
0.0
 11
2979.681319
 21
75934.666667
 31
0.0
  0
SOLID
  5
28
  8
0
  6
BYBLOCK
 62
     9
 10
2976.347986
 20
76714.0
 30
0.0
 11
2983.014652
 21
76714.0
 31
0.0
 12
2979.681319
 22
76734.0
 32
0.0
 13
2979.681319
 23
76734.0
 33
0.0
  0
SOLID
  5
29
  8
0
  6
BYBLOCK
 62
     9
 10
2976.347986
 20
75286.0
 30
0.0
 11
2983.014652
 21
75286.0
 31
0.0
 12
2979.681319
 22
75266.0
 32
0.0
 13
2979.681319
 23
75266.0
 33
0.0
  0
TEXT
  5
2A
  8
0
  6
BYBLOCK
 62
    11
 10
2997.181319
 20
75941.666667
 30
0.0
 40
35.0
  1
1468
 50
90.0
  0
POINT
  5
2B
  8
DEFPOINTS
  6
BYBLOCK
 62
     0
 10
4000.0
 20
76734.0
 30
0.0
  0
POINT
  5
2D
  8
DEFPOINTS
  6
BYBLOCK
 62
     0
 10
4000.0
 20
75266.0
 30
0.0
  0
POINT
  5
2E
  8
DEFPOINTS
  6
BYBLOCK
 62
     0
 10
2979.681319
 20
75266.0
 30
0.0
  0
ENDBLK
  5
30
  8
0
  0
BLOCK
  8
0
  2
*D1
 70
     1
 10
0.0
 20
0.0
 30
0.0
  3
*D1
  1

  0
LINE
  5
68
  8
0
  6
BYBLOCK
 62
     9
 10
4010.0
 20
75266.0
 30
0.0
 11
5034.598997
 21
75266.0
 31
0.0
  0
LINE
  5
69
  8
0
  6
BYBLOCK
 62
     9
 10
4067.105263
 20
75578.002105
 30
0.0
 11
5034.598997
 21
75578.002105
 31
0.0
  0
LINE
  5
6A
  8
0
  6
BYBLOCK
 62
     9
 10
5033.598997
 20
75286.0
 30
0.0
 11
5033.598997
 21
75374.167719
 31
0.0
  0
LINE
  5
6B
  8
0
  6
BYBLOCK
 62
     9
 10
5033.598997
 20
75558.002105
 30
0.0
 11
5033.598997
 21
75469.834386
 31
0.0
  0
SOLID
  5
6C
  8
0
  6
BYBLOCK
 62
     9
 10
5030.265663
 20
75286.0
 30
0.0
 11
5036.93233
 21
75286.0
 31
0.0
 12
5033.598997
 22
75266.0
 32
0.0
 13
5033.598997
 23
75266.0
 33
0.0
  0
SOLID
  5
6D
  8
0
  6
BYBLOCK
 62
     9
 10
5030.265663
 20
75558.002105
 30
0.0
 11
5036.93233
 21
75558.002105
 31
0.0
 12
5033.598997
 22
75578.002105
 32
0.0
 13
5033.598997
 23
75578.002105
 33
0.0
  0
TEXT
  5
6E
  8
0
  6
BYBLOCK
 62
    11
 10
5051.098997
 20
75381.167719
 30
0.0
 40
35.0
  1
312
 50
90.0
  0
POINT
  5
6F
  8
DEFPOINTS
  6
BYBLOCK
 62
     0
 10
4000.0
 20
75266.0
 30
0.0
  0
POINT
  5
70
  8
DEFPOINTS
  6
BYBLOCK
 62
     0
 10
4057.105263
 20
75578.002105
 30
0.0
  0
POINT
  5
71
  8
DEFPOINTS
  6
BYBLOCK
 62
     0
 10
5033.598997
 20
75578.002105
 30
0.0
  0
ENDBLK
  5
73
  8
0
  0
BLOCK
  8
0
  2
*D2
 70
     1
 10
0.0
 20
0.0
 30
0.0
  3
*D2
  1

  0
LINE
  5
45
  8
0
  6
BYBLOCK
 62
     9
 10
4007.067706
 20
76741.074429
 30
0.0
 11
4028.371557
 21
76762.398543
 31
0.0
  0
LINE
  5
46
  8
0
  6
BYBLOCK
 62
     9
 10
5008.099306
 20
75740.994065
 30
0.0
 11
5029.403157
 21
75762.318179
 31
0.0
  0
LINE
  5
47
  8
0
  6
BYBLOCK
 62
     9
 10
4041.813643
 20
76747.555689
 30
0.0
 11
4486.087738
 21
76303.703767
 31
0.0
  0
LINE
  5
48
  8
0
  6
BYBLOCK
 62
     9
 10
5014.54753
 20
75775.746148
 30
0.0
 11
4570.273435
 21
76219.598069
 31
0.0
  0
SOLID
  5
49
  8
0
  6
BYBLOCK
 62
     9
 10
4044.169545
 20
76749.913831
 30
0.0
 11
4039.457741
 21
76745.197546
 31
0.0
 12
4027.664786
 22
76761.6911
 32
0.0
 13
4027.664786
 23
76761.6911
 33
0.0
  0
SOLID
  5
4A
  8
0
  6
BYBLOCK
 62
     9
 10
5016.903432
 20
75778.10429
 30
0.0
 11
5012.191628
 21
75773.388005
 31
0.0
 12
5028.696387
 22
75761.610736
 32
0.0
 13
5028.696387
 23
75761.610736
 33
0.0
  0
TEXT
  5
4B
  8
0
  6
BYBLOCK
 62
    11
 10
4478.671353
 20
76286.376124
 30
0.0
 40
35.0
  1
1415
 50
315.027236
  0
POINT
  5
4C
  8
DEFPOINTS
  6
BYBLOCK
 62
     0
 10
4000.0
 20
76734.0
 30
0.0
  0
POINT
  5
4D
  8
DEFPOINTS
  6
BYBLOCK
 62
     0
 10
5001.031601
 20
75733.919636
 30
0.0
  0
POINT
  5
4E
  8
DEFPOINTS
  6
BYBLOCK
 62
     0
 10
5028.696387
 20
75761.610736
 30
0.0
  0
ENDBLK
  5
50
  8
0
  0
ENDSEC
  0
SECTION
  2
ENTITIES
  0
LINE
  5
20
  8
TEAM-DET1
 10
-806.909938
 20
-205.189661
 30
0.0
 11
0.0
 21
734.0
 31
0.0
  0
DIMENSION
  5
22
  8
TEAM-MAS
  2
*D0
 10
-1020.318681
 20
-734.0
 30
0.0
 11
-1020.318681
 21
0.0
 31
0.0
 12
-4000.0
 22
-76000.0
 32
0.0
 13
0.0
 23
734.0
 33
0.0
 14
0.0
 24
-734.0
 34
0.0
 50
90.0
1001
ACAD
1000
DSTYLE
1002
{
1070
    78
1070
     0
1070
    40
1040
1.0
1002
}
  0
LINE
  5
31
  8
TEAM-BODY
 10
-1001.031601
 20
-266.080364
 30
0.0
 11
0.0
 21
734.0
 31
0.0
  0
ARC
  5
33
  8
TEAM-BODY
 10
0.0
 20
512.549895
 30
0.0
 40
1095.414676
 50
246.514781
 51
293.485219
  0
ARC
  5
34
  8
TEAM-DET1
 10
0.0
 20
-284.741403
 30
0.0
 40
613.796716
 50
357.401631
 51
182.598369
  0
ARC
  5
35
  8
TEAM-DET1
 10
0.0
 20
264.240875
 30
0.0
 40
922.994625
 50
240.360272
 51
299.639728
  0
ARC
  5
36
  8
TEAM-BODY
 10
0.0
 20
-309.621374
 30
0.0
 40
563.217464
 50
359.930875
 51
180.069125
  0
ARC
  5
37
  8
TEAM-DET1
 10
0.0
 20
282.67423
 30
0.0
 40
1016.67423
 50
217.106722
 51
322.893278
  0
ARC
  5
38
  8
TEAM-BODY
 10
0.0
 20
570.725166
 30
0.0
 40
1304.725166
 50
219.893707
 51
320.106293
  0
TEXT
  5
39
  8
TEAM-TXT
 10
-480.376299
 20
-224.862032
 30
0.0
 40
30.0
  1
team 121144
 41
0.8
 51
15.0
  7
TEAM
  0
ARC
  5
3C
  8
TEAM-BODY
 10
-353.727125
 20
-299.386221
 30
0.0
 40
209.774069
 50
182.982475
 51
246.749325
  0
ARC
  5
3D
  8
TEAM-DET1
 10
-353.727125
 20
-299.386221
 30
0.0
 40
259.774069
 50
182.982475
 51
246.749325
  0
ARC
  5
3E
  8
TEAM-DET1
 10
-731.05976
 20
-270.356757
 30
0.0
 40
100.0
 50
139.332296
 51
217.106722
  0
LINE
  5
3F
  8
TEAM-AXE
 10
0.0
 20
734.0
 30
0.0
 11
0.0
 21
-734.0
 31
0.0
  0
LINE
  5
42
  8
TEAM-DET1
 10
0.0
 20
734.0
 30
0.0
 11
806.909938
 21
-205.189661
 31
0.0
  0
DIMENSION
  5
43
  8
TEAM-MAS
  2
*D2
 10
1028.696387
 20
-238.389264
 30
0.0
 11
528.180586
 21
261.650918
 31
0.0
 12
-4000.0
 22
-76000.0
 32
0.0
 70
     1
 13
0.0
 23
734.0
 33
0.0
 14
1001.031601
 24
-266.080364
 34
0.0
1001
ACAD
1000
DSTYLE
1002
{
1070
    78
1070
     0
1070
    40
1040
1.0
1002
}
  0
LINE
  5
51
  8
TEAM-BODY
 10
0.0
 20
734.0
 30
0.0
 11
1001.031601
 21
-266.080364
 31
0.0
  0
ARC
  5
52
  8
TEAM-BODY
 10
365.812897
 20
-307.806683
 30
0.0
 40
197.419914
 50
290.992089
 51
359.27611
  0
ARC
  5
53
  8
TEAM-DET1
 10
365.812897
 20
-307.806683
 30
0.0
 40
247.419914
 50
290.992089
 51
359.27611
  0
ARC
  5
54
  8
TEAM-DET1
 10
731.05976
 20
-270.356757
 30
0.0
 40
100.0
 50
322.893278
 51
40.667704
  0
CIRCLE
  5
55
  8
TEAM-INSP
 10
0.0
 20
0.0
 30
0.0
 40
10.0
  0
CIRCLE
  5
57
  8
TEAM-KAN
 10
0.0
 20
-421.997895
 30
0.0
 40
23.947368
  0
CIRCLE
  5
59
  8
TEAM-DET1
 10
0.0
 20
-421.997895
 30
0.0
 40
47.894737
  0
LINE
  5
5A
  8
TEAM-AXE
 10
57.105263
 20
-421.997895
 30
0.0
 11
-57.105263
 21
-421.997895
 31
0.0
  0
LINE
  5
5B
  8
TEAM-KAN
 10
37.705054
 20
-638.900187
 30
0.0
 11
37.156708
 21
-641.404756
 31
0.0
  0
LINE
  5
5C
  8
TEAM-KAN
 10
-37.551877
 20
-639.072366
 30
0.0
 11
-37.182133
 21
-641.273333
 31
0.0
  0
POLYLINE
  5
5D
  8
TEAM-KAN
 66
     1
 10
0.0
 20
0.0
 30
0.0
  0
VERTEX
  5
161
  8
TEAM-KAN
 10
-37.182133
 20
-641.273333
 30
0.0
  0
VERTEX
  5
162
  8
TEAM-KAN
 10
-36.444864
 20
-642.830191
 30
0.0
  0
VERTEX
  5
163
  8
TEAM-KAN
 10
-34.776826
 20
-644.336186
 30
0.0
  0
VERTEX
  5
164
  8
TEAM-KAN
 10
-32.220621
 20
-645.75286
 30
0.0
  0
VERTEX
  5
165
  8
TEAM-KAN
 10
-28.841533
 20
-647.044031
 30
0.0
  0
VERTEX
  5
166
  8
TEAM-KAN
 10
-24.725859
 20
-648.176723
 30
0.0
  0
VERTEX
  5
167
  8
TEAM-KAN
 10
-19.978709
 20
-649.12201
 30
0.0
  0
VERTEX
  5
168
  8
TEAM-KAN
 10
-14.721322
 20
-649.855749
 30
0.0
  0
VERTEX
  5
169
  8
TEAM-KAN
 10
-9.087966
 20
-650.359201
 30
0.0
  0
VERTEX
  5
16A
  8
TEAM-KAN
 10
-3.222513
 20
-650.619509
 30
0.0
  0
VERTEX
  5
16B
  8
TEAM-KAN
 10
2.725241
 20
-650.630023
 30
0.0
  0
VERTEX
  5
16C
  8
TEAM-KAN
 10
8.603394
 20
-650.390477
 30
0.0
  0
VERTEX
  5
16D
  8
TEAM-KAN
 10
14.261826
 20
-649.906988
 30
0.0
  0
VERTEX
  5
16E
  8
TEAM-KAN
 10
19.556022
 20
-649.191903
 30
0.0
  0
VERTEX
  5
16F
  8
TEAM-KAN
 10
24.350777
 20
-648.263486
 30
0.0
  0
VERTEX
  5
170
  8
TEAM-KAN
 10
28.523637
 20
-647.145446
 30
0.0
  0
VERTEX
  5
171
  8
TEAM-KAN
 10
31.968029
 20
-645.866337
 30
0.0
  0
VERTEX
  5
172
  8
TEAM-KAN
 10
34.595988
 20
-644.458829
 30
0.0
  0
VERTEX
  5
173
  8
TEAM-KAN
 10
36.340398
 20
-642.958865
 30
0.0
  0
VERTEX
  5
174
  8
TEAM-KAN
 10
37.156708
 20
-641.404756
 30
0.0
  0
SEQEND
  5
175
  8
TEAM-KAN
  0
LINE
  5
5E
  8
TEAM-KAN
 10
-38.684211
 20
-633.886707
 30
0.0
 11
-38.684211
 21
-636.582821
 31
0.0
  0
LINE
  5
5F
  8
TEAM-KAN
 10
38.684211
 20
-633.886707
 30
0.0
 11
38.684211
 21
-636.582821
 31
0.0
  0
POLYLINE
  5
60
  8
TEAM-KAN
 66
     1
 10
0.0
 20
0.0
 30
0.0
  0
VERTEX
  5
176
  8
TEAM-KAN
 10
-38.684211
 20
-636.582821
 30
0.0
  0
VERTEX
  5
177
  8
TEAM-KAN
 10
-38.207943
 20
-638.204327
 30
0.0
  0
VERTEX
  5
178
  8
TEAM-KAN
 10
-36.790871
 20
-639.785907
 30
0.0
  0
VERTEX
  5
179
  8
TEAM-KAN
 10
-34.467884
 20
-641.288616
 30
0.0
  0
VERTEX
  5
17A
  8
TEAM-KAN
 10
-31.296184
 20
-642.675452
 30
0.0
  0
VERTEX
  5
17B
  8
TEAM-KAN
 10
-27.353868
 20
-643.912268
 30
0.0
  0
VERTEX
  5
17C
  8
TEAM-KAN
 10
-22.738009
 20
-644.968609
 30
0.0
  0
VERTEX
  5
17D
  8
TEAM-KAN
 10
-17.562264
 20
-645.818463
 30
0.0
  0
VERTEX
  5
17E
  8
TEAM-KAN
 10
-11.954079
 20
-646.440905
 30
0.0
  0
VERTEX
  5
17F
  8
TEAM-KAN
 10
-6.051544
 20
-646.820609
 30
0.0
  0
VERTEX
  5
180
  8
TEAM-KAN
 10
0.0
 20
-646.948224
 30
0.0
  0
VERTEX
  5
181
  8
TEAM-KAN
 10
6.051544
 20
-646.820609
 30
0.0
  0
VERTEX
  5
182
  8
TEAM-KAN
 10
11.954079
 20
-646.440905
 30
0.0
  0
VERTEX
  5
183
  8
TEAM-KAN
 10
17.562264
 20
-645.818463
 30
0.0
  0
VERTEX
  5
184
  8
TEAM-KAN
 10
22.738009
 20
-644.968609
 30
0.0
  0
VERTEX
  5
185
  8
TEAM-KAN
 10
27.353868
 20
-643.912268
 30
0.0
  0
VERTEX
  5
186
  8
TEAM-KAN
 10
31.296184
 20
-642.675452
 30
0.0
  0
VERTEX
  5
187
  8
TEAM-KAN
 10
34.467884
 20
-641.288616
 30
0.0
  0
VERTEX
  5
188
  8
TEAM-KAN
 10
36.790871
 20
-639.785907
 30
0.0
  0
VERTEX
  5
189
  8
TEAM-KAN
 10
38.207943
 20
-638.204327
 30
0.0
  0
VERTEX
  5
18A
  8
TEAM-KAN
 10
38.684211
 20
-636.582821
 30
0.0
  0
SEQEND
  5
18B
  8
TEAM-KAN
  0
LINE
  5
61
  8
TEAM-KAN
 10
-10.451203
 20
-618.372003
 30
0.0
 11
-33.201848
 21
-628.567356
 31
0.0
  0
LINE
  5
62
  8
TEAM-KAN
 10
10.451203
 20
-618.372003
 30
0.0
 11
33.201848
 21
-628.567356
 31
0.0
  0
POLYLINE
  5
63
  8
TEAM-KAN
 66
     1
 10
0.0
 20
0.0
 30
0.0
  0
VERTEX
  5
18C
  8
TEAM-KAN
 10
10.451203
 20
-618.372003
 30
0.0
  0
VERTEX
  5
18D
  8
TEAM-KAN
 10
8.490362
 20
-617.595163
 30
0.0
  0
VERTEX
  5
18E
  8
TEAM-KAN
 10
6.443869
 20
-616.982674
 30
0.0
  0
VERTEX
  5
18F
  8
TEAM-KAN
 10
4.332371
 20
-616.540714
 30
0.0
  0
VERTEX
  5
190
  8
TEAM-KAN
 10
2.177168
 20
-616.273742
 30
0.0
  0
VERTEX
  5
191
  8
TEAM-KAN
 10
0.0
 20
-616.184451
 30
0.0
  0
VERTEX
  5
192
  8
TEAM-KAN
 10
-2.177168
 20
-616.273742
 30
0.0
  0
VERTEX
  5
193
  8
TEAM-KAN
 10
-4.332371
 20
-616.540714
 30
0.0
  0
VERTEX
  5
194
  8
TEAM-KAN
 10
-6.443869
 20
-616.982674
 30
0.0
  0
VERTEX
  5
195
  8
TEAM-KAN
 10
-8.490362
 20
-617.595163
 30
0.0
  0
VERTEX
  5
196
  8
TEAM-KAN
 10
-10.451203
 20
-618.372003
 30
0.0
  0
SEQEND
  5
197
  8
TEAM-KAN
  0
POLYLINE
  5
64
  8
TEAM-KAN
 66
     1
 10
0.0
 20
0.0
 30
0.0
  0
VERTEX
  5
198
  8
TEAM-KAN
 10
-33.201848
 20
-628.567356
 30
0.0
  0
VERTEX
  5
199
  8
TEAM-KAN
 10
-36.154745
 20
-630.200067
 30
0.0
  0
VERTEX
  5
19A
  8
TEAM-KAN
 10
-37.999936
 20
-631.945728
 30
0.0
  0
VERTEX
  5
19B
  8
TEAM-KAN
 10
-38.680888
 20
-633.750858
 30
0.0
  0
VERTEX
  5
19C
  8
TEAM-KAN
 10
-38.17674
 20
-635.560149
 30
0.0
  0
VERTEX
  5
19D
  8
TEAM-KAN
 10
-36.502937
 20
-637.318169
 30
0.0
  0
VERTEX
  5
19E
  8
TEAM-KAN
 10
-33.710761
 20
-638.971057
 30
0.0
  0
VERTEX
  5
19F
  8
TEAM-KAN
 10
-29.885758
 20
-640.468171
 30
0.0
  0
VERTEX
  5
1A0
  8
TEAM-KAN
 10
-25.145118
 20
-641.763644
 30
0.0
  0
VERTEX
  5
1A1
  8
TEAM-KAN
 10
-19.634085
 20
-642.817783
 30
0.0
  0
VERTEX
  5
1A2
  8
TEAM-KAN
 10
-13.521506
 20
-643.598292
 30
0.0
  0
VERTEX
  5
1A3
  8
TEAM-KAN
 10
-6.994655
 20
-644.08126
 30
0.0
  0
VERTEX
  5
1A4
  8
TEAM-KAN
 10
-0.253503
 20
-644.251887
 30
0.0
  0
VERTEX
  5
1A5
  8
TEAM-KAN
 10
6.495416
 20
-644.104948
 30
0.0
  0
VERTEX
  5
1A6
  8
TEAM-KAN
 10
13.045329
 20
-643.644943
 30
0.0
  0
VERTEX
  5
1A7
  8
TEAM-KAN
 10
19.19556
 20
-642.885966
 30
0.0
  0
VERTEX
  5
1A8
  8
TEAM-KAN
 10
24.75768
 20
-641.85127
 30
0.0
  0
VERTEX
  5
1A9
  8
TEAM-KAN
 10
29.561277
 20
-640.572558
 30
0.0
  0
VERTEX
  5
1AA
  8
TEAM-KAN
 10
33.459178
 20
-639.089005
 30
0.0
  0
VERTEX
  5
1AB
  8
TEAM-KAN
 10
36.331961
 20
-637.446064
 30
0.0
  0
VERTEX
  5
1AC
  8
TEAM-KAN
 10
38.091609
 20
-635.694073
 30
0.0
  0
VERTEX
  5
1AD
  8
TEAM-KAN
 10
38.684211
 20
-633.886707
 30
0.0
  0
SEQEND
  5
1AE
  8
TEAM-KAN
  0
POLYLINE
  5
65
  8
TEAM-KAN
 66
     1
 10
0.0
 20
0.0
 30
0.0
  0
VERTEX
  5
1AF
  8
TEAM-KAN
 10
38.684211
 20
-633.886707
 30
0.0
  0
VERTEX
  5
1B0
  8
TEAM-KAN
 10
38.628054
 20
-633.328396
 30
0.0
  0
VERTEX
  5
1B1
  8
TEAM-KAN
 10
38.459748
 20
-632.771707
 30
0.0
  0
VERTEX
  5
1B2
  8
TEAM-KAN
 10
38.179782
 20
-632.218255
 30
0.0
  0
VERTEX
  5
1B3
  8
TEAM-KAN
 10
37.788968
 20
-631.669647
 30
0.0
  0
VERTEX
  5
1B4
  8
TEAM-KAN
 10
37.288439
 20
-631.127475
 30
0.0
  0
VERTEX
  5
1B5
  8
TEAM-KAN
 10
36.679652
 20
-630.593315
 30
0.0
  0
VERTEX
  5
1B6
  8
TEAM-KAN
 10
35.964371
 20
-630.068716
 30
0.0
  0
VERTEX
  5
1B7
  8
TEAM-KAN
 10
35.144674
 20
-629.555202
 30
0.0
  0
VERTEX
  5
1B8
  8
TEAM-KAN
 10
34.222941
 20
-629.054264
 30
0.0
  0
VERTEX
  5
1B9
  8
TEAM-KAN
 10
33.201848
 20
-628.567356
 30
0.0
  0
SEQEND
  5
1BA
  8
TEAM-KAN
  0
DIMENSION
  5
66
  8
TEAM-MAS
  2
*D1
 10
1033.598997
 20
-421.997895
 30
0.0
 11
1033.598997
 21
-577.998948
 31
0.0
 12
-4000.0
 22
-76000.0
 32
0.0
 13
0.0
 23
-734.0
 33
0.0
 14
57.105263
 24
-421.997895
 34
0.0
 50
90.0
1001
ACAD
1000
DSTYLE
1002
{
1070
    78
1070
     0
1070
    40
1040
1.0
1002
}
  0
ARC
  5
74
  8
TEAM-BODY
 10
0.0
 20
719.857865
 30
0.0
 40
10.0
 50
45.0
 51
135.0
  0
ENDSEC
  0
EOF
