  0
SECTION
  2
HEADER
  9
$ACADVER
  1
AC1009
  9
$INSBASE
 10
0.0
 20
0.0
 30
0.0
  9
$EXTMIN
 10
-743.008814
 20
-10.020077
 30
-0.001526
  9
$EXTMAX
 10
835.802791
 20
647.938031
 30
0.0
  9
$LIMMIN
 10
-743.008814
 20
-10.020077
  9
$LIMMAX
 10
835.802791
 20
647.938031
  9
$ORTHOMODE
 70
     1
  9
$REGENMODE
 70
     1
  9
$FILLMODE
 70
     1
  9
$QTEXTMODE
 70
     0
  9
$MIRRTEXT
 70
     0
  9
$DRAGMODE
 70
     2
  9
$LTSCALE
 40
50.0
  9
$OSMODE
 70
     7
  9
$ATTMODE
 70
     1
  9
$TEXTSIZE
 40
200.0
  9
$TRACEWID
 40
1.0
  9
$TEXTSTYLE
  7
STANDARD
  9
$CLAYER
  8
TEAM-MAS
  9
$CELTYPE
  6
BYLAYER
  9
$CECOLOR
 62
   256
  9
$DIMSCALE
 40
0.0
  9
$DIMASZ
 40
20.0
  9
$DIMEXO
 40
10.0
  9
$DIMDLI
 40
1.0
  9
$DIMRND
 40
0.0
  9
$DIMDLE
 40
0.0
  9
$DIMEXE
 40
1.0
  9
$DIMTP
 40
0.0
  9
$DIMTM
 40
0.0
  9
$DIMTXT
 40
35.0
  9
$DIMCEN
 40
1.0
  9
$DIMTSZ
 40
0.0
  9
$DIMTOL
 70
     0
  9
$DIMLIM
 70
     0
  9
$DIMTIH
 70
     0
  9
$DIMTOH
 70
     0
  9
$DIMSE1
 70
     0
  9
$DIMSE2
 70
     0
  9
$DIMTAD
 70
     0
  9
$DIMZIN
 70
     0
  9
$DIMBLK
  1

  9
$DIMASO
 70
     1
  9
$DIMSHO
 70
     0
  9
$DIMPOST
  1

  9
$DIMAPOST
  1

  9
$DIMALT
 70
     0
  9
$DIMALTD
 70
     2
  9
$DIMALTF
 40
25.4
  9
$DIMLFAC
 40
1.0
  9
$DIMTOFL
 70
     0
  9
$DIMTVP
 40
0.0
  9
$DIMTIX
 70
     0
  9
$DIMSOXD
 70
     0
  9
$DIMSAH
 70
     0
  9
$DIMBLK1
  1

  9
$DIMBLK2
  1

  9
$DIMSTYLE
  2
TEAM
  9
$DIMCLRD
 70
     9
  9
$DIMCLRE
 70
     9
  9
$DIMCLRT
 70
    11
  9
$DIMTFAC
 40
1.0
  9
$DIMGAP
 40
7.0
  9
$LUNITS
 70
     2
  9
$LUPREC
 70
     1
  9
$SKETCHINC
 40
1.0
  9
$FILLETRAD
 40
9.5
  9
$AUNITS
 70
     0
  9
$AUPREC
 70
     0
  9
$MENU
  1
ROPLANS
  9
$ELEVATION
 40
0.0
  9
$PELEVATION
 40
0.0
  9
$THICKNESS
 40
0.0
  9
$LIMCHECK
 70
     0
  9
$BLIPMODE
 70
     1
  9
$CHAMFERA
 40
0.0
  9
$CHAMFERB
 40
0.0
  9
$SKPOLY
 70
     0
  9
$TDCREATE
 40
2450392.957851
  9
$TDUPDATE
 40
2455944.717343
  9
$TDINDWG
 40
3.569992
  9
$TDUSRTIMER
 40
3.569992
  9
$USRTIMER
 70
     1
  9
$ANGBASE
 50
0.0
  9
$ANGDIR
 70
     0
  9
$PDMODE
 70
     0
  9
$PDSIZE
 40
0.0
  9
$PLINEWID
 40
0.0
  9
$COORDS
 70
     2
  9
$SPLFRAME
 70
     0
  9
$SPLINETYPE
 70
     6
  9
$SPLINESEGS
 70
     8
  9
$ATTDIA
 70
     0
  9
$ATTREQ
 70
     0
  9
$HANDLING
 70
     1
  9
$HANDSEED
  5
112
  9
$SURFTAB1
 70
    24
  9
$SURFTAB2
 70
    24
  9
$SURFTYPE
 70
     6
  9
$SURFU
 70
     6
  9
$SURFV
 70
     6
  9
$UCSNAME
  2

  9
$UCSORG
 10
0.0
 20
0.0
 30
0.0
  9
$UCSXDIR
 10
1.0
 20
0.0
 30
0.0
  9
$UCSYDIR
 10
0.0
 20
1.0
 30
0.0
  9
$PUCSNAME
  2

  9
$PUCSORG
 10
0.0
 20
0.0
 30
0.0
  9
$PUCSXDIR
 10
1.0
 20
0.0
 30
0.0
  9
$PUCSYDIR
 10
0.0
 20
1.0
 30
0.0
  9
$USERI1
 70
     0
  9
$USERI2
 70
     0
  9
$USERI3
 70
     0
  9
$USERI4
 70
     0
  9
$USERI5
 70
     0
  9
$USERR1
 40
0.0
  9
$USERR2
 40
0.0
  9
$USERR3
 40
0.0
  9
$USERR4
 40
0.0
  9
$USERR5
 40
0.0
  9
$WORLDVIEW
 70
     1
  9
$SHADEDGE
 70
     0
  9
$SHADEDIF
 70
    70
  9
$TILEMODE
 70
     1
  9
$MAXACTVP
 70
    16
  9
$PLIMCHECK
 70
     0
  9
$PEXTMIN
 10
-0.805942
 20
0.005011
 30
0.0
  9
$PEXTMAX
 10
20.250094
 20
11.356329
 30
0.0
  9
$PLIMMIN
 10
0.0
 20
0.0
  9
$PLIMMAX
 10
12.0
 20
9.0
  9
$UNITMODE
 70
     0
  9
$VISRETAIN
 70
     0
  9
$PLINEGEN
 70
     0
  9
$PSLTSCALE
 70
     0
  0
ENDSEC
  0
SECTION
  2
TABLES
  0
TABLE
  2
VPORT
 70
     2
  0
VPORT
  2
*ACTIVE
 70
     0
 10
0.0
 20
0.0
 11
1.0
 21
1.0
 12
46.396989
 22
318.958977
 13
0.0
 23
0.0
 14
1.0
 24
1.0
 15
50.0
 25
50.0
 16
0.0
 26
0.0
 36
1.0
 17
0.0
 27
0.0
 37
0.0
 40
832.040964
 41
1.903766
 42
50.0
 43
0.0
 44
0.0
 50
0.0
 51
0.0
 71
     0
 72
   100
 73
     1
 74
     1
 75
     0
 76
     0
 77
     0
 78
     0
  0
ENDTAB
  0
TABLE
  2
LTYPE
 70
     2
  0
LTYPE
  2
CONTINUOUS
 70
     0
  3
Solid Line
 72
    65
 73
     0
 40
0.0
  0
LTYPE
  2
22
 70
     0
  3

 72
    65
 73
     2
 40
1.4
 49
1.2
 49
-0.2
  0
ENDTAB
  0
TABLE
  2
LAYER
 70
     9
  0
LAYER
  2
0
 70
     0
 62
     7
  6
CONTINUOUS
  0
LAYER
  2
DEFPOINTS
 70
     0
 62
     7
  6
CONTINUOUS
  0
LAYER
  2
TEAM-BODY
 70
     0
 62
     2
  6
CONTINUOUS
  0
LAYER
  2
TEAM-MAS
 70
     0
 62
     9
  6
CONTINUOUS
  0
LAYER
  2
TEAM-TXT
 70
     0
 62
    11
  6
CONTINUOUS
  0
LAYER
  2
TEAM-HIDE
 70
     0
 62
     8
  6
22
  0
LAYER
  2
TEAM-KAN
 70
     0
 62
     6
  6
CONTINUOUS
  0
LAYER
  2
TEAM-DET3
 70
     0
 62
    14
  6
CONTINUOUS
  0
LAYER
  2
TEAM-INSP
 70
     0
 62
     5
  6
CONTINUOUS
  0
ENDTAB
  0
TABLE
  2
STYLE
 70
     2
  0
STYLE
  2
STANDARD
 70
     0
 40
0.0
 41
1.0
 50
0.0
 71
     0
 42
200.0
  3
txt
  4

  0
STYLE
  2
TEAM
 70
     0
 40
0.0
 41
0.8
 50
15.0
 71
     0
 42
7.0
  3
ROMANS.shx
  4

  0
ENDTAB
  0
TABLE
  2
VIEW
 70
     0
  0
ENDTAB
  0
TABLE
  2
UCS
 70
     0
  0
ENDTAB
  0
TABLE
  2
APPID
 70
     1
  0
APPID
  2
ACAD
 70
     0
  0
ENDTAB
  0
TABLE
  2
DIMSTYLE
 70
     1
  0
DIMSTYLE
  2
TEAM
 70
     0
  3

  4

  5

  6

  7

 40
0.0
 41
20.0
 42
10.0
 43
1.0
 44
1.0
 45
0.0
 46
0.0
 47
0.0
 48
0.0
140
35.0
141
1.0
142
0.0
143
25.4
144
1.0
145
0.0
146
1.0
147
7.0
 71
     0
 72
     0
 73
     0
 74
     0
 75
     0
 76
     0
 77
     0
 78
     0
170
     0
171
     2
172
     0
173
     0
174
     0
175
     0
176
     9
177
     9
178
    11
  0
ENDTAB
  0
ENDSEC
  0
SECTION
  2
BLOCKS
  0
BLOCK
  8
0
  2
$MODEL_SPACE
 70
     0
 10
0.0
 20
0.0
 30
0.0
  3
$MODEL_SPACE
  1

  0
ENDBLK
  5
10B
  8
0
  0
BLOCK
 67
     1
  8
0
  2
$PAPER_SPACE
 70
     0
 10
0.0
 20
0.0
 30
0.0
  3
$PAPER_SPACE
  1

  0
ENDBLK
  5
109
 67
     1
  8
0
  0
BLOCK
  8
0
  2
*D0
 70
     1
 10
0.0
 20
0.0
 30
0.0
  3
*D0
  1

  0
LINE
  5
28
  8
0
  6
BYBLOCK
 62
     9
 10
8746.5
 20
76590.0
 30
0.0
 11
8746.5
 21
76631.417952
 31
0.0
  0
LINE
  5
29
  8
0
  6
BYBLOCK
 62
     9
 10
7278.5
 20
76590.0
 30
0.0
 11
7278.5
 21
76631.417952
 31
0.0
  0
LINE
  5
2A
  8
0
  6
BYBLOCK
 62
     9
 10
8726.5
 20
76630.417952
 30
0.0
 11
8077.833333
 21
76630.417952
 31
0.0
  0
LINE
  5
2B
  8
0
  6
BYBLOCK
 62
     9
 10
7298.5
 20
76630.417952
 30
0.0
 11
7947.166667
 21
76630.417952
 31
0.0
  0
SOLID
  5
2C
  8
0
  6
BYBLOCK
 62
     9
 10
8726.5
 20
76633.751285
 30
0.0
 11
8726.5
 21
76627.084619
 31
0.0
 12
8746.5
 22
76630.417952
 32
0.0
 13
8746.5
 23
76630.417952
 33
0.0
  0
SOLID
  5
2D
  8
0
  6
BYBLOCK
 62
     9
 10
7298.5
 20
76633.751285
 30
0.0
 11
7298.5
 21
76627.084619
 31
0.0
 12
7278.5
 22
76630.417952
 32
0.0
 13
7278.5
 23
76630.417952
 33
0.0
  0
TEXT
  5
2E
  8
0
  6
BYBLOCK
 62
    11
 10
7954.166667
 20
76612.917952
 30
0.0
 40
35.0
  1
1468
  0
POINT
  5
2F
  8
DEFPOINTS
  6
BYBLOCK
 62
     0
 10
8746.5
 20
76580.0
 30
0.0
  0
POINT
  5
31
  8
DEFPOINTS
  6
BYBLOCK
 62
     0
 10
7278.5
 20
76580.0
 30
0.0
  0
POINT
  5
32
  8
DEFPOINTS
  6
BYBLOCK
 62
     0
 10
7278.5
 20
76630.417952
 30
0.0
  0
ENDBLK
  5
34
  8
0
  0
BLOCK
  8
0
  2
*D1
 70
     1
 10
0.0
 20
0.0
 30
0.0
  3
*D1
  1

  0
LINE
  5
86
  8
0
  6
BYBLOCK
 62
     9
 10
7564.5
 20
76110.005032
 30
0.0
 11
7564.5
 21
76077.851312
 31
0.0
  0
LINE
  5
87
  8
0
  6
BYBLOCK
 62
     9
 10
7616.5
 20
76110.005032
 30
0.0
 11
7616.5
 21
76077.851312
 31
0.0
  0
LINE
  5
88
  8
0
  6
BYBLOCK
 62
     9
 10
7544.5
 20
76078.851312
 30
0.0
 11
7524.5
 21
76078.851312
 31
0.0
  0
LINE
  5
89
  8
0
  6
BYBLOCK
 62
     9
 10
7636.5
 20
76078.851312
 30
0.0
 11
7656.5
 21
76078.851312
 31
0.0
  0
TEXT
  5
8A
  8
0
  6
BYBLOCK
 62
    11
 10
7433.691303
 20
76061.351312
 30
0.0
 40
35.0
  1
52
  0
LINE
  5
8B
  8
0
  6
BYBLOCK
 62
     9
 10
7564.5
 20
76078.851312
 30
0.0
 11
7616.5
 21
76078.851312
 31
0.0
  0
SOLID
  5
8C
  8
0
  6
BYBLOCK
 62
     9
 10
7544.5
 20
76082.184645
 30
0.0
 11
7544.5
 21
76075.517979
 31
0.0
 12
7564.5
 22
76078.851312
 32
0.0
 13
7564.5
 23
76078.851312
 33
0.0
  0
SOLID
  5
8D
  8
0
  6
BYBLOCK
 62
     9
 10
7636.5
 20
76082.184645
 30
0.0
 11
7636.5
 21
76075.517979
 31
0.0
 12
7616.5
 22
76078.851312
 32
0.0
 13
7616.5
 23
76078.851312
 33
0.0
  0
POINT
  5
8E
  8
DEFPOINTS
  6
BYBLOCK
 62
     0
 10
7564.5
 20
76120.005032
 30
0.0
  0
POINT
  5
8F
  8
DEFPOINTS
  6
BYBLOCK
 62
     0
 10
7616.5
 20
76120.005032
 30
0.0
  0
POINT
  5
90
  8
DEFPOINTS
  6
BYBLOCK
 62
     0
 10
7616.5
 20
76078.851312
 30
0.0
  0
ENDBLK
  5
92
  8
0
  0
BLOCK
  8
0
  2
*D2
 70
     1
 10
0.0
 20
0.0
 30
0.0
  3
*D2
  1

  0
LINE
  5
4F
  8
0
  6
BYBLOCK
 62
     9
 10
8746.5
 20
76600.0
 30
0.0
 11
8776.985248
 21
76600.0
 31
0.0
  0
LINE
  5
50
  8
0
  6
BYBLOCK
 62
     9
 10
7626.5
 20
76120.005032
 30
0.0
 11
8776.985248
 21
76120.005032
 31
0.0
  0
LINE
  5
51
  8
0
  6
BYBLOCK
 62
     9
 10
8775.985248
 20
76580.0
 30
0.0
 11
8775.985248
 21
76410.752516
 31
0.0
  0
LINE
  5
52
  8
0
  6
BYBLOCK
 62
     9
 10
8775.985248
 20
76140.005032
 30
0.0
 11
8775.985248
 21
76309.252516
 31
0.0
  0
SOLID
  5
53
  8
0
  6
BYBLOCK
 62
     9
 10
8772.651914
 20
76580.0
 30
0.0
 11
8779.318581
 21
76580.0
 31
0.0
 12
8775.985248
 22
76600.0
 32
0.0
 13
8775.985248
 23
76600.0
 33
0.0
  0
SOLID
  5
54
  8
0
  6
BYBLOCK
 62
     9
 10
8772.651914
 20
76140.005032
 30
0.0
 11
8779.318581
 21
76140.005032
 31
0.0
 12
8775.985248
 22
76120.005032
 32
0.0
 13
8775.985248
 23
76120.005032
 33
0.0
  0
TEXT
  5
55
  8
0
  6
BYBLOCK
 62
    11
 10
8793.485248
 20
76316.252516
 30
0.0
 40
35.0
  1
480
 50
90.0
  0
POINT
  5
56
  8
DEFPOINTS
  6
BYBLOCK
 62
     0
 10
8736.5
 20
76600.0
 30
0.0
  0
POINT
  5
57
  8
DEFPOINTS
  6
BYBLOCK
 62
     0
 10
7616.5
 20
76120.005032
 30
0.0
  0
POINT
  5
58
  8
DEFPOINTS
  6
BYBLOCK
 62
     0
 10
8775.985248
 20
76120.005032
 30
0.0
  0
ENDBLK
  5
5A
  8
0
  0
BLOCK
  8
0
  2
*D3
 70
     1
 10
0.0
 20
0.0
 30
0.0
  3
*D3
  1

  0
LINE
  5
41
  8
0
  6
BYBLOCK
 62
     9
 10
8746.5
 20
76600.0
 30
0.0
 11
8819.254711
 21
76600.0
 31
0.0
  0
LINE
  5
42
  8
0
  6
BYBLOCK
 62
     9
 10
8010.0
 20
76000.0
 30
0.0
 11
8819.254711
 21
76000.0
 31
0.0
  0
LINE
  5
43
  8
0
  6
BYBLOCK
 62
     9
 10
8818.254711
 20
76580.0
 30
0.0
 11
8818.254711
 21
76401.833333
 31
0.0
  0
LINE
  5
44
  8
0
  6
BYBLOCK
 62
     9
 10
8818.254711
 20
76020.0
 30
0.0
 11
8818.254711
 21
76306.166667
 31
0.0
  0
TEXT
  5
45
  8
0
  6
BYBLOCK
 62
    11
 10
8835.754711
 20
76313.166667
 30
0.0
 40
35.0
  1
600
 50
90.0
  0
SOLID
  5
46
  8
0
  6
BYBLOCK
 62
     9
 10
8814.921378
 20
76580.0
 30
0.0
 11
8821.588045
 21
76580.0
 31
0.0
 12
8818.254711
 22
76600.0
 32
0.0
 13
8818.254711
 23
76600.0
 33
0.0
  0
SOLID
  5
47
  8
0
  6
BYBLOCK
 62
     9
 10
8814.921378
 20
76020.0
 30
0.0
 11
8821.588045
 21
76020.0
 31
0.0
 12
8818.254711
 22
76000.0
 32
0.0
 13
8818.254711
 23
76000.0
 33
0.0
  0
POINT
  5
48
  8
DEFPOINTS
  6
BYBLOCK
 62
     0
 10
8736.5
 20
76600.0
 30
0.0
  0
POINT
  5
49
  8
DEFPOINTS
  6
BYBLOCK
 62
     0
 10
8000.0
 20
76000.0
 30
0.0
  0
POINT
  5
4A
  8
DEFPOINTS
  6
BYBLOCK
 62
     0
 10
8818.254711
 20
76000.0
 30
0.0
  0
ENDBLK
  5
4C
  8
0
  0
ENDSEC
  0
SECTION
  2
ENTITIES
  0
LINE
  5
20
  8
TEAM-DET3
 10
-680.633531
 20
50.0
 30
0.0
 11
-696.197281
 21
50.543498
 31
0.0
  0
LINE
  5
22
  8
TEAM-BODY
 10
736.5
 20
600.0
 30
0.0
 11
-711.5
 21
600.0
 31
0.0
  0
LINE
  5
24
  8
TEAM-BODY
 10
746.5
 20
570.0
 30
0.0
 11
-721.5
 21
570.0
 31
0.0
  0
LINE
  5
25
  8
TEAM-BODY
 10
-719.720635
 20
570.0
 30
0.0
 11
744.720635
 21
570.0
 31
0.0
  0
DIMENSION
  5
26
  8
TEAM-MAS
  2
*D0
 10
-721.5
 20
630.417952
 30
0.0
 11
12.5
 21
630.417952
 31
0.0
 12
-8000.0
 22
-76000.0
 32
0.0
 13
746.5
 23
580.0
 33
0.0
 14
-721.5
 24
580.0
 34
0.0
1001
ACAD
1000
DSTYLE
1002
{
1070
    40
1040
1.0
1002
}
  0
ARC
  5
35
  8
TEAM-BODY
 10
-873.738995
 20
-20.544445
 30
0.0
 40
615.544444
 50
69.200419
 51
73.614531
  0
ARC
  5
36
  8
TEAM-DET3
 10
426.179685
 20
407.57127
 30
0.0
 40
1165.987567
 50
172.462296
 51
189.725249
  0
ARC
  5
37
  8
TEAM-DET3
 10
-1437.464258
 20
52.692865
 30
0.0
 40
731.657504
 50
0.60833
 51
12.46437
  0
ARC
  5
38
  8
TEAM-DET3
 10
-695.848286
 20
60.537406
 30
0.0
 40
10.0
 50
180.437788
 51
268.0
  0
ARC
  5
39
  8
TEAM-BODY
 10
-711.5
 20
590.0
 30
0.0
 40
10.0
 50
90.0
 51
180.0
  0
LINE
  5
3A
  8
TEAM-BODY
 10
-721.5
 20
570.0
 30
0.0
 11
-721.5
 21
590.0
 31
0.0
  0
ARC
  5
3B
  8
TEAM-DET3
 10
-719.720635
 20
560.0
 30
0.0
 40
10.0
 50
90.0
 51
172.91324
  0
ARC
  5
3C
  8
TEAM-BODY
 10
969.038031
 20
119.027582
 30
0.0
 40
663.595609
 50
151.371873
 51
170.075967
  0
ARC
  5
3D
  8
TEAM-BODY
 10
-1096.93767
 20
224.799893
 30
0.0
 40
611.14242
 50
1.01027
 51
20.314433
  0
LINE
  5
3E
  8
TEAM-DET3
 10
-200.499824
 20
570.0
 30
0.0
 11
-200.499824
 21
0.0
 31
0.0
  0
DIMENSION
  5
3F
  8
TEAM-MAS
  2
*D3
 10
818.254711
 20
0.0
 30
0.0
 11
818.254711
 21
354.0
 31
0.0
 12
-8000.0
 22
-76000.0
 32
0.0
 70
   128
 13
736.5
 23
600.0
 33
0.0
 14
0.0
 24
0.0
 34
0.0
 50
90.0
1001
ACAD
1000
DSTYLE
1002
{
1070
    40
1040
1.0
1002
}
  0
DIMENSION
  5
4D
  8
TEAM-MAS
  2
*D2
 10
775.985248
 20
120.005032
 30
0.0
 11
775.985248
 21
360.002516
 31
0.0
 12
-8000.0
 22
-76000.0
 32
0.0
 13
736.5
 23
600.0
 33
0.0
 14
-383.5
 24
120.005032
 34
0.0
 50
90.0
1001
ACAD
1000
DSTYLE
1002
{
1070
    40
1040
1.0
1002
}
  0
LINE
  5
5B
  8
TEAM-DET3
 10
-309.506218
 20
120.728401
 30
0.0
 11
147.145707
 21
127.613291
 31
0.0
  0
LINE
  5
5C
  8
TEAM-HIDE
 10
-670.808028
 20
0.0
 30
0.0
 11
746.5
 21
0.0
 31
0.0
  0
LINE
  5
5F
  8
TEAM-BODY
 10
-357.963318
 20
138.797799
 30
0.0
 11
209.924899
 21
147.827048
 31
0.0
  0
ARC
  5
60
  8
TEAM-BODY
 10
-139.052358
 20
243.642973
 30
0.0
 40
346.93171
 50
181.332492
 51
192.808312
  0
LINE
  5
61
  8
TEAM-BODY
 10
-461.036682
 20
138.797799
 30
0.0
 11
-477.351437
 21
166.731697
 31
0.0
  0
LINE
  5
62
  8
TEAM-HIDE
 10
-290.505721
 20
15.0
 30
0.0
 11
-285.005721
 21
10.0
 31
0.0
  0
LINE
  5
63
  8
TEAM-HIDE
 10
-285.005721
 20
10.0
 30
0.0
 11
-285.005721
 21
0.0
 31
0.0
  0
LINE
  5
64
  8
TEAM-HIDE
 10
-315.505721
 20
15.0
 30
0.0
 11
-321.005721
 21
10.0
 31
0.0
  0
LINE
  5
65
  8
TEAM-HIDE
 10
-321.005721
 20
10.0
 30
0.0
 11
-321.005721
 21
0.0
 31
0.0
  0
LINE
  5
66
  8
TEAM-HIDE
 10
-285.005721
 20
10.0
 30
0.0
 11
-321.005721
 21
10.0
 31
0.0
  0
LINE
  5
67
  8
TEAM-HIDE
 10
-321.005721
 20
0.0
 30
0.0
 11
-285.005721
 21
0.0
 31
0.0
  0
LINE
  5
68
  8
TEAM-HIDE
 10
-292.267032
 20
113.65
 30
0.0
 11
-313.74441
 21
113.65
 31
0.0
  0
LINE
  5
69
  8
TEAM-HIDE
 10
-292.267032
 20
109.65
 30
0.0
 11
-313.74441
 21
109.65
 31
0.0
  0
LINE
  5
6A
  8
TEAM-HIDE
 10
-292.035744
 20
127.65
 30
0.0
 11
-313.975698
 21
127.65
 31
0.0
  0
LINE
  5
6B
  8
TEAM-HIDE
 10
-292.035744
 20
137.65
 30
0.0
 11
-313.975698
 21
137.65
 31
0.0
  0
LINE
  5
6C
  8
TEAM-HIDE
 10
-303.005721
 20
130.648559
 30
0.0
 11
-303.005721
 21
-3.74943
 31
0.0
  0
LINE
  5
6D
  8
TEAM-HIDE
 10
-312.505721
 20
95.65
 30
0.0
 11
-315.505721
 21
86.65
 31
0.0
  0
LINE
  5
6E
  8
TEAM-HIDE
 10
-315.505721
 20
15.0
 30
0.0
 11
-315.505721
 21
86.65
 31
0.0
  0
LINE
  5
6F
  8
TEAM-HIDE
 10
-312.505721
 20
109.65
 30
0.0
 11
-312.505721
 21
95.65
 31
0.0
  0
LINE
  5
70
  8
TEAM-HIDE
 10
-313.244426
 20
109.65
 30
0.0
 11
-312.505721
 21
109.65
 31
0.0
  0
LINE
  5
71
  8
TEAM-HIDE
 10
-313.74441
 20
109.65
 30
0.0
 11
-313.74441
 21
113.54097
 31
0.0
  0
LINE
  5
72
  8
TEAM-HIDE
 10
-309.005721
 20
113.65
 30
0.0
 11
-309.005721
 21
127.65
 31
0.0
  0
LINE
  5
73
  8
TEAM-HIDE
 10
-313.975698
 20
127.65
 30
0.0
 11
-313.975698
 21
137.65
 31
0.0
  0
LINE
  5
74
  8
TEAM-HIDE
 10
-290.505721
 20
86.65
 30
0.0
 11
-293.505721
 21
95.65
 31
0.0
  0
LINE
  5
75
  8
TEAM-HIDE
 10
-290.505721
 20
86.65
 30
0.0
 11
-290.505721
 21
15.0
 31
0.0
  0
LINE
  5
76
  8
TEAM-HIDE
 10
-293.505721
 20
109.65
 30
0.0
 11
-293.505721
 21
95.65
 31
0.0
  0
LINE
  5
77
  8
TEAM-HIDE
 10
-293.505721
 20
109.65
 30
0.0
 11
-292.767016
 21
109.65
 31
0.0
  0
LINE
  5
78
  8
TEAM-HIDE
 10
-292.267032
 20
109.65
 30
0.0
 11
-292.267032
 21
113.54097
 31
0.0
  0
LINE
  5
79
  8
TEAM-HIDE
 10
-297.005721
 20
113.65
 30
0.0
 11
-297.005721
 21
127.65
 31
0.0
  0
LINE
  5
7A
  8
TEAM-HIDE
 10
-292.035744
 20
127.65
 30
0.0
 11
-292.035744
 21
137.65
 31
0.0
  0
LINE
  5
7B
  8
TEAM-DET3
 10
-328.150336
 20
139.372519
 30
0.0
 11
-309.506218
 21
120.728401
 31
0.0
  0
ARC
  5
7C
  8
TEAM-BODY
 10
-357.866949
 20
133.798728
 30
0.0
 40
5.0
 50
91.104383
 51
120.0
  0
ARC
  5
7D
  8
TEAM-BODY
 10
-461.133051
 20
133.798728
 30
0.0
 40
5.0
 50
60.0
 51
88.895617
  0
LINE
  5
7E
  8
TEAM-BODY
 10
-380.5
 20
126.505032
 30
0.0
 11
-360.366949
 21
138.128855
 31
0.0
  0
LINE
  5
7F
  8
TEAM-KAN
 10
-383.5
 20
126.505032
 30
0.0
 11
-383.5
 21
122.505032
 31
0.0
  0
LINE
  5
81
  8
TEAM-KAN
 10
-383.5
 20
122.505032
 30
0.0
 11
-383.5
 21
120.005032
 31
0.0
  0
LINE
  5
82
  8
TEAM-KAN
 10
-383.5
 20
120.005032
 30
0.0
 11
-435.5
 21
120.005032
 31
0.0
  0
LINE
  5
83
  8
TEAM-KAN
 10
-435.5
 20
126.505032
 30
0.0
 11
-383.5
 21
126.505032
 31
0.0
  0
DIMENSION
  5
84
  8
TEAM-MAS
  2
*D1
 10
-383.5
 20
78.851312
 30
0.0
 11
-537.14203
 21
78.851312
 31
0.0
 12
-8000.0
 22
-76000.0
 32
0.0
 70
   128
 13
-435.5
 23
120.005032
 33
0.0
 14
-383.5
 24
120.005032
 34
0.0
1001
ACAD
1000
DSTYLE
1002
{
1070
    78
1070
     0
1070
    40
1040
1.0
1002
}
  0
LINE
  5
93
  8
TEAM-KAN
 10
-435.5
 20
122.505032
 30
0.0
 11
-435.5
 21
126.505032
 31
0.0
  0
LINE
  5
94
  8
TEAM-KAN
 10
-435.5
 20
120.005032
 30
0.0
 11
-435.5
 21
122.505032
 31
0.0
  0
LINE
  5
95
  8
TEAM-BODY
 10
-438.5
 20
126.505032
 30
0.0
 11
-458.633051
 21
138.128855
 31
0.0
  0
LINE
  5
96
  8
TEAM-BODY
 10
-380.5
 20
126.505032
 30
0.0
 11
-438.5
 21
126.505032
 31
0.0
  0
LINE
  5
97
  8
TEAM-HIDE
 10
-67.470765
 20
127.65
 30
0.0
 11
-67.470765
 21
137.65
 31
0.0
  0
LINE
  5
98
  8
TEAM-HIDE
 10
-45.530811
 20
127.65
 30
0.0
 11
-45.530811
 21
137.65
 31
0.0
  0
LINE
  5
99
  8
TEAM-HIDE
 10
-45.530811
 20
137.65
 30
0.0
 11
-67.470765
 21
137.65
 31
0.0
  0
LINE
  5
9A
  8
TEAM-HIDE
 10
-45.530811
 20
127.65
 30
0.0
 11
-67.470765
 21
127.65
 31
0.0
  0
LINE
  5
9B
  8
TEAM-HIDE
 10
-62.500788
 20
113.65
 30
0.0
 11
-62.500788
 21
127.65
 31
0.0
  0
LINE
  5
9C
  8
TEAM-HIDE
 10
-50.500788
 20
113.65
 30
0.0
 11
-50.500788
 21
127.65
 31
0.0
  0
LINE
  5
9D
  8
TEAM-HIDE
 10
-45.762099
 20
109.65
 30
0.0
 11
-45.762099
 21
113.54097
 31
0.0
  0
LINE
  5
9E
  8
TEAM-HIDE
 10
-67.239477
 20
109.65
 30
0.0
 11
-67.239477
 21
113.54097
 31
0.0
  0
LINE
  5
9F
  8
TEAM-HIDE
 10
-66.739493
 20
109.65
 30
0.0
 11
-66.000788
 21
109.65
 31
0.0
  0
LINE
  5
A0
  8
TEAM-HIDE
 10
-45.762099
 20
109.65
 30
0.0
 11
-67.239477
 21
109.65
 31
0.0
  0
LINE
  5
A1
  8
TEAM-HIDE
 10
-47.000788
 20
109.65
 30
0.0
 11
-46.262083
 21
109.65
 31
0.0
  0
LINE
  5
A2
  8
TEAM-HIDE
 10
-66.000788
 20
109.65
 30
0.0
 11
-66.000788
 21
95.65
 31
0.0
  0
LINE
  5
A3
  8
TEAM-HIDE
 10
-47.000788
 20
109.65
 30
0.0
 11
-47.000788
 21
95.65
 31
0.0
  0
LINE
  5
A4
  8
TEAM-HIDE
 10
-69.000788
 20
15.0
 30
0.0
 11
-69.000788
 21
86.65
 31
0.0
  0
LINE
  5
A5
  8
TEAM-HIDE
 10
-44.000788
 20
86.65
 30
0.0
 11
-44.000788
 21
15.0
 31
0.0
  0
LINE
  5
A6
  8
TEAM-HIDE
 10
-66.000788
 20
95.65
 30
0.0
 11
-69.000788
 21
86.65
 31
0.0
  0
LINE
  5
A7
  8
TEAM-HIDE
 10
-44.000788
 20
86.65
 30
0.0
 11
-47.000788
 21
95.65
 31
0.0
  0
LINE
  5
A8
  8
TEAM-HIDE
 10
-56.500788
 20
130.648559
 30
0.0
 11
-56.500788
 21
-3.74943
 31
0.0
  0
LINE
  5
A9
  8
TEAM-HIDE
 10
-45.762099
 20
113.65
 30
0.0
 11
-67.239477
 21
113.65
 31
0.0
  0
LINE
  5
AA
  8
TEAM-HIDE
 10
-74.500788
 20
0.0
 30
0.0
 11
-38.500788
 21
0.0
 31
0.0
  0
LINE
  5
AB
  8
TEAM-HIDE
 10
-74.500788
 20
10.0
 30
0.0
 11
-74.500788
 21
0.0
 31
0.0
  0
LINE
  5
AC
  8
TEAM-HIDE
 10
-38.500788
 20
10.0
 30
0.0
 11
-38.500788
 21
0.0
 31
0.0
  0
LINE
  5
AD
  8
TEAM-HIDE
 10
-69.000788
 20
15.0
 30
0.0
 11
-74.500788
 21
10.0
 31
0.0
  0
LINE
  5
AE
  8
TEAM-HIDE
 10
-44.000788
 20
15.0
 30
0.0
 11
-38.500788
 21
10.0
 31
0.0
  0
LINE
  5
AF
  8
TEAM-HIDE
 10
-38.500788
 20
10.0
 30
0.0
 11
-74.500788
 21
10.0
 31
0.0
  0
CIRCLE
  5
B0
  8
TEAM-INSP
 10
0.0
 20
0.0
 30
0.0
 40
10.0
  0
LINE
  5
B2
  8
TEAM-DET3
 10
-680.633531
 20
50.0
 30
0.0
 11
-200.499824
 21
50.0
 31
0.0
  0
LINE
  5
B3
  8
TEAM-DET3
 10
-675.808028
 20
5.0
 30
0.0
 11
-675.808028
 21
45.003046
 31
0.0
  0
ARC
  5
B4
  8
TEAM-DET3
 10
-680.808028
 20
45.003046
 30
0.0
 40
5.0
 50
0.0
 51
88.0
  0
LINE
  5
B5
  8
TEAM-HIDE
 10
211.359727
 20
10.0
 30
0.0
 11
247.359727
 21
10.0
 31
0.0
  0
LINE
  5
B6
  8
TEAM-HIDE
 10
216.859727
 20
15.0
 30
0.0
 11
211.359727
 21
10.0
 31
0.0
  0
LINE
  5
B7
  8
TEAM-HIDE
 10
241.859727
 20
15.0
 30
0.0
 11
247.359727
 21
10.0
 31
0.0
  0
LINE
  5
B8
  8
TEAM-HIDE
 10
211.359727
 20
10.0
 30
0.0
 11
211.359727
 21
0.0
 31
0.0
  0
LINE
  5
B9
  8
TEAM-HIDE
 10
247.359727
 20
10.0
 30
0.0
 11
247.359727
 21
0.0
 31
0.0
  0
LINE
  5
BA
  8
TEAM-HIDE
 10
247.359727
 20
0.0
 30
0.0
 11
211.359727
 21
0.0
 31
0.0
  0
ARC
  5
BB
  8
TEAM-BODY
 10
212.015278
 20
252.974708
 30
0.0
 40
105.168436
 50
268.861086
 51
349.271745
  0
LINE
  5
BC
  8
TEAM-HIDE
 10
218.621038
 20
113.65
 30
0.0
 11
240.098416
 21
113.65
 31
0.0
  0
LINE
  5
BD
  8
TEAM-HIDE
 10
229.359727
 20
140.648559
 30
0.0
 11
229.359727
 21
-3.74943
 31
0.0
  0
LINE
  5
BE
  8
TEAM-HIDE
 10
216.859727
 20
86.65
 30
0.0
 11
219.859727
 21
95.65
 31
0.0
  0
LINE
  5
BF
  8
TEAM-HIDE
 10
238.859727
 20
95.65
 30
0.0
 11
241.859727
 21
86.65
 31
0.0
  0
LINE
  5
C0
  8
TEAM-HIDE
 10
216.859727
 20
86.65
 30
0.0
 11
216.859727
 21
15.0
 31
0.0
  0
LINE
  5
C1
  8
TEAM-HIDE
 10
241.859727
 20
15.0
 30
0.0
 11
241.859727
 21
86.65
 31
0.0
  0
LINE
  5
C2
  8
TEAM-HIDE
 10
219.859727
 20
109.65
 30
0.0
 11
219.859727
 21
95.65
 31
0.0
  0
LINE
  5
C3
  8
TEAM-HIDE
 10
238.859727
 20
109.65
 30
0.0
 11
238.859727
 21
95.65
 31
0.0
  0
LINE
  5
C4
  8
TEAM-HIDE
 10
219.859727
 20
109.65
 30
0.0
 11
219.121022
 21
109.65
 31
0.0
  0
LINE
  5
C5
  8
TEAM-HIDE
 10
218.621038
 20
109.65
 30
0.0
 11
240.098416
 21
109.65
 31
0.0
  0
LINE
  5
C6
  8
TEAM-HIDE
 10
239.598432
 20
109.65
 30
0.0
 11
238.859727
 21
109.65
 31
0.0
  0
LINE
  5
C7
  8
TEAM-HIDE
 10
240.098416
 20
109.65
 30
0.0
 11
240.098416
 21
113.54097
 31
0.0
  0
LINE
  5
C8
  8
TEAM-HIDE
 10
218.621038
 20
109.65
 30
0.0
 11
218.621038
 21
113.54097
 31
0.0
  0
LINE
  5
C9
  8
TEAM-HIDE
 10
223.359727
 20
113.65
 30
0.0
 11
223.359727
 21
127.65
 31
0.0
  0
LINE
  5
CA
  8
TEAM-HIDE
 10
235.359727
 20
113.65
 30
0.0
 11
235.359727
 21
127.65
 31
0.0
  0
LINE
  5
CB
  8
TEAM-HIDE
 10
218.38975
 20
127.65
 30
0.0
 11
240.329704
 21
127.65
 31
0.0
  0
LINE
  5
CC
  8
TEAM-HIDE
 10
218.38975
 20
137.65
 30
0.0
 11
240.329704
 21
137.65
 31
0.0
  0
LINE
  5
CD
  8
TEAM-HIDE
 10
218.38975
 20
127.65
 30
0.0
 11
218.38975
 21
137.65
 31
0.0
  0
LINE
  5
CE
  8
TEAM-HIDE
 10
240.329704
 20
127.65
 30
0.0
 11
240.329704
 21
137.65
 31
0.0
  0
LINE
  5
CF
  8
TEAM-DET3
 10
147.145707
 20
127.613291
 30
0.0
 11
166.522779
 21
146.990363
 31
0.0
  0
TEXT
  5
D0
  8
TEAM-TXT
 10
27.812622
 20
515.75601
 30
0.0
 40
30.0
  1
team 121144
 41
0.8
 51
15.0
  7
TEAM
  0
ARC
  5
D3
  8
TEAM-BODY
 10
-742.158614
 20
325.850978
 30
0.0
 40
245.0
 50
26.971847
 51
69.200419
  0
ARC
  5
D4
  8
TEAM-BODY
 10
736.5
 20
-20.544445
 30
0.0
 40
615.544444
 50
106.385469
 51
110.703815
  0
ARC
  5
D5
  8
TEAM-BODY
 10
604.919163
 20
325.852195
 30
0.0
 40
245.0
 50
110.558975
 51
153.028153
  0
LINE
  5
D6
  8
TEAM-BODY
 10
746.5
 20
570.0
 30
0.0
 11
746.5
 21
590.0
 31
0.0
  0
ARC
  5
D7
  8
TEAM-BODY
 10
736.5
 20
590.0
 30
0.0
 40
10.0
 50
0.0
 51
90.0
  0
ENDSEC
  0
EOF
