  0
SECTION
  2
HEADER
  9
$ACADVER
  1
AC1009
  9
$INSBASE
 10
0.0
 20
0.0
 30
0.0
  9
$EXTMIN
 10
-986.822225
 20
-464.995751
 30
0.0
  9
$EXTMAX
 10
1046.862169
 20
626.660648
 30
0.0
  9
$LIMMIN
 10
-986.822225
 20
-464.995751
  9
$LIMMAX
 10
1046.862169
 20
626.660648
  9
$ORTHOMODE
 70
     1
  9
$REGENMODE
 70
     1
  9
$FILLMODE
 70
     1
  9
$QTEXTMODE
 70
     0
  9
$MIRRTEXT
 70
     0
  9
$DRAGMODE
 70
     2
  9
$LTSCALE
 40
25.0
  9
$OSMODE
 70
     0
  9
$ATTMODE
 70
     1
  9
$TEXTSIZE
 40
200.0
  9
$TRACEWID
 40
1.0
  9
$TEXTSTYLE
  7
STANDARD
  9
$CLAYER
  8
TEAM-MAS
  9
$CELTYPE
  6
BYLAYER
  9
$CECOLOR
 62
   256
  9
$DIMSCALE
 40
0.0
  9
$DIMASZ
 40
20.0
  9
$DIMEXO
 40
10.0
  9
$DIMDLI
 40
1.0
  9
$DIMRND
 40
0.0
  9
$DIMDLE
 40
0.0
  9
$DIMEXE
 40
1.0
  9
$DIMTP
 40
0.0
  9
$DIMTM
 40
0.0
  9
$DIMTXT
 40
35.0
  9
$DIMCEN
 40
1.0
  9
$DIMTSZ
 40
0.0
  9
$DIMTOL
 70
     0
  9
$DIMLIM
 70
     0
  9
$DIMTIH
 70
     0
  9
$DIMTOH
 70
     0
  9
$DIMSE1
 70
     0
  9
$DIMSE2
 70
     0
  9
$DIMTAD
 70
     0
  9
$DIMZIN
 70
     0
  9
$DIMBLK
  1

  9
$DIMASO
 70
     1
  9
$DIMSHO
 70
     0
  9
$DIMPOST
  1

  9
$DIMAPOST
  1

  9
$DIMALT
 70
     0
  9
$DIMALTD
 70
     2
  9
$DIMALTF
 40
25.4
  9
$DIMLFAC
 40
1.0
  9
$DIMTOFL
 70
     0
  9
$DIMTVP
 40
0.0
  9
$DIMTIX
 70
     0
  9
$DIMSOXD
 70
     0
  9
$DIMSAH
 70
     0
  9
$DIMBLK1
  1

  9
$DIMBLK2
  1

  9
$DIMSTYLE
  2
TEAM
  9
$DIMCLRD
 70
     9
  9
$DIMCLRE
 70
     9
  9
$DIMCLRT
 70
    11
  9
$DIMTFAC
 40
1.0
  9
$DIMGAP
 40
15.0
  9
$LUNITS
 70
     2
  9
$LUPREC
 70
     1
  9
$SKETCHINC
 40
1.0
  9
$FILLETRAD
 40
50.0
  9
$AUNITS
 70
     0
  9
$AUPREC
 70
     0
  9
$MENU
  1
ROPLANS
  9
$ELEVATION
 40
0.0
  9
$PELEVATION
 40
0.0
  9
$THICKNESS
 40
0.0
  9
$LIMCHECK
 70
     0
  9
$BLIPMODE
 70
     1
  9
$CHAMFERA
 40
0.0
  9
$CHAMFERB
 40
0.0
  9
$SKPOLY
 70
     0
  9
$TDCREATE
 40
2450392.957851
  9
$TDUPDATE
 40
2455493.945579
  9
$TDINDWG
 40
1.992456
  9
$TDUSRTIMER
 40
1.992456
  9
$USRTIMER
 70
     1
  9
$ANGBASE
 50
0.0
  9
$ANGDIR
 70
     0
  9
$PDMODE
 70
     0
  9
$PDSIZE
 40
0.0
  9
$PLINEWID
 40
0.0
  9
$COORDS
 70
     2
  9
$SPLFRAME
 70
     0
  9
$SPLINETYPE
 70
     6
  9
$SPLINESEGS
 70
     8
  9
$ATTDIA
 70
     0
  9
$ATTREQ
 70
     0
  9
$HANDLING
 70
     1
  9
$HANDSEED
  5
4A7
  9
$SURFTAB1
 70
    24
  9
$SURFTAB2
 70
    24
  9
$SURFTYPE
 70
     6
  9
$SURFU
 70
     6
  9
$SURFV
 70
     6
  9
$UCSNAME
  2

  9
$UCSORG
 10
0.0
 20
0.0
 30
0.0
  9
$UCSXDIR
 10
1.0
 20
0.0
 30
0.0
  9
$UCSYDIR
 10
0.0
 20
1.0
 30
0.0
  9
$PUCSNAME
  2

  9
$PUCSORG
 10
0.0
 20
0.0
 30
0.0
  9
$PUCSXDIR
 10
1.0
 20
0.0
 30
0.0
  9
$PUCSYDIR
 10
0.0
 20
1.0
 30
0.0
  9
$USERI1
 70
     0
  9
$USERI2
 70
     0
  9
$USERI3
 70
     0
  9
$USERI4
 70
     0
  9
$USERI5
 70
     0
  9
$USERR1
 40
0.0
  9
$USERR2
 40
0.0
  9
$USERR3
 40
0.0
  9
$USERR4
 40
0.0
  9
$USERR5
 40
0.0
  9
$WORLDVIEW
 70
     1
  9
$SHADEDGE
 70
     0
  9
$SHADEDIF
 70
    70
  9
$TILEMODE
 70
     1
  9
$MAXACTVP
 70
    16
  9
$PLIMCHECK
 70
     0
  9
$PEXTMIN
 10
-0.805942
 20
0.005011
 30
0.0
  9
$PEXTMAX
 10
20.250094
 20
11.356329
 30
0.0
  9
$PLIMMIN
 10
0.0
 20
0.0
  9
$PLIMMAX
 10
12.0
 20
9.0
  9
$UNITMODE
 70
     0
  9
$VISRETAIN
 70
     0
  9
$PLINEGEN
 70
     0
  9
$PSLTSCALE
 70
     0
  0
ENDSEC
  0
SECTION
  2
TABLES
  0
TABLE
  2
VPORT
 70
     2
  0
VPORT
  2
*ACTIVE
 70
     0
 10
0.0
 20
0.0
 11
1.0
 21
1.0
 12
30.019972
 22
80.832449
 13
0.0
 23
0.0
 14
1.0
 24
1.0
 15
50.0
 25
50.0
 16
0.0
 26
0.0
 36
1.0
 17
0.0
 27
0.0
 37
0.0
 40
1098.360533
 41
1.865779
 42
50.0
 43
0.0
 44
0.0
 50
0.0
 51
0.0
 71
     0
 72
   100
 73
     1
 74
     1
 75
     0
 76
     0
 77
     0
 78
     0
  0
ENDTAB
  0
TABLE
  2
LTYPE
 70
     2
  0
LTYPE
  2
CONTINUOUS
 70
     0
  3
Solid Line
 72
    65
 73
     0
 40
0.0
  0
LTYPE
  2
31
 70
     0
  3

 72
    65
 73
     4
 40
2.1
 49
1.5
 49
-0.3
 49
0.0
 49
-0.3
  0
ENDTAB
  0
TABLE
  2
LAYER
 70
     9
  0
LAYER
  2
0
 70
     0
 62
     7
  6
CONTINUOUS
  0
LAYER
  2
DEFPOINTS
 70
     0
 62
     7
  6
CONTINUOUS
  0
LAYER
  2
TEAM-BODY
 70
     0
 62
     2
  6
CONTINUOUS
  0
LAYER
  2
TEAM-AXE
 70
     0
 62
    10
  6
31
  0
LAYER
  2
TEAM-MAS
 70
     0
 62
     9
  6
CONTINUOUS
  0
LAYER
  2
TEAM-TXT
 70
     0
 62
    11
  6
CONTINUOUS
  0
LAYER
  2
TEAM-DET1
 70
     0
 62
     4
  6
CONTINUOUS
  0
LAYER
  2
TEAM-KAN
 70
     0
 62
     6
  6
CONTINUOUS
  0
LAYER
  2
TEAM-INSP
 70
     0
 62
     5
  6
CONTINUOUS
  0
ENDTAB
  0
TABLE
  2
STYLE
 70
     2
  0
STYLE
  2
STANDARD
 70
     0
 40
0.0
 41
1.0
 50
0.0
 71
     0
 42
200.0
  3
txt
  4

  0
STYLE
  2
TEAM
 70
     0
 40
0.0
 41
0.8
 50
15.0
 71
     0
 42
7.0
  3
ROMANS.shx
  4

  0
ENDTAB
  0
TABLE
  2
VIEW
 70
     0
  0
ENDTAB
  0
TABLE
  2
UCS
 70
     0
  0
ENDTAB
  0
TABLE
  2
APPID
 70
     1
  0
APPID
  2
ACAD
 70
     0
  0
ENDTAB
  0
TABLE
  2
DIMSTYLE
 70
     1
  0
DIMSTYLE
  2
TEAM
 70
     0
  3

  4

  5

  6

  7

 40
0.0
 41
20.0
 42
10.0
 43
1.0
 44
1.0
 45
0.0
 46
0.0
 47
0.0
 48
0.0
140
35.0
141
1.0
142
0.0
143
25.4
144
1.0
145
0.0
146
1.0
147
15.0
 71
     0
 72
     0
 73
     0
 74
     0
 75
     0
 76
     0
 77
     0
 78
     0
170
     0
171
     2
172
     0
173
     0
174
     0
175
     0
176
     9
177
     9
178
    11
  0
ENDTAB
  0
ENDSEC
  0
SECTION
  2
BLOCKS
  0
BLOCK
  8
0
  2
$MODEL_SPACE
 70
     0
 10
0.0
 20
0.0
 30
0.0
  3
$MODEL_SPACE
  1

  0
ENDBLK
  5
41D
  8
0
  0
BLOCK
 67
     1
  8
0
  2
$PAPER_SPACE
 70
     0
 10
0.0
 20
0.0
 30
0.0
  3
$PAPER_SPACE
  1

  0
ENDBLK
  5
41B
 67
     1
  8
0
  0
BLOCK
  8
0
  2
*D0
 70
     1
 10
0.0
 20
0.0
 30
0.0
  3
*D0
  1

  0
LINE
  5
2C
  8
0
  6
BYBLOCK
 62
     9
 10
4950.0
 20
10.0
 30
0.0
 11
4950.0
 21
611.800293
 31
0.0
  0
LINE
  5
2D
  8
0
  6
BYBLOCK
 62
     9
 10
3049.999973
 20
10.0
 30
0.0
 11
3049.999973
 21
611.800293
 31
0.0
  0
LINE
  5
2E
  8
0
  6
BYBLOCK
 62
     9
 10
4930.0
 20
610.800293
 30
0.0
 11
4055.324917
 21
610.800293
 31
0.0
  0
LINE
  5
2F
  8
0
  6
BYBLOCK
 62
     9
 10
3069.999973
 20
610.800293
 30
0.0
 11
3944.675056
 21
610.800293
 31
0.0
  0
SOLID
  5
30
  8
0
  6
BYBLOCK
 62
     9
 10
4930.0
 20
614.133626
 30
0.0
 11
4930.0
 21
607.46696
 31
0.0
 12
4950.0
 22
610.800293
 32
0.0
 13
4950.0
 23
610.800293
 33
0.0
  0
SOLID
  5
31
  8
0
  6
BYBLOCK
 62
     9
 10
3069.999973
 20
614.133626
 30
0.0
 11
3069.999973
 21
607.46696
 31
0.0
 12
3049.999973
 22
610.800293
 32
0.0
 13
3049.999973
 23
610.800293
 33
0.0
  0
TEXT
  5
32
  8
0
  6
BYBLOCK
 62
    11
 10
3954.425056
 20
593.300293
 30
0.0
 40
35.0
  1
1900
  0
POINT
  5
33
  8
DEFPOINTS
  6
BYBLOCK
 62
     0
 10
4950.0
 20
0.0
 30
0.0
  0
POINT
  5
35
  8
DEFPOINTS
  6
BYBLOCK
 62
     0
 10
3049.999973
 20
0.0
 30
0.0
  0
POINT
  5
36
  8
DEFPOINTS
  6
BYBLOCK
 62
     0
 10
3049.999973
 20
610.800293
 30
0.0
  0
ENDBLK
  5
38
  8
0
  0
BLOCK
  8
0
  2
*D1
 70
     1
 10
0.0
 20
0.0
 30
0.0
  3
*D1
  1

  0
LINE
  5
62
  8
0
  6
BYBLOCK
 62
     9
 10
4960.0
 20
450.0
 30
0.0
 11
4991.452455
 21
450.0
 31
0.0
  0
LINE
  5
63
  8
0
  6
BYBLOCK
 62
     9
 10
4009.999987
 20
200.20774
 30
0.0
 11
4991.452455
 21
200.20774
 31
0.0
  0
LINE
  5
64
  8
0
  6
BYBLOCK
 62
     9
 10
4990.452455
 20
430.0
 30
0.0
 11
4990.452455
 21
372.062039
 31
0.0
  0
LINE
  5
65
  8
0
  6
BYBLOCK
 62
     9
 10
4990.452455
 20
220.20774
 30
0.0
 11
4990.452455
 21
278.145701
 31
0.0
  0
SOLID
  5
66
  8
0
  6
BYBLOCK
 62
     9
 10
4987.119122
 20
430.0
 30
0.0
 11
4993.785789
 21
430.0
 31
0.0
 12
4990.452455
 22
450.0
 32
0.0
 13
4990.452455
 23
450.0
 33
0.0
  0
SOLID
  5
67
  8
0
  6
BYBLOCK
 62
     9
 10
4987.119122
 20
220.20774
 30
0.0
 11
4993.785789
 21
220.20774
 31
0.0
 12
4990.452455
 22
200.20774
 32
0.0
 13
4990.452455
 23
200.20774
 33
0.0
  0
TEXT
  5
68
  8
0
  6
BYBLOCK
 62
    11
 10
5007.952455
 20
288.78448
 30
0.0
 40
35.0
  1
250
 50
90.0
  0
POINT
  5
69
  8
DEFPOINTS
  6
BYBLOCK
 62
     0
 10
4950.0
 20
450.0
 30
0.0
  0
POINT
  5
6A
  8
DEFPOINTS
  6
BYBLOCK
 62
     0
 10
3999.999987
 20
200.20774
 30
0.0
  0
POINT
  5
6B
  8
DEFPOINTS
  6
BYBLOCK
 62
     0
 10
4990.452455
 20
200.20774
 30
0.0
  0
ENDBLK
  5
6D
  8
0
  0
BLOCK
  8
0
  2
*D2
 70
     1
 10
0.0
 20
0.0
 30
0.0
  3
*D2
  1

  0
LINE
  5
54
  8
0
  6
BYBLOCK
 62
     9
 10
4950.0
 20
10.0
 30
0.0
 11
4950.0
 21
529.317306
 31
0.0
  0
LINE
  5
55
  8
0
  6
BYBLOCK
 62
     9
 10
3999.999987
 20
210.20774
 30
0.0
 11
3999.999987
 21
529.317306
 31
0.0
  0
LINE
  5
56
  8
0
  6
BYBLOCK
 62
     9
 10
4930.0
 20
528.317306
 30
0.0
 11
4522.238647
 21
528.317306
 31
0.0
  0
LINE
  5
57
  8
0
  6
BYBLOCK
 62
     9
 10
4019.999987
 20
528.317306
 30
0.0
 11
4427.76134
 21
528.317306
 31
0.0
  0
SOLID
  5
58
  8
0
  6
BYBLOCK
 62
     9
 10
4930.0
 20
531.650639
 30
0.0
 11
4930.0
 21
524.983973
 31
0.0
 12
4950.0
 22
528.317306
 32
0.0
 13
4950.0
 23
528.317306
 33
0.0
  0
SOLID
  5
59
  8
0
  6
BYBLOCK
 62
     9
 10
4019.999987
 20
531.650639
 30
0.0
 11
4019.999987
 21
524.983973
 31
0.0
 12
3999.999987
 22
528.317306
 32
0.0
 13
3999.999987
 23
528.317306
 33
0.0
  0
TEXT
  5
5A
  8
0
  6
BYBLOCK
 62
    11
 10
4438.838786
 20
510.817306
 30
0.0
 40
35.0
  1
950
  0
POINT
  5
5B
  8
DEFPOINTS
  6
BYBLOCK
 62
     0
 10
4950.0
 20
0.0
 30
0.0
  0
POINT
  5
5C
  8
DEFPOINTS
  6
BYBLOCK
 62
     0
 10
3999.999987
 20
200.20774
 30
0.0
  0
POINT
  5
5D
  8
DEFPOINTS
  6
BYBLOCK
 62
     0
 10
3999.999987
 20
528.317306
 30
0.0
  0
ENDBLK
  5
5F
  8
0
  0
BLOCK
  8
0
  2
*D3
 70
     1
 10
0.0
 20
0.0
 30
0.0
  3
*D3
  1

  0
LINE
  5
3B
  8
0
  6
BYBLOCK
 62
     9
 10
4559.999994
 20
450.000006
 30
0.0
 11
5030.296273
 21
450.000006
 31
0.0
  0
LINE
  5
3C
  8
0
  6
BYBLOCK
 62
     9
 10
4559.999994
 20
-450.000006
 30
0.0
 11
5030.296273
 21
-450.000006
 31
0.0
  0
LINE
  5
3D
  8
0
  6
BYBLOCK
 62
     9
 10
5029.296273
 20
430.000006
 30
0.0
 11
5029.296273
 21
47.238653
 31
0.0
  0
LINE
  5
3E
  8
0
  6
BYBLOCK
 62
     9
 10
5029.296273
 20
-430.000006
 30
0.0
 11
5029.296273
 21
-47.238653
 31
0.0
  0
SOLID
  5
3F
  8
0
  6
BYBLOCK
 62
     9
 10
5025.96294
 20
430.000006
 30
0.0
 11
5032.629607
 21
430.000006
 31
0.0
 12
5029.296273
 22
450.000006
 32
0.0
 13
5029.296273
 23
450.000006
 33
0.0
  0
SOLID
  5
40
  8
0
  6
BYBLOCK
 62
     9
 10
5025.96294
 20
-430.000006
 30
0.0
 11
5032.629607
 21
-430.000006
 31
0.0
 12
5029.296273
 22
-450.000006
 32
0.0
 13
5029.296273
 23
-450.000006
 33
0.0
  0
TEXT
  5
41
  8
0
  6
BYBLOCK
 62
    11
 10
5046.796273
 20
-36.161207
 30
0.0
 40
35.0
  1
900
 50
90.0
  0
POINT
  5
42
  8
DEFPOINTS
  6
BYBLOCK
 62
     0
 10
4549.999994
 20
450.000006
 30
0.0
  0
POINT
  5
43
  8
DEFPOINTS
  6
BYBLOCK
 62
     0
 10
4549.999994
 20
-450.000006
 30
0.0
  0
POINT
  5
44
  8
DEFPOINTS
  6
BYBLOCK
 62
     0
 10
5029.296273
 20
-450.000006
 30
0.0
  0
ENDBLK
  5
46
  8
0
  0
ENDSEC
  0
SECTION
  2
ENTITIES
  0
TEXT
  5
20
  8
TEAM-TXT
 10
-581.400466
 20
343.014342
 30
0.0
 40
30.0
  1
team 121710
 41
0.8
 51
15.0
  7
TEAM
  0
POLYLINE
  5
23
  8
TEAM-BODY
 66
     1
 10
0.0
 20
0.0
 30
0.0
  0
VERTEX
  5
423
  8
TEAM-BODY
 10
589.157014
 20
0.0
 30
0.0
 42
0.376259
  0
VERTEX
  5
424
  8
TEAM-BODY
 10
394.734992
 20
241.500003
 30
0.0
  0
VERTEX
  5
425
  8
TEAM-BODY
 10
-394.735019
 20
241.500003
 30
0.0
 42
0.385253
  0
VERTEX
  5
426
  8
TEAM-BODY
 10
-586.291872
 20
0.0
 30
0.0
  0
SEQEND
  5
427
  8
TEAM-BODY
  0
POLYLINE
  5
25
  8
TEAM-BODY
 66
     1
 10
0.0
 20
0.0
 30
0.0
  0
VERTEX
  5
428
  8
TEAM-BODY
 10
589.157014
 20
0.0
 30
0.0
 42
-0.376259
  0
VERTEX
  5
429
  8
TEAM-BODY
 10
394.734992
 20
-241.500003
 30
0.0
  0
VERTEX
  5
42A
  8
TEAM-BODY
 10
-394.735019
 20
-241.500003
 30
0.0
 42
-0.385253
  0
VERTEX
  5
42B
  8
TEAM-BODY
 10
-586.291872
 20
0.0
 30
0.0
  0
SEQEND
  5
42C
  8
TEAM-BODY
  0
POLYLINE
  5
26
  8
TEAM-DET1
 66
     1
 10
0.0
 20
0.0
 30
0.0
  0
VERTEX
  5
42D
  8
TEAM-DET1
 10
-904.326538
 20
0.0
 30
0.0
 42
-0.422892
  0
VERTEX
  5
42E
  8
TEAM-DET1
 10
-550.000021
 20
390.000005
 30
0.0
  0
VERTEX
  5
42F
  8
TEAM-DET1
 10
549.999994
 20
390.000005
 30
0.0
 42
-0.4174
  0
VERTEX
  5
430
  8
TEAM-DET1
 10
907.191681
 20
0.0
 30
0.0
  0
SEQEND
  5
431
  8
TEAM-DET1
  0
POLYLINE
  5
28
  8
TEAM-DET1
 66
     1
 10
0.0
 20
0.0
 30
0.0
  0
VERTEX
  5
432
  8
TEAM-DET1
 10
-904.326538
 20
0.0
 30
0.0
 42
0.422892
  0
VERTEX
  5
433
  8
TEAM-DET1
 10
-550.000021
 20
-390.000005
 30
0.0
  0
VERTEX
  5
434
  8
TEAM-DET1
 10
549.999994
 20
-390.000005
 30
0.0
 42
0.4174
  0
VERTEX
  5
435
  8
TEAM-DET1
 10
907.191681
 20
0.0
 30
0.0
  0
SEQEND
  5
436
  8
TEAM-DET1
  0
POLYLINE
  5
29
  8
TEAM-BODY
 66
     1
 10
0.0
 20
0.0
 30
0.0
 70
     1
  0
VERTEX
  5
437
  8
TEAM-BODY
 10
-950.0
 20
-450.0
 30
0.0
  0
VERTEX
  5
438
  8
TEAM-BODY
 10
950.0
 20
-450.0
 30
0.0
  0
VERTEX
  5
439
  8
TEAM-BODY
 10
950.0
 20
450.0
 30
0.0
  0
VERTEX
  5
43A
  8
TEAM-BODY
 10
-950.0
 20
450.0
 30
0.0
  0
SEQEND
  5
43B
  8
TEAM-BODY
  0
DIMENSION
  5
2A
  8
TEAM-MAS
  2
*D0
 10
-950.000027
 20
610.800293
 30
0.0
 11
-0.000013
 21
610.800293
 31
0.0
 12
-4000.0
 22
0.0
 32
0.0
 13
950.0
 23
0.0
 33
0.0
 14
-950.000027
 24
0.0
 34
0.0
1001
ACAD
1000
DSTYLE
1002
{
1070
    40
1040
1.0
1002
}
  0
DIMENSION
  5
39
  8
TEAM-MAS
  2
*D3
 10
1029.296273
 20
-450.000006
 30
0.0
 11
1029.296273
 21
0.0
 31
0.0
 12
-4000.0
 22
0.0
 32
0.0
 13
549.999994
 23
450.000006
 33
0.0
 14
549.999994
 24
-450.000006
 34
0.0
 50
90.0
1001
ACAD
1000
DSTYLE
1002
{
1070
    40
1040
1.0
1002
}
  0
CIRCLE
  5
47
  8
TEAM-INSP
 10
0.0
 20
0.0
 30
0.0
 40
10.0
  0
CIRCLE
  5
49
  8
TEAM-DET1
 10
-0.000013
 20
200.20774
 30
0.0
 40
35.0
  0
CIRCLE
  5
4A
  8
TEAM-KAN
 10
-0.000013
 20
200.20774
 30
0.0
 40
26.0
  0
POLYLINE
  5
4C
  8
TEAM-KAN
 66
     1
 10
0.0
 20
0.0
 30
0.0
  0
VERTEX
  5
43C
  8
TEAM-KAN
 10
26.323132
 20
376.857006
 30
0.0
  0
VERTEX
  5
43D
  8
TEAM-KAN
 10
26.273132
 20
377.167006
 30
0.0
  0
VERTEX
  5
43E
  8
TEAM-KAN
 10
26.123132
 20
377.487006
 30
0.0
  0
VERTEX
  5
43F
  8
TEAM-KAN
 10
25.863132
 20
377.797006
 30
0.0
  0
VERTEX
  5
440
  8
TEAM-KAN
 10
25.513132
 20
378.097006
 30
0.0
  0
VERTEX
  5
441
  8
TEAM-KAN
 10
25.053132
 20
378.397006
 30
0.0
  0
VERTEX
  5
442
  8
TEAM-KAN
 10
24.503132
 20
378.697006
 30
0.0
  0
VERTEX
  5
443
  8
TEAM-KAN
 10
23.853132
 20
378.987006
 30
0.0
  0
VERTEX
  5
444
  8
TEAM-KAN
 10
23.113132
 20
379.267006
 30
0.0
  0
VERTEX
  5
445
  8
TEAM-KAN
 10
22.273132
 20
379.537006
 30
0.0
  0
VERTEX
  5
446
  8
TEAM-KAN
 10
21.363132
 20
379.797006
 30
0.0
  0
VERTEX
  5
447
  8
TEAM-KAN
 10
20.363132
 20
380.047006
 30
0.0
  0
VERTEX
  5
448
  8
TEAM-KAN
 10
19.273132
 20
380.277006
 30
0.0
  0
VERTEX
  5
449
  8
TEAM-KAN
 10
18.123132
 20
380.507006
 30
0.0
  0
VERTEX
  5
44A
  8
TEAM-KAN
 10
16.903132
 20
380.707006
 30
0.0
  0
VERTEX
  5
44B
  8
TEAM-KAN
 10
15.613132
 20
380.897006
 30
0.0
  0
VERTEX
  5
44C
  8
TEAM-KAN
 10
14.253132
 20
381.077006
 30
0.0
  0
VERTEX
  5
44D
  8
TEAM-KAN
 10
12.853132
 20
381.237006
 30
0.0
  0
VERTEX
  5
44E
  8
TEAM-KAN
 10
11.393132
 20
381.377006
 30
0.0
  0
VERTEX
  5
44F
  8
TEAM-KAN
 10
9.903132
 20
381.507006
 30
0.0
  0
VERTEX
  5
450
  8
TEAM-KAN
 10
8.363132
 20
381.617006
 30
0.0
  0
VERTEX
  5
451
  8
TEAM-KAN
 10
6.793132
 20
381.697006
 30
0.0
  0
VERTEX
  5
452
  8
TEAM-KAN
 10
5.203132
 20
381.767006
 30
0.0
  0
VERTEX
  5
453
  8
TEAM-KAN
 10
3.583132
 20
381.817006
 30
0.0
  0
VERTEX
  5
454
  8
TEAM-KAN
 10
1.953132
 20
381.847006
 30
0.0
  0
VERTEX
  5
455
  8
TEAM-KAN
 10
0.323132
 20
381.857006
 30
0.0
  0
VERTEX
  5
456
  8
TEAM-KAN
 10
-1.306868
 20
381.847006
 30
0.0
  0
VERTEX
  5
457
  8
TEAM-KAN
 10
-2.936868
 20
381.817006
 30
0.0
  0
VERTEX
  5
458
  8
TEAM-KAN
 10
-4.546868
 20
381.767006
 30
0.0
  0
VERTEX
  5
459
  8
TEAM-KAN
 10
-6.136869
 20
381.697006
 30
0.0
  0
VERTEX
  5
45A
  8
TEAM-KAN
 10
-7.706869
 20
381.617006
 30
0.0
  0
VERTEX
  5
45B
  8
TEAM-KAN
 10
-9.246869
 20
381.507006
 30
0.0
  0
VERTEX
  5
45C
  8
TEAM-KAN
 10
-10.746869
 20
381.377006
 30
0.0
  0
VERTEX
  5
45D
  8
TEAM-KAN
 10
-12.196869
 20
381.237006
 30
0.0
  0
VERTEX
  5
45E
  8
TEAM-KAN
 10
-13.606869
 20
381.077006
 30
0.0
  0
VERTEX
  5
45F
  8
TEAM-KAN
 10
-14.956869
 20
380.897006
 30
0.0
  0
VERTEX
  5
460
  8
TEAM-KAN
 10
-16.246869
 20
380.707006
 30
0.0
  0
VERTEX
  5
461
  8
TEAM-KAN
 10
-17.476869
 20
380.507006
 30
0.0
  0
VERTEX
  5
462
  8
TEAM-KAN
 10
-18.626869
 20
380.277006
 30
0.0
  0
VERTEX
  5
463
  8
TEAM-KAN
 10
-19.706869
 20
380.047006
 30
0.0
  0
VERTEX
  5
464
  8
TEAM-KAN
 10
-20.706869
 20
379.797006
 30
0.0
  0
VERTEX
  5
465
  8
TEAM-KAN
 10
-21.626869
 20
379.537006
 30
0.0
  0
VERTEX
  5
466
  8
TEAM-KAN
 10
-22.456869
 20
379.267006
 30
0.0
  0
VERTEX
  5
467
  8
TEAM-KAN
 10
-23.196869
 20
378.987006
 30
0.0
  0
VERTEX
  5
468
  8
TEAM-KAN
 10
-23.846869
 20
378.697006
 30
0.0
  0
VERTEX
  5
469
  8
TEAM-KAN
 10
-24.406869
 20
378.397006
 30
0.0
  0
VERTEX
  5
46A
  8
TEAM-KAN
 10
-24.856869
 20
378.097006
 30
0.0
  0
VERTEX
  5
46B
  8
TEAM-KAN
 10
-25.216869
 20
377.797006
 30
0.0
  0
SEQEND
  5
46C
  8
TEAM-KAN
  0
POLYLINE
  5
4D
  8
TEAM-KAN
 66
     1
 10
0.0
 20
0.0
 30
0.0
  0
VERTEX
  5
46D
  8
TEAM-KAN
 10
-25.216869
 20
377.797006
 30
0.0
  0
VERTEX
  5
46E
  8
TEAM-KAN
 10
-25.466869
 20
377.487006
 30
0.0
  0
VERTEX
  5
46F
  8
TEAM-KAN
 10
-25.616869
 20
377.167006
 30
0.0
  0
VERTEX
  5
470
  8
TEAM-KAN
 10
-25.676869
 20
376.857006
 30
0.0
  0
VERTEX
  5
471
  8
TEAM-KAN
 10
-25.616869
 20
376.547006
 30
0.0
  0
VERTEX
  5
472
  8
TEAM-KAN
 10
-25.466869
 20
376.227006
 30
0.0
  0
VERTEX
  5
473
  8
TEAM-KAN
 10
-25.216869
 20
375.917006
 30
0.0
  0
VERTEX
  5
474
  8
TEAM-KAN
 10
-24.856869
 20
375.617006
 30
0.0
  0
VERTEX
  5
475
  8
TEAM-KAN
 10
-24.406869
 20
375.307006
 30
0.0
  0
VERTEX
  5
476
  8
TEAM-KAN
 10
-23.846869
 20
375.017006
 30
0.0
  0
VERTEX
  5
477
  8
TEAM-KAN
 10
-23.196869
 20
374.727006
 30
0.0
  0
VERTEX
  5
478
  8
TEAM-KAN
 10
-22.456869
 20
374.447006
 30
0.0
  0
VERTEX
  5
479
  8
TEAM-KAN
 10
-21.626869
 20
374.177006
 30
0.0
  0
VERTEX
  5
47A
  8
TEAM-KAN
 10
-20.706869
 20
373.917006
 30
0.0
  0
VERTEX
  5
47B
  8
TEAM-KAN
 10
-19.706869
 20
373.667006
 30
0.0
  0
VERTEX
  5
47C
  8
TEAM-KAN
 10
-18.626869
 20
373.437006
 30
0.0
  0
VERTEX
  5
47D
  8
TEAM-KAN
 10
-17.476869
 20
373.207006
 30
0.0
  0
VERTEX
  5
47E
  8
TEAM-KAN
 10
-16.246869
 20
373.007006
 30
0.0
  0
VERTEX
  5
47F
  8
TEAM-KAN
 10
-14.956869
 20
372.807006
 30
0.0
  0
VERTEX
  5
480
  8
TEAM-KAN
 10
-13.606869
 20
372.637006
 30
0.0
  0
VERTEX
  5
481
  8
TEAM-KAN
 10
-12.196869
 20
372.477006
 30
0.0
  0
VERTEX
  5
482
  8
TEAM-KAN
 10
-10.746869
 20
372.337006
 30
0.0
  0
VERTEX
  5
483
  8
TEAM-KAN
 10
-9.246869
 20
372.207006
 30
0.0
  0
VERTEX
  5
484
  8
TEAM-KAN
 10
-7.706869
 20
372.107006
 30
0.0
  0
VERTEX
  5
485
  8
TEAM-KAN
 10
-6.136869
 20
372.017006
 30
0.0
  0
VERTEX
  5
486
  8
TEAM-KAN
 10
-4.546868
 20
371.947006
 30
0.0
  0
VERTEX
  5
487
  8
TEAM-KAN
 10
-2.936868
 20
371.897006
 30
0.0
  0
VERTEX
  5
488
  8
TEAM-KAN
 10
-1.306868
 20
371.867006
 30
0.0
  0
VERTEX
  5
489
  8
TEAM-KAN
 10
0.323132
 20
371.857006
 30
0.0
  0
VERTEX
  5
48A
  8
TEAM-KAN
 10
1.953132
 20
371.867006
 30
0.0
  0
VERTEX
  5
48B
  8
TEAM-KAN
 10
3.583132
 20
371.897006
 30
0.0
  0
VERTEX
  5
48C
  8
TEAM-KAN
 10
5.203132
 20
371.947006
 30
0.0
  0
VERTEX
  5
48D
  8
TEAM-KAN
 10
6.793132
 20
372.017006
 30
0.0
  0
VERTEX
  5
48E
  8
TEAM-KAN
 10
8.363132
 20
372.107006
 30
0.0
  0
VERTEX
  5
48F
  8
TEAM-KAN
 10
9.903132
 20
372.207006
 30
0.0
  0
VERTEX
  5
490
  8
TEAM-KAN
 10
11.393132
 20
372.337006
 30
0.0
  0
VERTEX
  5
491
  8
TEAM-KAN
 10
12.853132
 20
372.477006
 30
0.0
  0
VERTEX
  5
492
  8
TEAM-KAN
 10
14.253132
 20
372.637006
 30
0.0
  0
VERTEX
  5
493
  8
TEAM-KAN
 10
15.613132
 20
372.807006
 30
0.0
  0
VERTEX
  5
494
  8
TEAM-KAN
 10
16.903132
 20
373.007006
 30
0.0
  0
VERTEX
  5
495
  8
TEAM-KAN
 10
18.123132
 20
373.207006
 30
0.0
  0
VERTEX
  5
496
  8
TEAM-KAN
 10
19.273132
 20
373.437006
 30
0.0
  0
VERTEX
  5
497
  8
TEAM-KAN
 10
20.363132
 20
373.667006
 30
0.0
  0
VERTEX
  5
498
  8
TEAM-KAN
 10
21.363132
 20
373.917006
 30
0.0
  0
VERTEX
  5
499
  8
TEAM-KAN
 10
22.273132
 20
374.177006
 30
0.0
  0
VERTEX
  5
49A
  8
TEAM-KAN
 10
23.113132
 20
374.447006
 30
0.0
  0
VERTEX
  5
49B
  8
TEAM-KAN
 10
23.853132
 20
374.727006
 30
0.0
  0
VERTEX
  5
49C
  8
TEAM-KAN
 10
24.503132
 20
375.017006
 30
0.0
  0
SEQEND
  5
49D
  8
TEAM-KAN
  0
POLYLINE
  5
4E
  8
TEAM-KAN
 66
     1
 10
0.0
 20
0.0
 30
0.0
  0
VERTEX
  5
49E
  8
TEAM-KAN
 10
24.503132
 20
375.017006
 30
0.0
  0
VERTEX
  5
49F
  8
TEAM-KAN
 10
25.053132
 20
375.307006
 30
0.0
  0
VERTEX
  5
4A0
  8
TEAM-KAN
 10
25.513132
 20
375.617006
 30
0.0
  0
VERTEX
  5
4A1
  8
TEAM-KAN
 10
25.863132
 20
375.917006
 30
0.0
  0
VERTEX
  5
4A2
  8
TEAM-KAN
 10
26.123132
 20
376.227006
 30
0.0
  0
VERTEX
  5
4A3
  8
TEAM-KAN
 10
26.273132
 20
376.547006
 30
0.0
  0
VERTEX
  5
4A4
  8
TEAM-KAN
 10
26.323132
 20
376.857006
 30
0.0
  0
SEQEND
  5
4A5
  8
TEAM-KAN
  0
LINE
  5
4F
  8
TEAM-AXE
 10
-34.056869
 20
376.857006
 30
0.0
 11
34.713132
 21
376.857006
 31
0.0
  0
DIMENSION
  5
52
  8
TEAM-MAS
  2
*D2
 10
-0.000013
 20
528.317306
 30
0.0
 11
474.999993
 21
528.317306
 31
0.0
 12
-4000.0
 22
0.0
 32
0.0
 13
950.0
 23
0.0
 33
0.0
 14
-0.000013
 24
200.20774
 34
0.0
1001
ACAD
1000
DSTYLE
1002
{
1070
    40
1040
1.0
1002
}
  0
DIMENSION
  5
60
  8
TEAM-MAS
  2
*D1
 10
990.452455
 20
200.20774
 30
0.0
 11
990.452455
 21
325.10387
 31
0.0
 12
-4000.0
 22
0.0
 32
0.0
 13
950.0
 23
450.0
 33
0.0
 14
-0.000013
 24
200.20774
 34
0.0
 50
90.0
1001
ACAD
1000
DSTYLE
1002
{
1070
    78
1070
     0
1070
    40
1040
1.0
1002
}
  0
ENDSEC
  0
EOF
