  0
SECTION
  2
HEADER
  9
$ACADVER
  1
AC1009
  9
$INSBASE
 10
0.0
 20
0.0
 30
0.0
  9
$EXTMIN
 10
-951.337609
 20
-10.022095
 30
0.0
  9
$EXTMAX
 10
1039.26416
 20
697.918446
 30
0.0
  9
$LIMMIN
 10
-951.337609
 20
-10.022095
  9
$LIMMAX
 10
1039.26416
 20
697.918446
  9
$ORTHOMODE
 70
     1
  9
$REGENMODE
 70
     1
  9
$FILLMODE
 70
     1
  9
$QTEXTMODE
 70
     0
  9
$MIRRTEXT
 70
     0
  9
$DRAGMODE
 70
     2
  9
$LTSCALE
 40
25.0
  9
$OSMODE
 70
     0
  9
$ATTMODE
 70
     1
  9
$TEXTSIZE
 40
200.0
  9
$TRACEWID
 40
1.0
  9
$TEXTSTYLE
  7
STANDARD
  9
$CLAYER
  8
TEAM-MAS
  9
$CELTYPE
  6
BYLAYER
  9
$CECOLOR
 62
   256
  9
$DIMSCALE
 40
0.0
  9
$DIMASZ
 40
20.0
  9
$DIMEXO
 40
10.0
  9
$DIMDLI
 40
1.0
  9
$DIMRND
 40
0.0
  9
$DIMDLE
 40
0.0
  9
$DIMEXE
 40
1.0
  9
$DIMTP
 40
0.0
  9
$DIMTM
 40
0.0
  9
$DIMTXT
 40
35.0
  9
$DIMCEN
 40
1.0
  9
$DIMTSZ
 40
0.0
  9
$DIMTOL
 70
     0
  9
$DIMLIM
 70
     0
  9
$DIMTIH
 70
     0
  9
$DIMTOH
 70
     0
  9
$DIMSE1
 70
     0
  9
$DIMSE2
 70
     0
  9
$DIMTAD
 70
     0
  9
$DIMZIN
 70
     0
  9
$DIMBLK
  1

  9
$DIMASO
 70
     1
  9
$DIMSHO
 70
     0
  9
$DIMPOST
  1

  9
$DIMAPOST
  1

  9
$DIMALT
 70
     0
  9
$DIMALTD
 70
     2
  9
$DIMALTF
 40
25.4
  9
$DIMLFAC
 40
1.0
  9
$DIMTOFL
 70
     0
  9
$DIMTVP
 40
0.0
  9
$DIMTIX
 70
     0
  9
$DIMSOXD
 70
     0
  9
$DIMSAH
 70
     0
  9
$DIMBLK1
  1

  9
$DIMBLK2
  1

  9
$DIMSTYLE
  2
TEAM
  9
$DIMCLRD
 70
     9
  9
$DIMCLRE
 70
     9
  9
$DIMCLRT
 70
    11
  9
$DIMTFAC
 40
1.0
  9
$DIMGAP
 40
15.0
  9
$LUNITS
 70
     2
  9
$LUPREC
 70
     1
  9
$SKETCHINC
 40
1.0
  9
$FILLETRAD
 40
50.0
  9
$AUNITS
 70
     0
  9
$AUPREC
 70
     0
  9
$MENU
  1
ROPLANS
  9
$ELEVATION
 40
0.0
  9
$PELEVATION
 40
0.0
  9
$THICKNESS
 40
0.0
  9
$LIMCHECK
 70
     0
  9
$BLIPMODE
 70
     1
  9
$CHAMFERA
 40
0.0
  9
$CHAMFERB
 40
0.0
  9
$SKPOLY
 70
     0
  9
$TDCREATE
 40
2450392.957851
  9
$TDUPDATE
 40
2455493.945579
  9
$TDINDWG
 40
1.992456
  9
$TDUSRTIMER
 40
1.992456
  9
$USRTIMER
 70
     1
  9
$ANGBASE
 50
0.0
  9
$ANGDIR
 70
     0
  9
$PDMODE
 70
     0
  9
$PDSIZE
 40
0.0
  9
$PLINEWID
 40
0.0
  9
$COORDS
 70
     2
  9
$SPLFRAME
 70
     0
  9
$SPLINETYPE
 70
     6
  9
$SPLINESEGS
 70
     8
  9
$ATTDIA
 70
     0
  9
$ATTREQ
 70
     0
  9
$HANDLING
 70
     1
  9
$HANDSEED
  5
10F
  9
$SURFTAB1
 70
    24
  9
$SURFTAB2
 70
    24
  9
$SURFTYPE
 70
     6
  9
$SURFU
 70
     6
  9
$SURFV
 70
     6
  9
$UCSNAME
  2

  9
$UCSORG
 10
0.0
 20
0.0
 30
0.0
  9
$UCSXDIR
 10
1.0
 20
0.0
 30
0.0
  9
$UCSYDIR
 10
0.0
 20
1.0
 30
0.0
  9
$PUCSNAME
  2

  9
$PUCSORG
 10
0.0
 20
0.0
 30
0.0
  9
$PUCSXDIR
 10
1.0
 20
0.0
 30
0.0
  9
$PUCSYDIR
 10
0.0
 20
1.0
 30
0.0
  9
$USERI1
 70
     0
  9
$USERI2
 70
     0
  9
$USERI3
 70
     0
  9
$USERI4
 70
     0
  9
$USERI5
 70
     0
  9
$USERR1
 40
0.0
  9
$USERR2
 40
0.0
  9
$USERR3
 40
0.0
  9
$USERR4
 40
0.0
  9
$USERR5
 40
0.0
  9
$WORLDVIEW
 70
     1
  9
$SHADEDGE
 70
     0
  9
$SHADEDIF
 70
    70
  9
$TILEMODE
 70
     1
  9
$MAXACTVP
 70
    16
  9
$PLIMCHECK
 70
     0
  9
$PEXTMIN
 10
-0.805942
 20
0.005011
 30
0.0
  9
$PEXTMAX
 10
20.250094
 20
11.356329
 30
0.0
  9
$PLIMMIN
 10
0.0
 20
0.0
  9
$PLIMMAX
 10
12.0
 20
9.0
  9
$UNITMODE
 70
     0
  9
$VISRETAIN
 70
     0
  9
$PLINEGEN
 70
     0
  9
$PSLTSCALE
 70
     0
  0
ENDSEC
  0
SECTION
  2
TABLES
  0
TABLE
  2
VPORT
 70
     2
  0
VPORT
  2
*ACTIVE
 70
     0
 10
0.0
 20
0.0
 11
1.0
 21
1.0
 12
43.963275
 22
343.948176
 13
0.0
 23
0.0
 14
1.0
 24
1.0
 15
50.0
 25
50.0
 16
0.0
 26
0.0
 36
1.0
 17
0.0
 27
0.0
 37
0.0
 40
1070.41306
 41
1.865779
 42
50.0
 43
0.0
 44
0.0
 50
0.0
 51
0.0
 71
     0
 72
   100
 73
     1
 74
     1
 75
     0
 76
     0
 77
     0
 78
     0
  0
ENDTAB
  0
TABLE
  2
LTYPE
 70
     2
  0
LTYPE
  2
CONTINUOUS
 70
     0
  3
Solid Line
 72
    65
 73
     0
 40
0.0
  0
LTYPE
  2
22
 70
     0
  3

 72
    65
 73
     2
 40
1.4
 49
1.2
 49
-0.2
  0
ENDTAB
  0
TABLE
  2
LAYER
 70
     8
  0
LAYER
  2
0
 70
     0
 62
     7
  6
CONTINUOUS
  0
LAYER
  2
DEFPOINTS
 70
     0
 62
     7
  6
CONTINUOUS
  0
LAYER
  2
TEAM-BODY
 70
     0
 62
     2
  6
CONTINUOUS
  0
LAYER
  2
TEAM-MAS
 70
     0
 62
     9
  6
CONTINUOUS
  0
LAYER
  2
TEAM-TXT
 70
     0
 62
    11
  6
CONTINUOUS
  0
LAYER
  2
TEAM-HIDE
 70
     0
 62
     8
  6
22
  0
LAYER
  2
TEAM-KAN
 70
     0
 62
     6
  6
CONTINUOUS
  0
LAYER
  2
TEAM-INSP
 70
     0
 62
     5
  6
CONTINUOUS
  0
ENDTAB
  0
TABLE
  2
STYLE
 70
     2
  0
STYLE
  2
STANDARD
 70
     0
 40
0.0
 41
1.0
 50
0.0
 71
     0
 42
200.0
  3
txt
  4

  0
STYLE
  2
TEAM
 70
     0
 40
0.0
 41
0.8
 50
15.0
 71
     0
 42
7.0
  3
ROMANS.shx
  4

  0
ENDTAB
  0
TABLE
  2
VIEW
 70
     0
  0
ENDTAB
  0
TABLE
  2
UCS
 70
     0
  0
ENDTAB
  0
TABLE
  2
APPID
 70
     1
  0
APPID
  2
ACAD
 70
     0
  0
ENDTAB
  0
TABLE
  2
DIMSTYLE
 70
     1
  0
DIMSTYLE
  2
TEAM
 70
     0
  3

  4

  5

  6

  7

 40
0.0
 41
20.0
 42
10.0
 43
1.0
 44
1.0
 45
0.0
 46
0.0
 47
0.0
 48
0.0
140
35.0
141
1.0
142
0.0
143
25.4
144
1.0
145
0.0
146
1.0
147
15.0
 71
     0
 72
     0
 73
     0
 74
     0
 75
     0
 76
     0
 77
     0
 78
     0
170
     0
171
     2
172
     0
173
     0
174
     0
175
     0
176
     9
177
     9
178
    11
  0
ENDTAB
  0
ENDSEC
  0
SECTION
  2
BLOCKS
  0
BLOCK
  8
0
  2
$MODEL_SPACE
 70
     0
 10
0.0
 20
0.0
 30
0.0
  3
$MODEL_SPACE
  1

  0
ENDBLK
  5
108
  8
0
  0
BLOCK
 67
     1
  8
0
  2
$PAPER_SPACE
 70
     0
 10
0.0
 20
0.0
 30
0.0
  3
$PAPER_SPACE
  1

  0
ENDBLK
  5
106
 67
     1
  8
0
  0
BLOCK
  8
0
  2
*D0
 70
     1
 10
0.0
 20
0.0
 30
0.0
  3
*D0
  1

  0
LINE
  5
38
  8
0
  6
BYBLOCK
 62
     9
 10
11049.999973
 20
594.0
 30
0.0
 11
11049.999973
 21
683.117647
 31
0.0
  0
LINE
  5
39
  8
0
  6
BYBLOCK
 62
     9
 10
12950.0
 20
594.0
 30
0.0
 11
12950.0
 21
683.117647
 31
0.0
  0
LINE
  5
3A
  8
0
  6
BYBLOCK
 62
     9
 10
11069.999973
 20
682.117647
 30
0.0
 11
11944.675056
 21
682.117647
 31
0.0
  0
LINE
  5
3B
  8
0
  6
BYBLOCK
 62
     9
 10
12930.0
 20
682.117647
 30
0.0
 11
12055.324917
 21
682.117647
 31
0.0
  0
SOLID
  5
3C
  8
0
  6
BYBLOCK
 62
     9
 10
11069.999973
 20
685.450981
 30
0.0
 11
11069.999973
 21
678.784314
 31
0.0
 12
11049.999973
 22
682.117647
 32
0.0
 13
11049.999973
 23
682.117647
 33
0.0
  0
SOLID
  5
3D
  8
0
  6
BYBLOCK
 62
     9
 10
12930.0
 20
685.450981
 30
0.0
 11
12930.0
 21
678.784314
 31
0.0
 12
12950.0
 22
682.117647
 32
0.0
 13
12950.0
 23
682.117647
 33
0.0
  0
TEXT
  5
3E
  8
0
  6
BYBLOCK
 62
    11
 10
11954.425056
 20
664.617647
 30
0.0
 40
35.0
  1
1900
  0
POINT
  5
3F
  8
DEFPOINTS
  6
BYBLOCK
 62
     0
 10
11049.999973
 20
584.0
 30
0.0
  0
POINT
  5
40
  8
DEFPOINTS
  6
BYBLOCK
 62
     0
 10
12950.0
 20
584.0
 30
0.0
  0
POINT
  5
41
  8
DEFPOINTS
  6
BYBLOCK
 62
     0
 10
12950.0
 20
682.117647
 30
0.0
  0
ENDBLK
  5
43
  8
0
  0
BLOCK
  8
0
  2
*D1
 70
     1
 10
0.0
 20
0.0
 30
0.0
  3
*D1
  1

  0
LINE
  5
27
  8
0
  6
BYBLOCK
 62
     9
 10
12954.0
 20
600.0
 30
0.0
 11
13024.485019
 21
600.0
 31
0.0
  0
LINE
  5
28
  8
0
  6
BYBLOCK
 62
     9
 10
12039.189987
 20
119.699994
 30
0.0
 11
13024.485019
 21
119.699994
 31
0.0
  0
LINE
  5
29
  8
0
  6
BYBLOCK
 62
     9
 10
13023.485019
 20
580.0
 30
0.0
 11
13023.485019
 21
408.113776
 31
0.0
  0
LINE
  5
2A
  8
0
  6
BYBLOCK
 62
     9
 10
13023.485019
 20
139.699994
 30
0.0
 11
13023.485019
 21
311.586217
 31
0.0
  0
SOLID
  5
2B
  8
0
  6
BYBLOCK
 62
     9
 10
13020.151685
 20
580.0
 30
0.0
 11
13026.818352
 21
580.0
 31
0.0
 12
13023.485019
 22
600.0
 32
0.0
 13
13023.485019
 23
600.0
 33
0.0
  0
SOLID
  5
2C
  8
0
  6
BYBLOCK
 62
     9
 10
13020.151685
 20
139.699994
 30
0.0
 11
13026.818352
 21
139.699994
 31
0.0
 12
13023.485019
 22
119.699994
 32
0.0
 13
13023.485019
 23
119.699994
 33
0.0
  0
TEXT
  5
2D
  8
0
  6
BYBLOCK
 62
    11
 10
13040.985019
 20
321.336217
 30
0.0
 40
35.0
  1
480
 50
90.0
  0
POINT
  5
2E
  8
DEFPOINTS
  6
BYBLOCK
 62
     0
 10
12944.0
 20
600.0
 30
0.0
  0
POINT
  5
30
  8
DEFPOINTS
  6
BYBLOCK
 62
     0
 10
12029.189987
 20
119.699994
 30
0.0
  0
POINT
  5
31
  8
DEFPOINTS
  6
BYBLOCK
 62
     0
 10
13023.485019
 20
119.699994
 30
0.0
  0
ENDBLK
  5
33
  8
0
  0
BLOCK
  8
0
  2
*D2
 70
     1
 10
0.0
 20
0.0
 30
0.0
  3
*D2
  1

  0
LINE
  5
56
  8
0
  6
BYBLOCK
 62
     9
 10
12025.999987
 20
109.699994
 30
0.0
 11
12025.999987
 21
61.691411
 31
0.0
  0
LINE
  5
57
  8
0
  6
BYBLOCK
 62
     9
 10
11973.999986
 20
109.699994
 30
0.0
 11
11973.999986
 21
61.691411
 31
0.0
  0
LINE
  5
58
  8
0
  6
BYBLOCK
 62
     9
 10
12045.999987
 20
62.691411
 30
0.0
 11
12065.999987
 21
62.691411
 31
0.0
  0
LINE
  5
59
  8
0
  6
BYBLOCK
 62
     9
 10
11953.999986
 20
62.691411
 30
0.0
 11
11933.999986
 21
62.691411
 31
0.0
  0
TEXT
  5
5A
  8
0
  6
BYBLOCK
 62
    11
 10
12049.690628
 20
45.191411
 30
0.0
 40
35.0
  1
52
  0
LINE
  5
5B
  8
0
  6
BYBLOCK
 62
     9
 10
12025.999987
 20
62.691411
 30
0.0
 11
11973.999986
 21
62.691411
 31
0.0
  0
SOLID
  5
5C
  8
0
  6
BYBLOCK
 62
     9
 10
12045.999987
 20
66.024744
 30
0.0
 11
12045.999987
 21
59.358078
 31
0.0
 12
12025.999987
 22
62.691411
 32
0.0
 13
12025.999987
 23
62.691411
 33
0.0
  0
SOLID
  5
5D
  8
0
  6
BYBLOCK
 62
     9
 10
11953.999986
 20
66.024744
 30
0.0
 11
11953.999986
 21
59.358078
 31
0.0
 12
11973.999986
 22
62.691411
 32
0.0
 13
11973.999986
 23
62.691411
 33
0.0
  0
POINT
  5
5E
  8
DEFPOINTS
  6
BYBLOCK
 62
     0
 10
12025.999987
 20
119.699994
 30
0.0
  0
POINT
  5
5F
  8
DEFPOINTS
  6
BYBLOCK
 62
     0
 10
11973.999986
 20
119.699994
 30
0.0
  0
POINT
  5
60
  8
DEFPOINTS
  6
BYBLOCK
 62
     0
 10
11973.999986
 20
62.691411
 30
0.0
  0
ENDBLK
  5
62
  8
0
  0
ENDSEC
  0
SECTION
  2
ENTITIES
  0
LINE
  5
20
  8
TEAM-HIDE
 10
-587.862686
 20
0.0
 30
0.0
 11
792.148463
 21
0.0
 31
0.0
  0
LINE
  5
23
  8
TEAM-BODY
 10
39.269987
 20
131.029994
 30
0.0
 11
648.234034
 21
138.633091
 31
0.0
  0
DIMENSION
  5
25
  8
TEAM-MAS
  2
*D1
 10
1023.485019
 20
119.699994
 30
0.0
 11
1023.485019
 21
359.849997
 31
0.0
 12
-12000.0
 22
0.0
 32
0.0
 13
944.0
 23
600.0
 33
0.0
 14
29.189987
 24
119.699994
 34
0.0
 50
90.0
1001
ACAD
1000
DSTYLE
1002
{
1070
    40
1040
1.0
1002
}
  0
LINE
  5
34
  8
TEAM-BODY
 10
-944.000027
 20
600.0
 30
0.0
 11
944.0
 21
600.0
 31
0.0
  0
LINE
  5
35
  8
TEAM-BODY
 10
-944.000027
 20
568.0
 30
0.0
 11
944.0
 21
568.0
 31
0.0
  0
DIMENSION
  5
36
  8
TEAM-MAS
  2
*D0
 10
950.0
 20
682.117647
 30
0.0
 11
-0.000013
 21
682.117647
 31
0.0
 12
-12000.0
 22
0.0
 32
0.0
 13
-950.000027
 23
584.0
 33
0.0
 14
950.0
 24
584.0
 34
0.0
1001
ACAD
1000
DSTYLE
1002
{
1070
    78
1070
     0
1070
    40
1040
1.0
1002
}
  0
CIRCLE
  5
44
  8
TEAM-INSP
 10
0.0
 20
0.0
 30
0.0
 40
10.0
  0
ARC
  5
46
  8
TEAM-KAN
 10
43.889987
 20
119.139994
 30
0.0
 40
12.0
 50
91.51086
 51
149.804
  0
ARC
  5
48
  8
TEAM-KAN
 10
43.889987
 20
119.139994
 30
0.0
 40
9.0
 50
91.51724
 51
149.7955
  0
ARC
  5
49
  8
TEAM-KAN
 10
29.189987
 20
127.699994
 30
0.0
 40
8.0
 50
270.0
 51
329.804
  0
ARC
  5
4A
  8
TEAM-KAN
 10
29.189987
 20
127.699994
 30
0.0
 40
5.0
 50
270.0
 51
329.8112
  0
LINE
  5
4B
  8
TEAM-KAN
 10
25.999987
 20
119.699994
 30
0.0
 11
25.999987
 21
122.699994
 31
0.0
  0
ARC
  5
4C
  8
TEAM-BODY
 10
-0.000013
 20
1630.510016
 30
0.0
 40
1500.000023
 50
268.5
 51
271.5
  0
LINE
  5
4D
  8
TEAM-KAN
 10
-29.190014
 20
122.699994
 30
0.0
 11
29.189987
 21
122.699994
 31
0.0
  0
LINE
  5
4E
  8
TEAM-KAN
 10
-29.190014
 20
119.699994
 30
0.0
 11
29.189987
 21
119.699994
 31
0.0
  0
LINE
  5
4F
  8
TEAM-KAN
 10
-26.000014
 20
119.699994
 30
0.0
 11
-26.000014
 21
122.699994
 31
0.0
  0
ARC
  5
50
  8
TEAM-KAN
 10
-43.880014
 20
119.139994
 30
0.0
 40
12.0
 50
30.18664
 51
88.48913
  0
ARC
  5
51
  8
TEAM-KAN
 10
-43.880014
 20
119.139994
 30
0.0
 40
9.0
 50
30.19201
 51
88.50761
  0
ARC
  5
52
  8
TEAM-KAN
 10
-29.190014
 20
127.699994
 30
0.0
 40
8.0
 50
210.196
 51
270.0
  0
ARC
  5
53
  8
TEAM-KAN
 10
-29.190014
 20
127.699994
 30
0.0
 40
5.0
 50
210.2113
 51
270.0
  0
DIMENSION
  5
54
  8
TEAM-MAS
  2
*D2
 10
-26.000014
 20
62.691411
 30
0.0
 11
75.241661
 21
62.691411
 31
0.0
 12
-12000.0
 22
0.0
 32
0.0
 70
   128
 13
25.999987
 23
119.699994
 33
0.0
 14
-26.000014
 24
119.699994
 34
0.0
1001
ACAD
1000
DSTYLE
1002
{
1070
    40
1040
1.0
1002
}
  0
ARC
  5
63
  8
TEAM-BODY
 10
1623.328086
 20
1680.788638
 30
0.0
 40
2733.962129
 50
204.017967
 51
212.811282
  0
TEXT
  5
64
  8
TEAM-TXT
 10
-824.932635
 20
515.75601
 30
0.0
 40
30.0
  1
team 121710
 41
0.8
 51
15.0
  7
TEAM
  0
ARC
  5
67
  8
TEAM-BODY
 10
-944.000027
 20
594.0
 30
0.0
 40
6.0
 50
90.0
 51
180.0
  0
ARC
  5
68
  8
TEAM-BODY
 10
-944.000027
 20
574.0
 30
0.0
 40
6.0
 50
180.0
 51
270.0
  0
LINE
  5
69
  8
TEAM-BODY
 10
-950.000027
 20
574.0
 30
0.0
 11
-950.000027
 21
594.0
 31
0.0
  0
ARC
  5
6A
  8
TEAM-BODY
 10
-562.570021
 20
283.469996
 30
0.0
 40
140.000002
 50
216.9447
 51
268.4987
  0
LINE
  5
6B
  8
TEAM-BODY
 10
-39.260014
 20
131.029994
 30
0.0
 11
-566.230021
 21
143.519994
 31
0.0
  0
ARC
  5
6C
  8
TEAM-BODY
 10
944.0
 20
594.0
 30
0.0
 40
6.0
 50
0.0
 51
90.0
  0
ARC
  5
6D
  8
TEAM-BODY
 10
944.0
 20
574.0
 30
0.0
 40
6.0
 50
270.0
 51
0.0
  0
LINE
  5
6E
  8
TEAM-BODY
 10
950.0
 20
574.0
 30
0.0
 11
950.0
 21
594.0
 31
0.0
  0
ARC
  5
6F
  8
TEAM-BODY
 10
-1397.356968
 20
1088.608942
 30
0.0
 40
2330.188548
 50
337.564896
 51
347.090047
  0
ARC
  5
70
  8
TEAM-BODY
 10
625.42018
 20
306.157715
 30
0.0
 40
169.070908
 50
277.754954
 51
320.81045
  0
ENDSEC
  0
EOF
