  0
SECTION
  2
HEADER
  9
$ACADVER
  1
AC1009
  9
$INSBASE
 10
0.0
 20
0.0
 30
0.0
  9
$EXTMIN
 10
-850.104569
 20
-362.6813
 30
0.0
  9
$EXTMAX
 10
995.016478
 20
526.611799
 30
0.0
  9
$LIMMIN
 10
-850.104569
 20
-362.6813
  9
$LIMMAX
 10
995.016478
 20
526.611799
  9
$ORTHOMODE
 70
     1
  9
$REGENMODE
 70
     1
  9
$FILLMODE
 70
     1
  9
$QTEXTMODE
 70
     0
  9
$MIRRTEXT
 70
     0
  9
$DRAGMODE
 70
     2
  9
$LTSCALE
 40
25.0
  9
$OSMODE
 70
     0
  9
$ATTMODE
 70
     1
  9
$TEXTSIZE
 40
200.0
  9
$TRACEWID
 40
1.0
  9
$TEXTSTYLE
  7
STANDARD
  9
$CLAYER
  8
TEAM-MAS
  9
$CELTYPE
  6
BYLAYER
  9
$CECOLOR
 62
   256
  9
$DIMSCALE
 40
0.0
  9
$DIMASZ
 40
20.0
  9
$DIMEXO
 40
10.0
  9
$DIMDLI
 40
1.0
  9
$DIMRND
 40
0.0
  9
$DIMDLE
 40
0.0
  9
$DIMEXE
 40
1.0
  9
$DIMTP
 40
0.0
  9
$DIMTM
 40
0.0
  9
$DIMTXT
 40
35.0
  9
$DIMCEN
 40
1.0
  9
$DIMTSZ
 40
0.0
  9
$DIMTOL
 70
     0
  9
$DIMLIM
 70
     0
  9
$DIMTIH
 70
     0
  9
$DIMTOH
 70
     0
  9
$DIMSE1
 70
     0
  9
$DIMSE2
 70
     0
  9
$DIMTAD
 70
     0
  9
$DIMZIN
 70
     0
  9
$DIMBLK
  1

  9
$DIMASO
 70
     1
  9
$DIMSHO
 70
     0
  9
$DIMPOST
  1

  9
$DIMAPOST
  1

  9
$DIMALT
 70
     0
  9
$DIMALTD
 70
     2
  9
$DIMALTF
 40
25.4
  9
$DIMLFAC
 40
1.0
  9
$DIMTOFL
 70
     0
  9
$DIMTVP
 40
0.0
  9
$DIMTIX
 70
     0
  9
$DIMSOXD
 70
     0
  9
$DIMSAH
 70
     0
  9
$DIMBLK1
  1

  9
$DIMBLK2
  1

  9
$DIMSTYLE
  2
TEAM
  9
$DIMCLRD
 70
     9
  9
$DIMCLRE
 70
     9
  9
$DIMCLRT
 70
    11
  9
$DIMTFAC
 40
1.0
  9
$DIMGAP
 40
15.0
  9
$LUNITS
 70
     2
  9
$LUPREC
 70
     1
  9
$SKETCHINC
 40
1.0
  9
$FILLETRAD
 40
50.0
  9
$AUNITS
 70
     0
  9
$AUPREC
 70
     0
  9
$MENU
  1
ROPLANS
  9
$ELEVATION
 40
0.0
  9
$PELEVATION
 40
0.0
  9
$THICKNESS
 40
0.0
  9
$LIMCHECK
 70
     0
  9
$BLIPMODE
 70
     1
  9
$CHAMFERA
 40
0.0
  9
$CHAMFERB
 40
0.0
  9
$SKPOLY
 70
     0
  9
$TDCREATE
 40
2450392.957851
  9
$TDUPDATE
 40
2455493.945579
  9
$TDINDWG
 40
1.992456
  9
$TDUSRTIMER
 40
1.992456
  9
$USRTIMER
 70
     1
  9
$ANGBASE
 50
0.0
  9
$ANGDIR
 70
     0
  9
$PDMODE
 70
     0
  9
$PDSIZE
 40
0.0
  9
$PLINEWID
 40
0.0
  9
$COORDS
 70
     2
  9
$SPLFRAME
 70
     0
  9
$SPLINETYPE
 70
     6
  9
$SPLINESEGS
 70
     8
  9
$ATTDIA
 70
     0
  9
$ATTREQ
 70
     0
  9
$HANDLING
 70
     1
  9
$HANDSEED
  5
4CB
  9
$SURFTAB1
 70
    24
  9
$SURFTAB2
 70
    24
  9
$SURFTYPE
 70
     6
  9
$SURFU
 70
     6
  9
$SURFV
 70
     6
  9
$UCSNAME
  2

  9
$UCSORG
 10
0.0
 20
0.0
 30
0.0
  9
$UCSXDIR
 10
1.0
 20
0.0
 30
0.0
  9
$UCSYDIR
 10
0.0
 20
1.0
 30
0.0
  9
$PUCSNAME
  2

  9
$PUCSORG
 10
0.0
 20
0.0
 30
0.0
  9
$PUCSXDIR
 10
1.0
 20
0.0
 30
0.0
  9
$PUCSYDIR
 10
0.0
 20
1.0
 30
0.0
  9
$USERI1
 70
     0
  9
$USERI2
 70
     0
  9
$USERI3
 70
     0
  9
$USERI4
 70
     0
  9
$USERI5
 70
     0
  9
$USERR1
 40
0.0
  9
$USERR2
 40
0.0
  9
$USERR3
 40
0.0
  9
$USERR4
 40
0.0
  9
$USERR5
 40
0.0
  9
$WORLDVIEW
 70
     1
  9
$SHADEDGE
 70
     0
  9
$SHADEDIF
 70
    70
  9
$TILEMODE
 70
     1
  9
$MAXACTVP
 70
    16
  9
$PLIMCHECK
 70
     0
  9
$PEXTMIN
 10
-0.805942
 20
0.005011
 30
0.0
  9
$PEXTMAX
 10
20.250094
 20
11.356329
 30
0.0
  9
$PLIMMIN
 10
0.0
 20
0.0
  9
$PLIMMAX
 10
12.0
 20
9.0
  9
$UNITMODE
 70
     0
  9
$VISRETAIN
 70
     0
  9
$PLINEGEN
 70
     0
  9
$PSLTSCALE
 70
     0
  0
ENDSEC
  0
SECTION
  2
TABLES
  0
TABLE
  2
VPORT
 70
     2
  0
VPORT
  2
*ACTIVE
 70
     0
 10
0.0
 20
0.0
 11
1.0
 21
1.0
 12
72.455954
 22
81.96525
 13
0.0
 23
0.0
 14
1.0
 24
1.0
 15
50.0
 25
50.0
 16
0.0
 26
0.0
 36
1.0
 17
0.0
 27
0.0
 37
0.0
 40
992.183216
 41
1.865779
 42
50.0
 43
0.0
 44
0.0
 50
0.0
 51
0.0
 71
     0
 72
   100
 73
     1
 74
     1
 75
     0
 76
     0
 77
     0
 78
     0
  0
ENDTAB
  0
TABLE
  2
LTYPE
 70
     2
  0
LTYPE
  2
CONTINUOUS
 70
     0
  3
Solid Line
 72
    65
 73
     0
 40
0.0
  0
LTYPE
  2
31
 70
     0
  3

 72
    65
 73
     4
 40
2.1
 49
1.5
 49
-0.3
 49
0.0
 49
-0.3
  0
ENDTAB
  0
TABLE
  2
LAYER
 70
     9
  0
LAYER
  2
0
 70
     0
 62
     7
  6
CONTINUOUS
  0
LAYER
  2
DEFPOINTS
 70
     0
 62
     7
  6
CONTINUOUS
  0
LAYER
  2
TEAM-BODY
 70
     0
 62
     2
  6
CONTINUOUS
  0
LAYER
  2
TEAM-AXE
 70
     0
 62
    10
  6
31
  0
LAYER
  2
TEAM-MAS
 70
     0
 62
     9
  6
CONTINUOUS
  0
LAYER
  2
TEAM-TXT
 70
     0
 62
    11
  6
CONTINUOUS
  0
LAYER
  2
TEAM-DET1
 70
     0
 62
     4
  6
CONTINUOUS
  0
LAYER
  2
TEAM-KAN
 70
     0
 62
     6
  6
CONTINUOUS
  0
LAYER
  2
TEAM-INSP
 70
     0
 62
     5
  6
CONTINUOUS
  0
ENDTAB
  0
TABLE
  2
STYLE
 70
     2
  0
STYLE
  2
STANDARD
 70
     0
 40
0.0
 41
1.0
 50
0.0
 71
     0
 42
200.0
  3
txt
  4

  0
STYLE
  2
TEAM
 70
     0
 40
0.0
 41
0.8
 50
15.0
 71
     0
 42
7.0
  3
ROMANS.shx
  4

  0
ENDTAB
  0
TABLE
  2
VIEW
 70
     0
  0
ENDTAB
  0
TABLE
  2
UCS
 70
     0
  0
ENDTAB
  0
TABLE
  2
APPID
 70
     1
  0
APPID
  2
ACAD
 70
     0
  0
ENDTAB
  0
TABLE
  2
DIMSTYLE
 70
     1
  0
DIMSTYLE
  2
TEAM
 70
     0
  3

  4

  5

  6

  7

 40
0.0
 41
20.0
 42
10.0
 43
1.0
 44
1.0
 45
0.0
 46
0.0
 47
0.0
 48
0.0
140
35.0
141
1.0
142
0.0
143
25.4
144
1.0
145
0.0
146
1.0
147
15.0
 71
     0
 72
     0
 73
     0
 74
     0
 75
     0
 76
     0
 77
     0
 78
     0
170
     0
171
     2
172
     0
173
     0
174
     0
175
     0
176
     9
177
     9
178
    11
  0
ENDTAB
  0
ENDSEC
  0
SECTION
  2
BLOCKS
  0
BLOCK
  8
0
  2
$MODEL_SPACE
 70
     0
 10
0.0
 20
0.0
 30
0.0
  3
$MODEL_SPACE
  1

  0
ENDBLK
  5
43C
  8
0
  0
BLOCK
 67
     1
  8
0
  2
$PAPER_SPACE
 70
     0
 10
0.0
 20
0.0
 30
0.0
  3
$PAPER_SPACE
  1

  0
ENDBLK
  5
43A
 67
     1
  8
0
  0
BLOCK
  8
0
  2
*D0
 70
     1
 10
0.0
 20
0.0
 30
0.0
  3
*D0
  1

  0
LINE
  5
28
  8
0
  6
BYBLOCK
 62
     9
 10
4850.0
 20
12360.0
 30
0.0
 11
4850.0
 21
12511.800293
 31
0.0
  0
LINE
  5
29
  8
0
  6
BYBLOCK
 62
     9
 10
3150.0
 20
12360.0
 30
0.0
 11
3150.0
 21
12511.800293
 31
0.0
  0
LINE
  5
2A
  8
0
  6
BYBLOCK
 62
     9
 10
4830.0
 20
12510.800293
 30
0.0
 11
4055.26378
 21
12510.800293
 31
0.0
  0
LINE
  5
2B
  8
0
  6
BYBLOCK
 62
     9
 10
3170.0
 20
12510.800293
 30
0.0
 11
3944.73622
 21
12510.800293
 31
0.0
  0
SOLID
  5
2C
  8
0
  6
BYBLOCK
 62
     9
 10
4830.0
 20
12514.133626
 30
0.0
 11
4830.0
 21
12507.46696
 31
0.0
 12
4850.0
 22
12510.800293
 32
0.0
 13
4850.0
 23
12510.800293
 33
0.0
  0
SOLID
  5
2D
  8
0
  6
BYBLOCK
 62
     9
 10
3170.0
 20
12514.133626
 30
0.0
 11
3170.0
 21
12507.46696
 31
0.0
 12
3150.0
 22
12510.800293
 32
0.0
 13
3150.0
 23
12510.800293
 33
0.0
  0
TEXT
  5
2E
  8
0
  6
BYBLOCK
 62
    11
 10
3954.48622
 20
12493.300293
 30
0.0
 40
35.0
  1
1700
  0
POINT
  5
2F
  8
DEFPOINTS
  6
BYBLOCK
 62
     0
 10
4850.0
 20
12350.0
 30
0.0
  0
POINT
  5
31
  8
DEFPOINTS
  6
BYBLOCK
 62
     0
 10
3150.0
 20
12350.0
 30
0.0
  0
POINT
  5
32
  8
DEFPOINTS
  6
BYBLOCK
 62
     0
 10
3150.0
 20
12510.800293
 30
0.0
  0
ENDBLK
  5
34
  8
0
  0
BLOCK
  8
0
  2
*D1
 70
     1
 10
0.0
 20
0.0
 30
0.0
  3
*D1
  1

  0
LINE
  5
61
  8
0
  6
BYBLOCK
 62
     9
 10
4860.0
 20
12350.0
 30
0.0
 11
4980.12016
 21
12350.0
 31
0.0
  0
LINE
  5
62
  8
0
  6
BYBLOCK
 62
     9
 10
4860.0
 20
11650.0
 30
0.0
 11
4980.12016
 21
11650.0
 31
0.0
  0
LINE
  5
63
  8
0
  6
BYBLOCK
 62
     9
 10
4979.12016
 20
12330.0
 30
0.0
 11
4979.12016
 21
12046.51378
 31
0.0
  0
LINE
  5
64
  8
0
  6
BYBLOCK
 62
     9
 10
4979.12016
 20
11670.0
 30
0.0
 11
4979.12016
 21
11953.48622
 31
0.0
  0
SOLID
  5
65
  8
0
  6
BYBLOCK
 62
     9
 10
4975.786827
 20
12330.0
 30
0.0
 11
4982.453494
 21
12330.0
 31
0.0
 12
4979.12016
 22
12350.0
 32
0.0
 13
4979.12016
 23
12350.0
 33
0.0
  0
SOLID
  5
66
  8
0
  6
BYBLOCK
 62
     9
 10
4975.786827
 20
11670.0
 30
0.0
 11
4982.453494
 21
11670.0
 31
0.0
 12
4979.12016
 22
11650.0
 32
0.0
 13
4979.12016
 23
11650.0
 33
0.0
  0
TEXT
  5
67
  8
0
  6
BYBLOCK
 62
    11
 10
4996.62016
 20
11963.23622
 30
0.0
 40
35.0
  1
700
 50
90.0
  0
POINT
  5
68
  8
DEFPOINTS
  6
BYBLOCK
 62
     0
 10
4850.0
 20
12350.0
 30
0.0
  0
POINT
  5
69
  8
DEFPOINTS
  6
BYBLOCK
 62
     0
 10
4850.0
 20
11650.0
 30
0.0
  0
POINT
  5
6A
  8
DEFPOINTS
  6
BYBLOCK
 62
     0
 10
4979.12016
 20
11650.0
 30
0.0
  0
ENDBLK
  5
6C
  8
0
  0
BLOCK
  8
0
  2
*D2
 70
     1
 10
0.0
 20
0.0
 30
0.0
  3
*D2
  1

  0
LINE
  5
51
  8
0
  6
BYBLOCK
 62
     9
 10
4850.0
 20
12360.0
 30
0.0
 11
4850.0
 21
12429.317306
 31
0.0
  0
LINE
  5
52
  8
0
  6
BYBLOCK
 62
     9
 10
4474.999987
 20
12010.0
 30
0.0
 11
4474.999987
 21
12429.317306
 31
0.0
  0
LINE
  5
53
  8
0
  6
BYBLOCK
 62
     9
 10
4830.0
 20
12428.317306
 30
0.0
 11
4709.724867
 21
12428.317306
 31
0.0
  0
LINE
  5
54
  8
0
  6
BYBLOCK
 62
     9
 10
4494.999987
 20
12428.317306
 30
0.0
 11
4615.27512
 21
12428.317306
 31
0.0
  0
SOLID
  5
55
  8
0
  6
BYBLOCK
 62
     9
 10
4830.0
 20
12431.650639
 30
0.0
 11
4830.0
 21
12424.983973
 31
0.0
 12
4850.0
 22
12428.317306
 32
0.0
 13
4850.0
 23
12428.317306
 33
0.0
  0
SOLID
  5
56
  8
0
  6
BYBLOCK
 62
     9
 10
4494.999987
 20
12431.650639
 30
0.0
 11
4494.999987
 21
12424.983973
 31
0.0
 12
4474.999987
 22
12428.317306
 32
0.0
 13
4474.999987
 23
12428.317306
 33
0.0
  0
TEXT
  5
57
  8
0
  6
BYBLOCK
 62
    11
 10
4625.02512
 20
12410.817306
 30
0.0
 40
35.0
  1
375
  0
POINT
  5
58
  8
DEFPOINTS
  6
BYBLOCK
 62
     0
 10
4850.0
 20
12350.0
 30
0.0
  0
POINT
  5
59
  8
DEFPOINTS
  6
BYBLOCK
 62
     0
 10
4474.999987
 20
12000.0
 30
0.0
  0
POINT
  5
5A
  8
DEFPOINTS
  6
BYBLOCK
 62
     0
 10
4474.999987
 20
12428.317306
 30
0.0
  0
ENDBLK
  5
5C
  8
0
  0
BLOCK
  8
0
  2
*D3
 70
     1
 10
0.0
 20
0.0
 30
0.0
  3
*D3
  1

  0
LINE
  5
3C
  8
0
  6
BYBLOCK
 62
     9
 10
4860.0
 20
12350.0
 30
0.0
 11
4915.218571
 21
12350.0
 31
0.0
  0
LINE
  5
3D
  8
0
  6
BYBLOCK
 62
     9
 10
4484.999987
 20
12000.0
 30
0.0
 11
4915.218571
 21
12000.0
 31
0.0
  0
LINE
  5
3E
  8
0
  6
BYBLOCK
 62
     9
 10
4914.218571
 20
12330.0
 30
0.0
 11
4914.218571
 21
12221.51378
 31
0.0
  0
LINE
  5
3F
  8
0
  6
BYBLOCK
 62
     9
 10
4914.218571
 20
12020.0
 30
0.0
 11
4914.218571
 21
12128.48622
 31
0.0
  0
SOLID
  5
40
  8
0
  6
BYBLOCK
 62
     9
 10
4910.885237
 20
12330.0
 30
0.0
 11
4917.551904
 21
12330.0
 31
0.0
 12
4914.218571
 22
12350.0
 32
0.0
 13
4914.218571
 23
12350.0
 33
0.0
  0
SOLID
  5
41
  8
0
  6
BYBLOCK
 62
     9
 10
4910.885237
 20
12020.0
 30
0.0
 11
4917.551904
 21
12020.0
 31
0.0
 12
4914.218571
 22
12000.0
 32
0.0
 13
4914.218571
 23
12000.0
 33
0.0
  0
TEXT
  5
42
  8
0
  6
BYBLOCK
 62
    11
 10
4931.718571
 20
12138.23622
 30
0.0
 40
35.0
  1
350
 50
90.0
  0
POINT
  5
43
  8
DEFPOINTS
  6
BYBLOCK
 62
     0
 10
4850.0
 20
12350.0
 30
0.0
  0
POINT
  5
44
  8
DEFPOINTS
  6
BYBLOCK
 62
     0
 10
4474.999987
 20
12000.0
 30
0.0
  0
POINT
  5
45
  8
DEFPOINTS
  6
BYBLOCK
 62
     0
 10
4914.218571
 20
12000.0
 30
0.0
  0
ENDBLK
  5
47
  8
0
  0
ENDSEC
  0
SECTION
  2
ENTITIES
  0
TEXT
  5
20
  8
TEAM-TXT
 10
-481.400466
 20
243.014342
 30
0.0
 40
30.0
  1
team 121713
 41
0.8
 51
15.0
  7
TEAM
  0
POLYLINE
  5
23
  8
TEAM-BODY
 66
     1
 10
0.0
 20
0.0
 30
0.0
  0
VERTEX
  5
442
  8
TEAM-BODY
 10
614.344148
 20
0.0
 30
0.0
 42
0.408359
  0
VERTEX
  5
443
  8
TEAM-BODY
 10
453.896646
 20
146.500003
 30
0.0
  0
VERTEX
  5
444
  8
TEAM-BODY
 10
-248.573364
 20
146.500003
 30
0.0
 42
0.443666
  0
VERTEX
  5
445
  8
TEAM-BODY
 10
-402.321581
 20
0.0
 30
0.0
  0
SEQEND
  5
446
  8
TEAM-BODY
  0
POLYLINE
  5
25
  8
TEAM-BODY
 66
     1
 10
0.0
 20
0.0
 30
0.0
  0
VERTEX
  5
447
  8
TEAM-BODY
 10
614.344148
 20
0.0
 30
0.0
 42
-0.408359
  0
VERTEX
  5
448
  8
TEAM-BODY
 10
453.896646
 20
-146.500003
 30
0.0
  0
VERTEX
  5
449
  8
TEAM-BODY
 10
-248.573364
 20
-146.500003
 30
0.0
 42
-0.443666
  0
VERTEX
  5
44A
  8
TEAM-BODY
 10
-402.321581
 20
0.0
 30
0.0
  0
SEQEND
  5
44B
  8
TEAM-BODY
  0
DIMENSION
  5
26
  8
TEAM-MAS
  2
*D0
 10
-850.0
 20
510.800293
 30
0.0
 11
0.0
 21
510.800293
 31
0.0
 12
-4000.0
 22
-12000.0
 32
0.0
 13
850.0
 23
350.0
 33
0.0
 14
-850.0
 24
350.0
 34
0.0
1001
ACAD
1000
DSTYLE
1002
{
1070
    40
1040
1.0
1002
}
  0
POLYLINE
  5
35
  8
TEAM-DET1
 66
     1
 10
0.0
 20
0.0
 30
0.0
  0
VERTEX
  5
44C
  8
TEAM-DET1
 10
-763.673099
 20
0.0
 30
0.0
 42
-0.425457
  0
VERTEX
  5
44D
  8
TEAM-DET1
 10
-450.000021
 20
290.000005
 30
0.0
  0
VERTEX
  5
44E
  8
TEAM-DET1
 10
449.999994
 20
290.000005
 30
0.0
 42
-0.39234
  0
VERTEX
  5
44F
  8
TEAM-DET1
 10
777.249259
 20
0.0
 30
0.0
  0
SEQEND
  5
450
  8
TEAM-DET1
  0
POLYLINE
  5
37
  8
TEAM-BODY
 66
     1
 10
0.0
 20
0.0
 30
0.0
  0
VERTEX
  5
451
  8
TEAM-BODY
 10
850.0
 20
0.0
 30
0.0
  0
VERTEX
  5
452
  8
TEAM-BODY
 10
850.0
 20
350.0
 30
0.0
  0
VERTEX
  5
453
  8
TEAM-BODY
 10
-850.0
 20
350.0
 30
0.0
  0
VERTEX
  5
454
  8
TEAM-BODY
 10
-850.0
 20
0.0
 30
0.0
  0
SEQEND
  5
455
  8
TEAM-BODY
  0
POLYLINE
  5
38
  8
TEAM-BODY
 66
     1
 10
0.0
 20
0.0
 30
0.0
  0
VERTEX
  5
456
  8
TEAM-BODY
 10
850.0
 20
0.0
 30
0.0
  0
VERTEX
  5
457
  8
TEAM-BODY
 10
850.0
 20
-350.0
 30
0.0
  0
VERTEX
  5
458
  8
TEAM-BODY
 10
-850.0
 20
-350.0
 30
0.0
  0
VERTEX
  5
459
  8
TEAM-BODY
 10
-850.0
 20
0.0
 30
0.0
  0
SEQEND
  5
45A
  8
TEAM-BODY
  0
POLYLINE
  5
39
  8
TEAM-DET1
 66
     1
 10
0.0
 20
0.0
 30
0.0
  0
VERTEX
  5
45B
  8
TEAM-DET1
 10
-763.673099
 20
0.0
 30
0.0
 42
0.448557
  0
VERTEX
  5
45C
  8
TEAM-DET1
 10
-450.000021
 20
-290.000005
 30
0.0
  0
VERTEX
  5
45D
  8
TEAM-DET1
 10
462.999994
 20
-290.000005
 30
0.0
 42
0.462463
  0
VERTEX
  5
45E
  8
TEAM-DET1
 10
777.249259
 20
0.0
 30
0.0
  0
SEQEND
  5
45F
  8
TEAM-DET1
  0
DIMENSION
  5
3A
  8
TEAM-MAS
  2
*D3
 10
914.218571
 20
0.0
 30
0.0
 11
914.218571
 21
175.0
 31
0.0
 12
-4000.0
 22
-12000.0
 32
0.0
 13
850.0
 23
350.0
 33
0.0
 14
474.999987
 24
0.0
 34
0.0
 50
90.0
1001
ACAD
1000
DSTYLE
1002
{
1070
    40
1040
1.0
1002
}
  0
POLYLINE
  5
48
  8
TEAM-KAN
 66
     1
 10
0.0
 20
0.0
 30
0.0
  0
VERTEX
  5
460
  8
TEAM-KAN
 10
745.422735
 20
-26.143864
 30
0.0
  0
VERTEX
  5
461
  8
TEAM-KAN
 10
745.732735
 20
-26.093864
 30
0.0
  0
VERTEX
  5
462
  8
TEAM-KAN
 10
746.052735
 20
-25.943864
 30
0.0
  0
VERTEX
  5
463
  8
TEAM-KAN
 10
746.362735
 20
-25.683864
 30
0.0
  0
VERTEX
  5
464
  8
TEAM-KAN
 10
746.662735
 20
-25.333864
 30
0.0
  0
VERTEX
  5
465
  8
TEAM-KAN
 10
746.962735
 20
-24.873864
 30
0.0
  0
VERTEX
  5
466
  8
TEAM-KAN
 10
747.262735
 20
-24.323864
 30
0.0
  0
VERTEX
  5
467
  8
TEAM-KAN
 10
747.552735
 20
-23.673864
 30
0.0
  0
VERTEX
  5
468
  8
TEAM-KAN
 10
747.832735
 20
-22.933864
 30
0.0
  0
VERTEX
  5
469
  8
TEAM-KAN
 10
748.102735
 20
-22.093864
 30
0.0
  0
VERTEX
  5
46A
  8
TEAM-KAN
 10
748.362735
 20
-21.183864
 30
0.0
  0
VERTEX
  5
46B
  8
TEAM-KAN
 10
748.612735
 20
-20.183864
 30
0.0
  0
VERTEX
  5
46C
  8
TEAM-KAN
 10
748.842735
 20
-19.093864
 30
0.0
  0
VERTEX
  5
46D
  8
TEAM-KAN
 10
749.072735
 20
-17.943864
 30
0.0
  0
VERTEX
  5
46E
  8
TEAM-KAN
 10
749.272735
 20
-16.723864
 30
0.0
  0
VERTEX
  5
46F
  8
TEAM-KAN
 10
749.462735
 20
-15.433864
 30
0.0
  0
VERTEX
  5
470
  8
TEAM-KAN
 10
749.642735
 20
-14.073864
 30
0.0
  0
VERTEX
  5
471
  8
TEAM-KAN
 10
749.802735
 20
-12.673864
 30
0.0
  0
VERTEX
  5
472
  8
TEAM-KAN
 10
749.942735
 20
-11.213864
 30
0.0
  0
VERTEX
  5
473
  8
TEAM-KAN
 10
750.072735
 20
-9.723864
 30
0.0
  0
VERTEX
  5
474
  8
TEAM-KAN
 10
750.182735
 20
-8.183864
 30
0.0
  0
VERTEX
  5
475
  8
TEAM-KAN
 10
750.262735
 20
-6.613864
 30
0.0
  0
VERTEX
  5
476
  8
TEAM-KAN
 10
750.332735
 20
-5.023864
 30
0.0
  0
VERTEX
  5
477
  8
TEAM-KAN
 10
750.382735
 20
-3.403864
 30
0.0
  0
VERTEX
  5
478
  8
TEAM-KAN
 10
750.412735
 20
-1.773864
 30
0.0
  0
VERTEX
  5
479
  8
TEAM-KAN
 10
750.422735
 20
-0.143864
 30
0.0
  0
VERTEX
  5
47A
  8
TEAM-KAN
 10
750.412735
 20
1.486136
 30
0.0
  0
VERTEX
  5
47B
  8
TEAM-KAN
 10
750.382735
 20
3.116136
 30
0.0
  0
VERTEX
  5
47C
  8
TEAM-KAN
 10
750.332735
 20
4.726136
 30
0.0
  0
VERTEX
  5
47D
  8
TEAM-KAN
 10
750.262735
 20
6.316136
 30
0.0
  0
VERTEX
  5
47E
  8
TEAM-KAN
 10
750.182735
 20
7.886136
 30
0.0
  0
VERTEX
  5
47F
  8
TEAM-KAN
 10
750.072735
 20
9.426136
 30
0.0
  0
VERTEX
  5
480
  8
TEAM-KAN
 10
749.942735
 20
10.926136
 30
0.0
  0
VERTEX
  5
481
  8
TEAM-KAN
 10
749.802735
 20
12.376136
 30
0.0
  0
VERTEX
  5
482
  8
TEAM-KAN
 10
749.642735
 20
13.786136
 30
0.0
  0
VERTEX
  5
483
  8
TEAM-KAN
 10
749.462735
 20
15.136136
 30
0.0
  0
VERTEX
  5
484
  8
TEAM-KAN
 10
749.272735
 20
16.426136
 30
0.0
  0
VERTEX
  5
485
  8
TEAM-KAN
 10
749.072735
 20
17.656136
 30
0.0
  0
VERTEX
  5
486
  8
TEAM-KAN
 10
748.842735
 20
18.806136
 30
0.0
  0
VERTEX
  5
487
  8
TEAM-KAN
 10
748.612735
 20
19.886136
 30
0.0
  0
VERTEX
  5
488
  8
TEAM-KAN
 10
748.362735
 20
20.886136
 30
0.0
  0
VERTEX
  5
489
  8
TEAM-KAN
 10
748.102735
 20
21.806136
 30
0.0
  0
VERTEX
  5
48A
  8
TEAM-KAN
 10
747.832735
 20
22.636137
 30
0.0
  0
VERTEX
  5
48B
  8
TEAM-KAN
 10
747.552735
 20
23.376137
 30
0.0
  0
VERTEX
  5
48C
  8
TEAM-KAN
 10
747.262735
 20
24.026137
 30
0.0
  0
VERTEX
  5
48D
  8
TEAM-KAN
 10
746.962735
 20
24.586137
 30
0.0
  0
VERTEX
  5
48E
  8
TEAM-KAN
 10
746.662735
 20
25.036137
 30
0.0
  0
VERTEX
  5
48F
  8
TEAM-KAN
 10
746.362735
 20
25.396137
 30
0.0
  0
SEQEND
  5
490
  8
TEAM-KAN
  0
POLYLINE
  5
4A
  8
TEAM-KAN
 66
     1
 10
0.0
 20
0.0
 30
0.0
  0
VERTEX
  5
491
  8
TEAM-KAN
 10
746.362735
 20
25.396137
 30
0.0
  0
VERTEX
  5
492
  8
TEAM-KAN
 10
746.052735
 20
25.646137
 30
0.0
  0
VERTEX
  5
493
  8
TEAM-KAN
 10
745.732735
 20
25.796137
 30
0.0
  0
VERTEX
  5
494
  8
TEAM-KAN
 10
745.422735
 20
25.856137
 30
0.0
  0
VERTEX
  5
495
  8
TEAM-KAN
 10
745.112735
 20
25.796137
 30
0.0
  0
VERTEX
  5
496
  8
TEAM-KAN
 10
744.792735
 20
25.646137
 30
0.0
  0
VERTEX
  5
497
  8
TEAM-KAN
 10
744.482735
 20
25.396137
 30
0.0
  0
VERTEX
  5
498
  8
TEAM-KAN
 10
744.182735
 20
25.036137
 30
0.0
  0
VERTEX
  5
499
  8
TEAM-KAN
 10
743.872735
 20
24.586137
 30
0.0
  0
VERTEX
  5
49A
  8
TEAM-KAN
 10
743.582735
 20
24.026137
 30
0.0
  0
VERTEX
  5
49B
  8
TEAM-KAN
 10
743.292735
 20
23.376137
 30
0.0
  0
VERTEX
  5
49C
  8
TEAM-KAN
 10
743.012735
 20
22.636137
 30
0.0
  0
VERTEX
  5
49D
  8
TEAM-KAN
 10
742.742735
 20
21.806136
 30
0.0
  0
VERTEX
  5
49E
  8
TEAM-KAN
 10
742.482735
 20
20.886136
 30
0.0
  0
VERTEX
  5
49F
  8
TEAM-KAN
 10
742.232735
 20
19.886136
 30
0.0
  0
VERTEX
  5
4A0
  8
TEAM-KAN
 10
742.002735
 20
18.806136
 30
0.0
  0
VERTEX
  5
4A1
  8
TEAM-KAN
 10
741.772735
 20
17.656136
 30
0.0
  0
VERTEX
  5
4A2
  8
TEAM-KAN
 10
741.572735
 20
16.426136
 30
0.0
  0
VERTEX
  5
4A3
  8
TEAM-KAN
 10
741.372735
 20
15.136136
 30
0.0
  0
VERTEX
  5
4A4
  8
TEAM-KAN
 10
741.202735
 20
13.786136
 30
0.0
  0
VERTEX
  5
4A5
  8
TEAM-KAN
 10
741.042735
 20
12.376136
 30
0.0
  0
VERTEX
  5
4A6
  8
TEAM-KAN
 10
740.902735
 20
10.926136
 30
0.0
  0
VERTEX
  5
4A7
  8
TEAM-KAN
 10
740.772735
 20
9.426136
 30
0.0
  0
VERTEX
  5
4A8
  8
TEAM-KAN
 10
740.672735
 20
7.886136
 30
0.0
  0
VERTEX
  5
4A9
  8
TEAM-KAN
 10
740.582735
 20
6.316136
 30
0.0
  0
VERTEX
  5
4AA
  8
TEAM-KAN
 10
740.512735
 20
4.726136
 30
0.0
  0
VERTEX
  5
4AB
  8
TEAM-KAN
 10
740.462735
 20
3.116136
 30
0.0
  0
VERTEX
  5
4AC
  8
TEAM-KAN
 10
740.432735
 20
1.486136
 30
0.0
  0
VERTEX
  5
4AD
  8
TEAM-KAN
 10
740.422735
 20
-0.143864
 30
0.0
  0
VERTEX
  5
4AE
  8
TEAM-KAN
 10
740.432735
 20
-1.773864
 30
0.0
  0
VERTEX
  5
4AF
  8
TEAM-KAN
 10
740.462735
 20
-3.403864
 30
0.0
  0
VERTEX
  5
4B0
  8
TEAM-KAN
 10
740.512735
 20
-5.023864
 30
0.0
  0
VERTEX
  5
4B1
  8
TEAM-KAN
 10
740.582735
 20
-6.613864
 30
0.0
  0
VERTEX
  5
4B2
  8
TEAM-KAN
 10
740.672735
 20
-8.183864
 30
0.0
  0
VERTEX
  5
4B3
  8
TEAM-KAN
 10
740.772735
 20
-9.723864
 30
0.0
  0
VERTEX
  5
4B4
  8
TEAM-KAN
 10
740.902735
 20
-11.213864
 30
0.0
  0
VERTEX
  5
4B5
  8
TEAM-KAN
 10
741.042735
 20
-12.673864
 30
0.0
  0
VERTEX
  5
4B6
  8
TEAM-KAN
 10
741.202735
 20
-14.073864
 30
0.0
  0
VERTEX
  5
4B7
  8
TEAM-KAN
 10
741.372735
 20
-15.433864
 30
0.0
  0
VERTEX
  5
4B8
  8
TEAM-KAN
 10
741.572735
 20
-16.723864
 30
0.0
  0
VERTEX
  5
4B9
  8
TEAM-KAN
 10
741.772735
 20
-17.943864
 30
0.0
  0
VERTEX
  5
4BA
  8
TEAM-KAN
 10
742.002735
 20
-19.093864
 30
0.0
  0
VERTEX
  5
4BB
  8
TEAM-KAN
 10
742.232735
 20
-20.183864
 30
0.0
  0
VERTEX
  5
4BC
  8
TEAM-KAN
 10
742.482735
 20
-21.183864
 30
0.0
  0
VERTEX
  5
4BD
  8
TEAM-KAN
 10
742.742735
 20
-22.093864
 30
0.0
  0
VERTEX
  5
4BE
  8
TEAM-KAN
 10
743.012735
 20
-22.933864
 30
0.0
  0
VERTEX
  5
4BF
  8
TEAM-KAN
 10
743.292735
 20
-23.673864
 30
0.0
  0
VERTEX
  5
4C0
  8
TEAM-KAN
 10
743.582735
 20
-24.323864
 30
0.0
  0
SEQEND
  5
4C1
  8
TEAM-KAN
  0
POLYLINE
  5
4B
  8
TEAM-KAN
 66
     1
 10
0.0
 20
0.0
 30
0.0
  0
VERTEX
  5
4C2
  8
TEAM-KAN
 10
743.582735
 20
-24.323864
 30
0.0
  0
VERTEX
  5
4C3
  8
TEAM-KAN
 10
743.872735
 20
-24.873864
 30
0.0
  0
VERTEX
  5
4C4
  8
TEAM-KAN
 10
744.182735
 20
-25.333864
 30
0.0
  0
VERTEX
  5
4C5
  8
TEAM-KAN
 10
744.482735
 20
-25.683864
 30
0.0
  0
VERTEX
  5
4C6
  8
TEAM-KAN
 10
744.792735
 20
-25.943864
 30
0.0
  0
VERTEX
  5
4C7
  8
TEAM-KAN
 10
745.112735
 20
-26.093864
 30
0.0
  0
VERTEX
  5
4C8
  8
TEAM-KAN
 10
745.422735
 20
-26.143864
 30
0.0
  0
SEQEND
  5
4C9
  8
TEAM-KAN
  0
LINE
  5
4C
  8
TEAM-AXE
 10
745.422735
 20
34.236137
 30
0.0
 11
745.422735
 21
-34.533864
 31
0.0
  0
DIMENSION
  5
4F
  8
TEAM-MAS
  2
*D2
 10
474.999987
 20
428.317306
 30
0.0
 11
662.499993
 21
428.317306
 31
0.0
 12
-4000.0
 22
-12000.0
 32
0.0
 13
850.0
 23
350.0
 33
0.0
 14
474.999987
 24
0.0
 34
0.0
1001
ACAD
1000
DSTYLE
1002
{
1070
    40
1040
1.0
1002
}
  0
CIRCLE
  5
5D
  8
TEAM-KAN
 10
474.999987
 20
0.0
 30
0.0
 40
26.0
  0
CIRCLE
  5
5E
  8
TEAM-DET1
 10
474.999987
 20
0.0
 30
0.0
 40
35.0
  0
DIMENSION
  5
5F
  8
TEAM-MAS
  2
*D1
 10
979.12016
 20
-350.0
 30
0.0
 11
979.12016
 21
0.0
 31
0.0
 12
-4000.0
 22
-12000.0
 32
0.0
 13
850.0
 23
350.0
 33
0.0
 14
850.0
 24
-350.0
 34
0.0
 50
90.0
1001
ACAD
1000
DSTYLE
1002
{
1070
    78
1070
     0
1070
    40
1040
1.0
1002
}
  0
CIRCLE
  5
6D
  8
TEAM-INSP
 10
0.0
 20
0.0
 30
0.0
 40
10.0
  0
ENDSEC
  0
EOF
