  0
SECTION
  2
HEADER
  9
$ACADVER
  1
AC1009
  9
$INSBASE
 10
0.0
 20
0.0
 30
0.0
  9
$EXTMIN
 10
-851.289109
 20
-10.020193
 30
0.0
  9
$EXTMAX
 10
940.757758
 20
678.75814
 30
0.0
  9
$LIMMIN
 10
-851.289109
 20
-10.020193
  9
$LIMMAX
 10
940.757758
 20
678.75814
  9
$ORTHOMODE
 70
     1
  9
$REGENMODE
 70
     1
  9
$FILLMODE
 70
     1
  9
$QTEXTMODE
 70
     0
  9
$MIRRTEXT
 70
     0
  9
$DRAGMODE
 70
     2
  9
$LTSCALE
 40
25.0
  9
$OSMODE
 70
     0
  9
$ATTMODE
 70
     1
  9
$TEXTSIZE
 40
200.0
  9
$TRACEWID
 40
1.0
  9
$TEXTSTYLE
  7
STANDARD
  9
$CLAYER
  8
TEAM-MAS
  9
$CELTYPE
  6
BYLAYER
  9
$CECOLOR
 62
   256
  9
$DIMSCALE
 40
0.0
  9
$DIMASZ
 40
20.0
  9
$DIMEXO
 40
10.0
  9
$DIMDLI
 40
1.0
  9
$DIMRND
 40
0.0
  9
$DIMDLE
 40
0.0
  9
$DIMEXE
 40
1.0
  9
$DIMTP
 40
0.0
  9
$DIMTM
 40
0.0
  9
$DIMTXT
 40
35.0
  9
$DIMCEN
 40
1.0
  9
$DIMTSZ
 40
0.0
  9
$DIMTOL
 70
     0
  9
$DIMLIM
 70
     0
  9
$DIMTIH
 70
     0
  9
$DIMTOH
 70
     0
  9
$DIMSE1
 70
     0
  9
$DIMSE2
 70
     0
  9
$DIMTAD
 70
     0
  9
$DIMZIN
 70
     0
  9
$DIMBLK
  1

  9
$DIMASO
 70
     1
  9
$DIMSHO
 70
     0
  9
$DIMPOST
  1

  9
$DIMAPOST
  1

  9
$DIMALT
 70
     0
  9
$DIMALTD
 70
     2
  9
$DIMALTF
 40
25.4
  9
$DIMLFAC
 40
1.0
  9
$DIMTOFL
 70
     0
  9
$DIMTVP
 40
0.0
  9
$DIMTIX
 70
     0
  9
$DIMSOXD
 70
     0
  9
$DIMSAH
 70
     0
  9
$DIMBLK1
  1

  9
$DIMBLK2
  1

  9
$DIMSTYLE
  2
TEAM
  9
$DIMCLRD
 70
     9
  9
$DIMCLRE
 70
     9
  9
$DIMCLRT
 70
    11
  9
$DIMTFAC
 40
1.0
  9
$DIMGAP
 40
15.0
  9
$LUNITS
 70
     2
  9
$LUPREC
 70
     1
  9
$SKETCHINC
 40
1.0
  9
$FILLETRAD
 40
50.0
  9
$AUNITS
 70
     0
  9
$AUPREC
 70
     0
  9
$MENU
  1
ROPLANS
  9
$ELEVATION
 40
0.0
  9
$PELEVATION
 40
0.0
  9
$THICKNESS
 40
0.0
  9
$LIMCHECK
 70
     0
  9
$BLIPMODE
 70
     1
  9
$CHAMFERA
 40
0.0
  9
$CHAMFERB
 40
0.0
  9
$SKPOLY
 70
     0
  9
$TDCREATE
 40
2450392.957851
  9
$TDUPDATE
 40
2455493.945579
  9
$TDINDWG
 40
1.992456
  9
$TDUSRTIMER
 40
1.992456
  9
$USRTIMER
 70
     1
  9
$ANGBASE
 50
0.0
  9
$ANGDIR
 70
     0
  9
$PDMODE
 70
     0
  9
$PDSIZE
 40
0.0
  9
$PLINEWID
 40
0.0
  9
$COORDS
 70
     2
  9
$SPLFRAME
 70
     0
  9
$SPLINETYPE
 70
     6
  9
$SPLINESEGS
 70
     8
  9
$ATTDIA
 70
     0
  9
$ATTREQ
 70
     0
  9
$HANDLING
 70
     1
  9
$HANDSEED
  5
12B
  9
$SURFTAB1
 70
    24
  9
$SURFTAB2
 70
    24
  9
$SURFTYPE
 70
     6
  9
$SURFU
 70
     6
  9
$SURFV
 70
     6
  9
$UCSNAME
  2

  9
$UCSORG
 10
0.0
 20
0.0
 30
0.0
  9
$UCSXDIR
 10
1.0
 20
0.0
 30
0.0
  9
$UCSYDIR
 10
0.0
 20
1.0
 30
0.0
  9
$PUCSNAME
  2

  9
$PUCSORG
 10
0.0
 20
0.0
 30
0.0
  9
$PUCSXDIR
 10
1.0
 20
0.0
 30
0.0
  9
$PUCSYDIR
 10
0.0
 20
1.0
 30
0.0
  9
$USERI1
 70
     0
  9
$USERI2
 70
     0
  9
$USERI3
 70
     0
  9
$USERI4
 70
     0
  9
$USERI5
 70
     0
  9
$USERR1
 40
0.0
  9
$USERR2
 40
0.0
  9
$USERR3
 40
0.0
  9
$USERR4
 40
0.0
  9
$USERR5
 40
0.0
  9
$WORLDVIEW
 70
     1
  9
$SHADEDGE
 70
     0
  9
$SHADEDIF
 70
    70
  9
$TILEMODE
 70
     1
  9
$MAXACTVP
 70
    16
  9
$PLIMCHECK
 70
     0
  9
$PEXTMIN
 10
-0.805942
 20
0.005011
 30
0.0
  9
$PEXTMAX
 10
20.250094
 20
11.356329
 30
0.0
  9
$PLIMMIN
 10
0.0
 20
0.0
  9
$PLIMMAX
 10
12.0
 20
9.0
  9
$UNITMODE
 70
     0
  9
$VISRETAIN
 70
     0
  9
$PLINEGEN
 70
     0
  9
$PSLTSCALE
 70
     0
  0
ENDSEC
  0
SECTION
  2
TABLES
  0
TABLE
  2
VPORT
 70
     2
  0
VPORT
  2
*ACTIVE
 70
     0
 10
0.0
 20
0.0
 11
1.0
 21
1.0
 12
44.734325
 22
334.368974
 13
0.0
 23
0.0
 14
1.0
 24
1.0
 15
50.0
 25
50.0
 16
0.0
 26
0.0
 36
1.0
 17
0.0
 27
0.0
 37
0.0
 40
963.643458
 41
1.865779
 42
50.0
 43
0.0
 44
0.0
 50
0.0
 51
0.0
 71
     0
 72
   100
 73
     1
 74
     1
 75
     0
 76
     0
 77
     0
 78
     0
  0
ENDTAB
  0
TABLE
  2
LTYPE
 70
     2
  0
LTYPE
  2
CONTINUOUS
 70
     0
  3
Solid Line
 72
    65
 73
     0
 40
0.0
  0
LTYPE
  2
22
 70
     0
  3

 72
    65
 73
     2
 40
1.4
 49
1.2
 49
-0.2
  0
ENDTAB
  0
TABLE
  2
LAYER
 70
     9
  0
LAYER
  2
0
 70
     0
 62
     7
  6
CONTINUOUS
  0
LAYER
  2
DEFPOINTS
 70
     0
 62
     7
  6
CONTINUOUS
  0
LAYER
  2
TEAM-BODY
 70
     0
 62
     2
  6
CONTINUOUS
  0
LAYER
  2
TEAM-MAS
 70
     0
 62
     9
  6
CONTINUOUS
  0
LAYER
  2
TEAM-TXT
 70
     0
 62
    11
  6
CONTINUOUS
  0
LAYER
  2
TEAM-HIDE
 70
     0
 62
     8
  6
22
  0
LAYER
  2
TEAM-KAN
 70
     0
 62
     6
  6
CONTINUOUS
  0
LAYER
  2
TEAM-DET3
 70
     0
 62
    14
  6
CONTINUOUS
  0
LAYER
  2
TEAM-INSP
 70
     0
 62
     5
  6
CONTINUOUS
  0
ENDTAB
  0
TABLE
  2
STYLE
 70
     2
  0
STYLE
  2
STANDARD
 70
     0
 40
0.0
 41
1.0
 50
0.0
 71
     0
 42
200.0
  3
txt
  4

  0
STYLE
  2
TEAM
 70
     0
 40
0.0
 41
0.8
 50
15.0
 71
     0
 42
7.0
  3
ROMANS.shx
  4

  0
ENDTAB
  0
TABLE
  2
VIEW
 70
     0
  0
ENDTAB
  0
TABLE
  2
UCS
 70
     0
  0
ENDTAB
  0
TABLE
  2
APPID
 70
     1
  0
APPID
  2
ACAD
 70
     0
  0
ENDTAB
  0
TABLE
  2
DIMSTYLE
 70
     1
  0
DIMSTYLE
  2
TEAM
 70
     0
  3

  4

  5

  6

  7

 40
0.0
 41
20.0
 42
10.0
 43
1.0
 44
1.0
 45
0.0
 46
0.0
 47
0.0
 48
0.0
140
35.0
141
1.0
142
0.0
143
25.4
144
1.0
145
0.0
146
1.0
147
15.0
 71
     0
 72
     0
 73
     0
 74
     0
 75
     0
 76
     0
 77
     0
 78
     0
170
     0
171
     2
172
     0
173
     0
174
     0
175
     0
176
     9
177
     9
178
    11
  0
ENDTAB
  0
ENDSEC
  0
SECTION
  2
BLOCKS
  0
BLOCK
  8
0
  2
$MODEL_SPACE
 70
     0
 10
0.0
 20
0.0
 30
0.0
  3
$MODEL_SPACE
  1

  0
ENDBLK
  5
124
  8
0
  0
BLOCK
 67
     1
  8
0
  2
$PAPER_SPACE
 70
     0
 10
0.0
 20
0.0
 30
0.0
  3
$PAPER_SPACE
  1

  0
ENDBLK
  5
122
 67
     1
  8
0
  0
BLOCK
  8
0
  2
*D0
 70
     1
 10
0.0
 20
0.0
 30
0.0
  3
*D0
  1

  0
LINE
  5
44
  8
0
  6
BYBLOCK
 62
     9
 10
12850.0
 20
12584.0
 30
0.0
 11
12850.0
 21
12663.94658
 31
0.0
  0
LINE
  5
45
  8
0
  6
BYBLOCK
 62
     9
 10
11149.999973
 20
12584.0
 30
0.0
 11
11149.999973
 21
12663.94658
 31
0.0
  0
LINE
  5
46
  8
0
  6
BYBLOCK
 62
     9
 10
12830.0
 20
12662.94658
 30
0.0
 11
12055.263766
 21
12662.94658
 31
0.0
  0
LINE
  5
47
  8
0
  6
BYBLOCK
 62
     9
 10
11169.999973
 20
12662.94658
 30
0.0
 11
11944.736207
 21
12662.94658
 31
0.0
  0
SOLID
  5
48
  8
0
  6
BYBLOCK
 62
     9
 10
12830.0
 20
12666.279913
 30
0.0
 11
12830.0
 21
12659.613247
 31
0.0
 12
12850.0
 22
12662.94658
 32
0.0
 13
12850.0
 23
12662.94658
 33
0.0
  0
SOLID
  5
49
  8
0
  6
BYBLOCK
 62
     9
 10
11169.999973
 20
12666.279913
 30
0.0
 11
11169.999973
 21
12659.613247
 31
0.0
 12
11149.999973
 22
12662.94658
 32
0.0
 13
11149.999973
 23
12662.94658
 33
0.0
  0
TEXT
  5
4A
  8
0
  6
BYBLOCK
 62
    11
 10
11954.486207
 20
12645.44658
 30
0.0
 40
35.0
  1
1700
  0
POINT
  5
4B
  8
DEFPOINTS
  6
BYBLOCK
 62
     0
 10
12850.0
 20
12574.0
 30
0.0
  0
POINT
  5
4C
  8
DEFPOINTS
  6
BYBLOCK
 62
     0
 10
11149.999973
 20
12574.0
 30
0.0
  0
POINT
  5
4D
  8
DEFPOINTS
  6
BYBLOCK
 62
     0
 10
11149.999973
 20
12662.94658
 30
0.0
  0
ENDBLK
  5
4F
  8
0
  0
BLOCK
  8
0
  2
*D1
 70
     1
 10
0.0
 20
0.0
 30
0.0
  3
*D1
  1

  0
LINE
  5
34
  8
0
  6
BYBLOCK
 62
     9
 10
12854.0
 20
12580.0
 30
0.0
 11
12924.485019
 21
12580.0
 31
0.0
  0
LINE
  5
35
  8
0
  6
BYBLOCK
 62
     9
 10
12514.189987
 20
12129.999994
 30
0.0
 11
12924.485019
 21
12129.999994
 31
0.0
  0
LINE
  5
36
  8
0
  6
BYBLOCK
 62
     9
 10
12923.485019
 20
12560.0
 30
0.0
 11
12923.485019
 21
12403.263776
 31
0.0
  0
LINE
  5
37
  8
0
  6
BYBLOCK
 62
     9
 10
12923.485019
 20
12149.999994
 30
0.0
 11
12923.485019
 21
12306.736217
 31
0.0
  0
SOLID
  5
38
  8
0
  6
BYBLOCK
 62
     9
 10
12920.151685
 20
12560.0
 30
0.0
 11
12926.818352
 21
12560.0
 31
0.0
 12
12923.485019
 22
12580.0
 32
0.0
 13
12923.485019
 23
12580.0
 33
0.0
  0
SOLID
  5
39
  8
0
  6
BYBLOCK
 62
     9
 10
12920.151685
 20
12149.999994
 30
0.0
 11
12926.818352
 21
12149.999994
 31
0.0
 12
12923.485019
 22
12129.999994
 32
0.0
 13
12923.485019
 23
12129.999994
 33
0.0
  0
TEXT
  5
3A
  8
0
  6
BYBLOCK
 62
    11
 10
12940.985019
 20
12316.486217
 30
0.0
 40
35.0
  1
450
 50
90.0
  0
POINT
  5
3B
  8
DEFPOINTS
  6
BYBLOCK
 62
     0
 10
12844.0
 20
12580.0
 30
0.0
  0
POINT
  5
3C
  8
DEFPOINTS
  6
BYBLOCK
 62
     0
 10
12504.189987
 20
12129.999994
 30
0.0
  0
POINT
  5
3D
  8
DEFPOINTS
  6
BYBLOCK
 62
     0
 10
12923.485019
 20
12129.999994
 30
0.0
  0
ENDBLK
  5
3F
  8
0
  0
BLOCK
  8
0
  2
*D2
 70
     1
 10
0.0
 20
0.0
 30
0.0
  3
*D2
  1

  0
LINE
  5
22
  8
0
  6
BYBLOCK
 62
     9
 10
12500.999987
 20
12119.999994
 30
0.0
 11
12500.999987
 21
12071.991411
 31
0.0
  0
LINE
  5
23
  8
0
  6
BYBLOCK
 62
     9
 10
12448.999986
 20
12119.999994
 30
0.0
 11
12448.999986
 21
12071.991411
 31
0.0
  0
LINE
  5
24
  8
0
  6
BYBLOCK
 62
     9
 10
12520.999987
 20
12072.991411
 30
0.0
 11
12540.999987
 21
12072.991411
 31
0.0
  0
LINE
  5
25
  8
0
  6
BYBLOCK
 62
     9
 10
12428.999986
 20
12072.991411
 30
0.0
 11
12408.999986
 21
12072.991411
 31
0.0
  0
TEXT
  5
26
  8
0
  6
BYBLOCK
 62
    11
 10
12506.618773
 20
12055.491411
 30
0.0
 40
35.0
  1
52
  0
LINE
  5
27
  8
0
  6
BYBLOCK
 62
     9
 10
12500.999987
 20
12072.991411
 30
0.0
 11
12448.999986
 21
12072.991411
 31
0.0
  0
SOLID
  5
28
  8
0
  6
BYBLOCK
 62
     9
 10
12520.999987
 20
12076.324744
 30
0.0
 11
12520.999987
 21
12069.658078
 31
0.0
 12
12500.999987
 22
12072.991411
 32
0.0
 13
12500.999987
 23
12072.991411
 33
0.0
  0
SOLID
  5
29
  8
0
  6
BYBLOCK
 62
     9
 10
12428.999986
 20
12076.324744
 30
0.0
 11
12428.999986
 21
12069.658078
 31
0.0
 12
12448.999986
 22
12072.991411
 32
0.0
 13
12448.999986
 23
12072.991411
 33
0.0
  0
POINT
  5
2A
  8
DEFPOINTS
  6
BYBLOCK
 62
     0
 10
12500.999987
 20
12129.999994
 30
0.0
  0
POINT
  5
2C
  8
DEFPOINTS
  6
BYBLOCK
 62
     0
 10
12448.999986
 20
12129.999994
 30
0.0
  0
POINT
  5
2D
  8
DEFPOINTS
  6
BYBLOCK
 62
     0
 10
12448.999986
 20
12072.991411
 30
0.0
  0
ENDBLK
  5
2F
  8
0
  0
ENDSEC
  0
SECTION
  2
ENTITIES
  0
DIMENSION
  5
20
  8
TEAM-MAS
  2
*D2
 10
448.999986
 20
72.991411
 30
0.0
 11
532.169806
 21
72.991411
 31
0.0
 12
-12000.0
 22
-12000.0
 32
0.0
 70
   128
 13
500.999987
 23
129.999994
 33
0.0
 14
448.999986
 24
129.999994
 34
0.0
1001
ACAD
1000
DSTYLE
1002
{
1070
    40
1040
1.0
1002
}
  0
LINE
  5
30
  8
TEAM-BODY
 10
514.269987
 20
141.329994
 30
0.0
 11
553.494616
 21
148.933091
 31
0.0
  0
DIMENSION
  5
32
  8
TEAM-MAS
  2
*D1
 10
923.485019
 20
129.999994
 30
0.0
 11
923.485019
 21
354.999997
 31
0.0
 12
-12000.0
 22
-12000.0
 32
0.0
 13
844.0
 23
580.0
 33
0.0
 14
504.189987
 24
129.999994
 34
0.0
 50
90.0
1001
ACAD
1000
DSTYLE
1002
{
1070
    40
1040
1.0
1002
}
  0
LINE
  5
40
  8
TEAM-BODY
 10
-844.000027
 20
580.0
 30
0.0
 11
844.0
 21
580.0
 31
0.0
  0
LINE
  5
41
  8
TEAM-BODY
 10
-844.000027
 20
548.0
 30
0.0
 11
844.0
 21
548.0
 31
0.0
  0
DIMENSION
  5
42
  8
TEAM-MAS
  2
*D0
 10
-850.000027
 20
662.94658
 30
0.0
 11
-0.000013
 21
662.94658
 31
0.0
 12
-12000.0
 22
-12000.0
 32
0.0
 13
850.0
 23
574.0
 33
0.0
 14
-850.000027
 24
574.0
 34
0.0
1001
ACAD
1000
DSTYLE
1002
{
1070
    40
1040
1.0
1002
}
  0
LINE
  5
50
  8
TEAM-BODY
 10
-850.000027
 20
554.0
 30
0.0
 11
-850.000027
 21
574.0
 31
0.0
  0
ARC
  5
51
  8
TEAM-BODY
 10
-844.000027
 20
554.0
 30
0.0
 40
6.0
 50
180.0
 51
270.0
  0
ARC
  5
52
  8
TEAM-BODY
 10
-844.000027
 20
574.0
 30
0.0
 40
6.0
 50
90.0
 51
180.0
  0
TEXT
  5
53
  8
TEAM-TXT
 10
-724.932635
 20
495.75601
 30
0.0
 40
30.0
  1
team 121713
 41
0.8
 51
15.0
  7
TEAM
  0
LINE
  5
56
  8
TEAM-DET3
 10
336.311915
 20
114.745045
 30
0.0
 11
336.311915
 21
142.67375
 31
0.0
  0
LINE
  5
58
  8
TEAM-DET3
 10
347.476028
 20
114.745045
 30
0.0
 11
347.476028
 21
142.522869
 31
0.0
  0
LINE
  5
59
  8
TEAM-DET3
 10
336.311915
 20
114.745045
 30
0.0
 11
347.476028
 21
114.745045
 31
0.0
  0
LINE
  5
5A
  8
TEAM-DET3
 10
331.893972
 20
88.237384
 30
0.0
 11
336.311915
 21
114.745045
 31
0.0
  0
LINE
  5
5B
  8
TEAM-DET3
 10
351.893972
 20
88.237384
 30
0.0
 11
347.476028
 21
114.745045
 31
0.0
  0
LINE
  5
5C
  8
TEAM-DET3
 10
331.893972
 20
40.0
 30
0.0
 11
331.893972
 21
88.237384
 31
0.0
  0
LINE
  5
5D
  8
TEAM-DET3
 10
351.893972
 20
88.237384
 30
0.0
 11
331.893972
 21
88.237384
 31
0.0
  0
LINE
  5
5E
  8
TEAM-DET3
 10
351.893972
 20
40.0
 30
0.0
 11
351.893972
 21
88.237384
 31
0.0
  0
LINE
  5
5F
  8
TEAM-DET3
 10
326.893972
 20
0.0
 30
0.0
 11
326.893972
 21
40.0
 31
0.0
  0
LINE
  5
60
  8
TEAM-DET3
 10
356.893972
 20
0.0
 30
0.0
 11
356.893972
 21
40.0
 31
0.0
  0
LINE
  5
61
  8
TEAM-DET3
 10
356.893972
 20
40.0
 30
0.0
 11
326.893972
 21
40.0
 31
0.0
  0
LINE
  5
62
  8
TEAM-DET3
 10
326.893972
 20
0.0
 30
0.0
 11
356.893972
 21
0.0
 31
0.0
  0
ARC
  5
63
  8
TEAM-KAN
 10
445.809986
 20
137.999994
 30
0.0
 40
5.0
 50
210.2113
 51
270.0
  0
ARC
  5
65
  8
TEAM-KAN
 10
445.809986
 20
137.999994
 30
0.0
 40
8.0
 50
210.196
 51
270.0
  0
ARC
  5
66
  8
TEAM-KAN
 10
431.119986
 20
129.439994
 30
0.0
 40
9.0
 50
30.19201
 51
88.50761
  0
ARC
  5
67
  8
TEAM-KAN
 10
431.119986
 20
129.439994
 30
0.0
 40
12.0
 50
30.18664
 51
88.48913
  0
LINE
  5
68
  8
TEAM-KAN
 10
448.999986
 20
129.999994
 30
0.0
 11
448.999986
 21
132.999994
 31
0.0
  0
LINE
  5
69
  8
TEAM-KAN
 10
445.809986
 20
129.999994
 30
0.0
 11
504.189987
 21
129.999994
 31
0.0
  0
LINE
  5
6A
  8
TEAM-KAN
 10
445.809986
 20
132.999994
 30
0.0
 11
504.189987
 21
132.999994
 31
0.0
  0
ARC
  5
6B
  8
TEAM-BODY
 10
474.999987
 20
1640.810016
 30
0.0
 40
1500.000023
 50
268.5
 51
271.5
  0
LINE
  5
6C
  8
TEAM-KAN
 10
500.999987
 20
129.999994
 30
0.0
 11
500.999987
 21
132.999994
 31
0.0
  0
ARC
  5
6D
  8
TEAM-KAN
 10
504.189987
 20
137.999994
 30
0.0
 40
5.0
 50
270.0
 51
329.8112
  0
ARC
  5
6E
  8
TEAM-KAN
 10
504.189987
 20
137.999994
 30
0.0
 40
8.0
 50
270.0
 51
329.804
  0
ARC
  5
6F
  8
TEAM-KAN
 10
518.889987
 20
129.439994
 30
0.0
 40
9.0
 50
91.51724
 51
149.7955
  0
ARC
  5
70
  8
TEAM-KAN
 10
518.889987
 20
129.439994
 30
0.0
 40
12.0
 50
91.51086
 51
149.804
  0
CIRCLE
  5
71
  8
TEAM-INSP
 10
0.0
 20
0.0
 30
0.0
 40
10.0
  0
LINE
  5
73
  8
TEAM-DET3
 10
-369.77941
 20
114.745045
 30
0.0
 11
-369.77941
 21
152.216477
 31
0.0
  0
LINE
  5
74
  8
TEAM-DET3
 10
-358.615298
 20
114.745045
 30
0.0
 11
-358.615298
 21
152.065596
 31
0.0
  0
LINE
  5
75
  8
TEAM-DET3
 10
-379.197354
 20
0.0
 30
0.0
 11
-379.197354
 21
40.0
 31
0.0
  0
LINE
  5
76
  8
TEAM-DET3
 10
-349.197354
 20
0.0
 30
0.0
 11
-349.197354
 21
40.0
 31
0.0
  0
LINE
  5
77
  8
TEAM-DET3
 10
-349.197354
 20
40.0
 30
0.0
 11
-379.197354
 21
40.0
 31
0.0
  0
LINE
  5
78
  8
TEAM-DET3
 10
-369.77941
 20
114.745045
 30
0.0
 11
-358.615298
 21
114.745045
 31
0.0
  0
LINE
  5
79
  8
TEAM-DET3
 10
-374.197354
 20
88.237384
 30
0.0
 11
-369.77941
 21
114.745045
 31
0.0
  0
LINE
  5
7A
  8
TEAM-DET3
 10
-354.197354
 20
88.237384
 30
0.0
 11
-358.615298
 21
114.745045
 31
0.0
  0
LINE
  5
7B
  8
TEAM-DET3
 10
-374.197354
 20
40.0
 30
0.0
 11
-374.197354
 21
88.237384
 31
0.0
  0
LINE
  5
7C
  8
TEAM-DET3
 10
-354.197354
 20
88.237384
 30
0.0
 11
-374.197354
 21
88.237384
 31
0.0
  0
LINE
  5
7D
  8
TEAM-DET3
 10
-354.197354
 20
40.0
 30
0.0
 11
-354.197354
 21
88.237384
 31
0.0
  0
LINE
  5
7E
  8
TEAM-DET3
 10
-379.197354
 20
0.0
 30
0.0
 11
-349.197354
 21
0.0
 31
0.0
  0
ARC
  5
7F
  8
TEAM-BODY
 10
-462.570021
 20
293.469996
 30
0.0
 40
140.000002
 50
216.9447
 51
268.4987
  0
LINE
  5
80
  8
TEAM-HIDE
 10
356.893972
 20
0.0
 30
0.0
 11
-379.197354
 21
0.0
 31
0.0
  0
LINE
  5
83
  8
TEAM-BODY
 10
435.739986
 20
141.329994
 30
0.0
 11
-466.230021
 21
153.519994
 31
0.0
  0
ARC
  5
84
  8
TEAM-BODY
 10
1390.544928
 20
1594.694643
 30
0.0
 40
2404.262813
 50
205.807459
 51
215.184645
  0
ARC
  5
85
  8
TEAM-BODY
 10
844.0
 20
574.0
 30
0.0
 40
6.0
 50
0.0
 51
90.0
  0
ARC
  5
86
  8
TEAM-BODY
 10
844.0
 20
554.0
 30
0.0
 40
6.0
 50
270.0
 51
0.0
  0
LINE
  5
87
  8
TEAM-BODY
 10
850.0
 20
554.0
 30
0.0
 11
850.0
 21
574.0
 31
0.0
  0
ARC
  5
88
  8
TEAM-BODY
 10
-1164.077017
 20
1031.187974
 30
0.0
 40
1997.333795
 50
335.711548
 51
346.000305
  0
ARC
  5
89
  8
TEAM-BODY
 10
531.094031
 20
304.626216
 30
0.0
 40
157.29633
 50
278.187332
 51
322.845191
  0
ENDSEC
  0
EOF
