  0
SECTION
  2
HEADER
  9
$ACADVER
  1
AC1009
  9
$INSBASE
 10
0.0
 20
0.0
 30
0.0
  9
$EXTMIN
 10
-910.426915
 20
-410.457445
 30
0.0
  9
$EXTMAX
 10
1070.742039
 20
576.590559
 30
0.0
  9
$LIMMIN
 10
-910.426915
 20
-410.457445
  9
$LIMMAX
 10
1070.742039
 20
576.590559
  9
$ORTHOMODE
 70
     1
  9
$REGENMODE
 70
     1
  9
$FILLMODE
 70
     1
  9
$QTEXTMODE
 70
     0
  9
$MIRRTEXT
 70
     0
  9
$DRAGMODE
 70
     2
  9
$LTSCALE
 40
25.0
  9
$OSMODE
 70
     0
  9
$ATTMODE
 70
     1
  9
$TEXTSIZE
 40
200.0
  9
$TRACEWID
 40
1.0
  9
$TEXTSTYLE
  7
STANDARD
  9
$CLAYER
  8
TEAM-MAS
  9
$CELTYPE
  6
BYLAYER
  9
$CECOLOR
 62
   256
  9
$DIMSCALE
 40
0.0
  9
$DIMASZ
 40
20.0
  9
$DIMEXO
 40
10.0
  9
$DIMDLI
 40
1.0
  9
$DIMRND
 40
0.0
  9
$DIMDLE
 40
0.0
  9
$DIMEXE
 40
1.0
  9
$DIMTP
 40
0.0
  9
$DIMTM
 40
0.0
  9
$DIMTXT
 40
35.0
  9
$DIMCEN
 40
1.0
  9
$DIMTSZ
 40
0.0
  9
$DIMTOL
 70
     0
  9
$DIMLIM
 70
     0
  9
$DIMTIH
 70
     0
  9
$DIMTOH
 70
     0
  9
$DIMSE1
 70
     0
  9
$DIMSE2
 70
     0
  9
$DIMTAD
 70
     0
  9
$DIMZIN
 70
     0
  9
$DIMBLK
  1

  9
$DIMASO
 70
     1
  9
$DIMSHO
 70
     0
  9
$DIMPOST
  1

  9
$DIMAPOST
  1

  9
$DIMALT
 70
     0
  9
$DIMALTD
 70
     2
  9
$DIMALTF
 40
25.4
  9
$DIMLFAC
 40
1.0
  9
$DIMTOFL
 70
     0
  9
$DIMTVP
 40
0.0
  9
$DIMTIX
 70
     0
  9
$DIMSOXD
 70
     0
  9
$DIMSAH
 70
     0
  9
$DIMBLK1
  1

  9
$DIMBLK2
  1

  9
$DIMSTYLE
  2
TEAM
  9
$DIMCLRD
 70
     9
  9
$DIMCLRE
 70
     9
  9
$DIMCLRT
 70
    11
  9
$DIMTFAC
 40
1.0
  9
$DIMGAP
 40
15.0
  9
$LUNITS
 70
     2
  9
$LUPREC
 70
     1
  9
$SKETCHINC
 40
1.0
  9
$FILLETRAD
 40
50.0
  9
$AUNITS
 70
     0
  9
$AUPREC
 70
     0
  9
$MENU
  1
ROPLANS
  9
$ELEVATION
 40
0.0
  9
$PELEVATION
 40
0.0
  9
$THICKNESS
 40
0.0
  9
$LIMCHECK
 70
     0
  9
$BLIPMODE
 70
     1
  9
$CHAMFERA
 40
0.0
  9
$CHAMFERB
 40
0.0
  9
$SKPOLY
 70
     0
  9
$TDCREATE
 40
2450392.957851
  9
$TDUPDATE
 40
2455493.945579
  9
$TDINDWG
 40
1.992456
  9
$TDUSRTIMER
 40
1.992456
  9
$USRTIMER
 70
     1
  9
$ANGBASE
 50
0.0
  9
$ANGDIR
 70
     0
  9
$PDMODE
 70
     0
  9
$PDSIZE
 40
0.0
  9
$PLINEWID
 40
0.0
  9
$COORDS
 70
     2
  9
$SPLFRAME
 70
     0
  9
$SPLINETYPE
 70
     6
  9
$SPLINESEGS
 70
     8
  9
$ATTDIA
 70
     0
  9
$ATTREQ
 70
     0
  9
$HANDLING
 70
     1
  9
$HANDSEED
  5
4A7
  9
$SURFTAB1
 70
    24
  9
$SURFTAB2
 70
    24
  9
$SURFTYPE
 70
     6
  9
$SURFU
 70
     6
  9
$SURFV
 70
     6
  9
$UCSNAME
  2

  9
$UCSORG
 10
0.0
 20
0.0
 30
0.0
  9
$UCSXDIR
 10
1.0
 20
0.0
 30
0.0
  9
$UCSYDIR
 10
0.0
 20
1.0
 30
0.0
  9
$PUCSNAME
  2

  9
$PUCSORG
 10
0.0
 20
0.0
 30
0.0
  9
$PUCSXDIR
 10
1.0
 20
0.0
 30
0.0
  9
$PUCSYDIR
 10
0.0
 20
1.0
 30
0.0
  9
$USERI1
 70
     0
  9
$USERI2
 70
     0
  9
$USERI3
 70
     0
  9
$USERI4
 70
     0
  9
$USERI5
 70
     0
  9
$USERR1
 40
0.0
  9
$USERR2
 40
0.0
  9
$USERR3
 40
0.0
  9
$USERR4
 40
0.0
  9
$USERR5
 40
0.0
  9
$WORLDVIEW
 70
     1
  9
$SHADEDGE
 70
     0
  9
$SHADEDIF
 70
    70
  9
$TILEMODE
 70
     1
  9
$MAXACTVP
 70
    16
  9
$PLIMCHECK
 70
     0
  9
$PEXTMIN
 10
-0.805942
 20
0.005011
 30
0.0
  9
$PEXTMAX
 10
20.250094
 20
11.356329
 30
0.0
  9
$PLIMMIN
 10
0.0
 20
0.0
  9
$PLIMMAX
 10
12.0
 20
9.0
  9
$UNITMODE
 70
     0
  9
$VISRETAIN
 70
     0
  9
$PLINEGEN
 70
     0
  9
$PSLTSCALE
 70
     0
  0
ENDSEC
  0
SECTION
  2
TABLES
  0
TABLE
  2
VPORT
 70
     2
  0
VPORT
  2
*ACTIVE
 70
     0
 10
0.0
 20
0.0
 11
1.0
 21
1.0
 12
80.157562
 22
83.066557
 13
0.0
 23
0.0
 14
1.0
 24
1.0
 15
50.0
 25
50.0
 16
0.0
 26
0.0
 36
1.0
 17
0.0
 27
0.0
 37
0.0
 40
1065.34072
 41
1.865779
 42
50.0
 43
0.0
 44
0.0
 50
0.0
 51
0.0
 71
     0
 72
   100
 73
     1
 74
     1
 75
     0
 76
     0
 77
     0
 78
     0
  0
ENDTAB
  0
TABLE
  2
LTYPE
 70
     2
  0
LTYPE
  2
CONTINUOUS
 70
     0
  3
Solid Line
 72
    65
 73
     0
 40
0.0
  0
LTYPE
  2
31
 70
     0
  3

 72
    65
 73
     4
 40
2.1
 49
1.5
 49
-0.3
 49
0.0
 49
-0.3
  0
ENDTAB
  0
TABLE
  2
LAYER
 70
     9
  0
LAYER
  2
0
 70
     0
 62
     7
  6
CONTINUOUS
  0
LAYER
  2
DEFPOINTS
 70
     0
 62
     7
  6
CONTINUOUS
  0
LAYER
  2
TEAM-BODY
 70
     0
 62
     2
  6
CONTINUOUS
  0
LAYER
  2
TEAM-AXE
 70
     0
 62
    10
  6
31
  0
LAYER
  2
TEAM-MAS
 70
     0
 62
     9
  6
CONTINUOUS
  0
LAYER
  2
TEAM-TXT
 70
     0
 62
    11
  6
CONTINUOUS
  0
LAYER
  2
TEAM-DET1
 70
     0
 62
     4
  6
CONTINUOUS
  0
LAYER
  2
TEAM-KAN
 70
     0
 62
     6
  6
CONTINUOUS
  0
LAYER
  2
TEAM-INSP
 70
     0
 62
     5
  6
CONTINUOUS
  0
ENDTAB
  0
TABLE
  2
STYLE
 70
     2
  0
STYLE
  2
STANDARD
 70
     0
 40
0.0
 41
1.0
 50
0.0
 71
     0
 42
200.0
  3
txt
  4

  0
STYLE
  2
TEAM
 70
     0
 40
0.0
 41
0.8
 50
15.0
 71
     0
 42
7.0
  3
ROMANS.shx
  4

  0
ENDTAB
  0
TABLE
  2
VIEW
 70
     0
  0
ENDTAB
  0
TABLE
  2
UCS
 70
     0
  0
ENDTAB
  0
TABLE
  2
APPID
 70
     1
  0
APPID
  2
ACAD
 70
     0
  0
ENDTAB
  0
TABLE
  2
DIMSTYLE
 70
     1
  0
DIMSTYLE
  2
TEAM
 70
     0
  3

  4

  5

  6

  7

 40
0.0
 41
20.0
 42
10.0
 43
1.0
 44
1.0
 45
0.0
 46
0.0
 47
0.0
 48
0.0
140
35.0
141
1.0
142
0.0
143
25.4
144
1.0
145
0.0
146
1.0
147
15.0
 71
     0
 72
     0
 73
     0
 74
     0
 75
     0
 76
     0
 77
     0
 78
     0
170
     0
171
     2
172
     0
173
     0
174
     0
175
     0
176
     9
177
     9
178
    11
  0
ENDTAB
  0
ENDSEC
  0
SECTION
  2
BLOCKS
  0
BLOCK
  8
0
  2
$MODEL_SPACE
 70
     0
 10
0.0
 20
0.0
 30
0.0
  3
$MODEL_SPACE
  1

  0
ENDBLK
  5
41D
  8
0
  0
BLOCK
 67
     1
  8
0
  2
$PAPER_SPACE
 70
     0
 10
0.0
 20
0.0
 30
0.0
  3
$PAPER_SPACE
  1

  0
ENDBLK
  5
41B
 67
     1
  8
0
  0
BLOCK
  8
0
  2
*D0
 70
     1
 10
0.0
 20
0.0
 30
0.0
  3
*D0
  1

  0
LINE
  5
25
  8
0
  6
BYBLOCK
 62
     9
 10
4900.0
 20
16010.0
 30
0.0
 11
4900.0
 21
16561.800293
 31
0.0
  0
LINE
  5
26
  8
0
  6
BYBLOCK
 62
     9
 10
3099.999973
 20
16010.0
 30
0.0
 11
3099.999973
 21
16561.800293
 31
0.0
  0
LINE
  5
27
  8
0
  6
BYBLOCK
 62
     9
 10
4880.0
 20
16560.800293
 30
0.0
 11
4055.263766
 21
16560.800293
 31
0.0
  0
LINE
  5
28
  8
0
  6
BYBLOCK
 62
     9
 10
3119.999973
 20
16560.800293
 30
0.0
 11
3944.736207
 21
16560.800293
 31
0.0
  0
SOLID
  5
29
  8
0
  6
BYBLOCK
 62
     9
 10
4880.0
 20
16564.133626
 30
0.0
 11
4880.0
 21
16557.46696
 31
0.0
 12
4900.0
 22
16560.800293
 32
0.0
 13
4900.0
 23
16560.800293
 33
0.0
  0
SOLID
  5
2A
  8
0
  6
BYBLOCK
 62
     9
 10
3119.999973
 20
16564.133626
 30
0.0
 11
3119.999973
 21
16557.46696
 31
0.0
 12
3099.999973
 22
16560.800293
 32
0.0
 13
3099.999973
 23
16560.800293
 33
0.0
  0
TEXT
  5
2B
  8
0
  6
BYBLOCK
 62
    11
 10
3954.486207
 20
16543.300293
 30
0.0
 40
35.0
  1
1800
  0
POINT
  5
2C
  8
DEFPOINTS
  6
BYBLOCK
 62
     0
 10
4900.0
 20
16000.0
 30
0.0
  0
POINT
  5
2E
  8
DEFPOINTS
  6
BYBLOCK
 62
     0
 10
3099.999973
 20
16000.0
 30
0.0
  0
POINT
  5
2F
  8
DEFPOINTS
  6
BYBLOCK
 62
     0
 10
3099.999973
 20
16560.800293
 30
0.0
  0
ENDBLK
  5
31
  8
0
  0
BLOCK
  8
0
  2
*D1
 70
     1
 10
0.0
 20
0.0
 30
0.0
  3
*D1
  1

  0
LINE
  5
5E
  8
0
  6
BYBLOCK
 62
     9
 10
4910.0
 20
16400.0
 30
0.0
 11
5055.869925
 21
16400.0
 31
0.0
  0
LINE
  5
5F
  8
0
  6
BYBLOCK
 62
     9
 10
4910.0
 20
15600.0
 30
0.0
 11
5055.869925
 21
15600.0
 31
0.0
  0
LINE
  5
60
  8
0
  6
BYBLOCK
 62
     9
 10
5054.869925
 20
16380.0
 30
0.0
 11
5054.869925
 21
16046.51378
 31
0.0
  0
LINE
  5
61
  8
0
  6
BYBLOCK
 62
     9
 10
5054.869925
 20
15620.0
 30
0.0
 11
5054.869925
 21
15953.48622
 31
0.0
  0
SOLID
  5
62
  8
0
  6
BYBLOCK
 62
     9
 10
5051.536592
 20
16380.0
 30
0.0
 11
5058.203258
 21
16380.0
 31
0.0
 12
5054.869925
 22
16400.0
 32
0.0
 13
5054.869925
 23
16400.0
 33
0.0
  0
SOLID
  5
63
  8
0
  6
BYBLOCK
 62
     9
 10
5051.536592
 20
15620.0
 30
0.0
 11
5058.203258
 21
15620.0
 31
0.0
 12
5054.869925
 22
15600.0
 32
0.0
 13
5054.869925
 23
15600.0
 33
0.0
  0
TEXT
  5
64
  8
0
  6
BYBLOCK
 62
    11
 10
5072.369925
 20
15963.23622
 30
0.0
 40
35.0
  1
800
 50
90.0
  0
POINT
  5
65
  8
DEFPOINTS
  6
BYBLOCK
 62
     0
 10
4900.0
 20
16400.0
 30
0.0
  0
POINT
  5
66
  8
DEFPOINTS
  6
BYBLOCK
 62
     0
 10
4900.0
 20
15600.0
 30
0.0
  0
POINT
  5
67
  8
DEFPOINTS
  6
BYBLOCK
 62
     0
 10
5054.869925
 20
15600.0
 30
0.0
  0
ENDBLK
  5
69
  8
0
  0
BLOCK
  8
0
  2
*D2
 70
     1
 10
0.0
 20
0.0
 30
0.0
  3
*D2
  1

  0
LINE
  5
4E
  8
0
  6
BYBLOCK
 62
     9
 10
4900.0
 20
16010.0
 30
0.0
 11
4900.0
 21
16479.317306
 31
0.0
  0
LINE
  5
4F
  8
0
  6
BYBLOCK
 62
     9
 10
4511.999987
 20
16010.0
 30
0.0
 11
4511.999987
 21
16479.317306
 31
0.0
  0
LINE
  5
50
  8
0
  6
BYBLOCK
 62
     9
 10
4880.0
 20
16478.317306
 30
0.0
 11
4752.499993
 21
16478.317306
 31
0.0
  0
LINE
  5
51
  8
0
  6
BYBLOCK
 62
     9
 10
4531.999987
 20
16478.317306
 30
0.0
 11
4659.499993
 21
16478.317306
 31
0.0
  0
SOLID
  5
52
  8
0
  6
BYBLOCK
 62
     9
 10
4880.0
 20
16481.650639
 30
0.0
 11
4880.0
 21
16474.983973
 31
0.0
 12
4900.0
 22
16478.317306
 32
0.0
 13
4900.0
 23
16478.317306
 33
0.0
  0
SOLID
  5
53
  8
0
  6
BYBLOCK
 62
     9
 10
4531.999987
 20
16481.650639
 30
0.0
 11
4531.999987
 21
16474.983973
 31
0.0
 12
4511.999987
 22
16478.317306
 32
0.0
 13
4511.999987
 23
16478.317306
 33
0.0
  0
TEXT
  5
54
  8
0
  6
BYBLOCK
 62
    11
 10
4669.249993
 20
16460.817306
 30
0.0
 40
35.0
  1
388
  0
POINT
  5
55
  8
DEFPOINTS
  6
BYBLOCK
 62
     0
 10
4900.0
 20
16000.0
 30
0.0
  0
POINT
  5
56
  8
DEFPOINTS
  6
BYBLOCK
 62
     0
 10
4511.999987
 20
16000.0
 30
0.0
  0
POINT
  5
57
  8
DEFPOINTS
  6
BYBLOCK
 62
     0
 10
4511.999987
 20
16478.317306
 30
0.0
  0
ENDBLK
  5
59
  8
0
  0
BLOCK
  8
0
  2
*D3
 70
     1
 10
0.0
 20
0.0
 30
0.0
  3
*D3
  1

  0
LINE
  5
39
  8
0
  6
BYBLOCK
 62
     9
 10
4509.999994
 20
16400.000006
 30
0.0
 11
4980.943382
 21
16400.000006
 31
0.0
  0
LINE
  5
3A
  8
0
  6
BYBLOCK
 62
     9
 10
4521.999987
 20
16000.0
 30
0.0
 11
4980.943382
 21
16000.0
 31
0.0
  0
LINE
  5
3B
  8
0
  6
BYBLOCK
 62
     9
 10
4979.943382
 20
16380.000006
 30
0.0
 11
4979.943382
 21
16248.263783
 31
0.0
  0
LINE
  5
3C
  8
0
  6
BYBLOCK
 62
     9
 10
4979.943382
 20
16020.0
 30
0.0
 11
4979.943382
 21
16151.736223
 31
0.0
  0
SOLID
  5
3D
  8
0
  6
BYBLOCK
 62
     9
 10
4976.610049
 20
16380.000006
 30
0.0
 11
4983.276715
 21
16380.000006
 31
0.0
 12
4979.943382
 22
16400.000006
 32
0.0
 13
4979.943382
 23
16400.000006
 33
0.0
  0
SOLID
  5
3E
  8
0
  6
BYBLOCK
 62
     9
 10
4976.610049
 20
16020.0
 30
0.0
 11
4983.276715
 21
16020.0
 31
0.0
 12
4979.943382
 22
16000.0
 32
0.0
 13
4979.943382
 23
16000.0
 33
0.0
  0
TEXT
  5
3F
  8
0
  6
BYBLOCK
 62
    11
 10
4997.443382
 20
16161.486223
 30
0.0
 40
35.0
  1
400
 50
90.0
  0
POINT
  5
40
  8
DEFPOINTS
  6
BYBLOCK
 62
     0
 10
4499.999994
 20
16400.000006
 30
0.0
  0
POINT
  5
41
  8
DEFPOINTS
  6
BYBLOCK
 62
     0
 10
4511.999987
 20
16000.0
 30
0.0
  0
POINT
  5
42
  8
DEFPOINTS
  6
BYBLOCK
 62
     0
 10
4979.943382
 20
16000.0
 30
0.0
  0
ENDBLK
  5
44
  8
0
  0
ENDSEC
  0
SECTION
  2
ENTITIES
  0
TEXT
  5
20
  8
TEAM-TXT
 10
-531.400466
 20
293.014342
 30
0.0
 40
30.0
  1
team 121714
 41
0.8
 51
15.0
  7
TEAM
  0
DIMENSION
  5
23
  8
TEAM-MAS
  2
*D0
 10
-900.000027
 20
560.800293
 30
0.0
 11
-0.000013
 21
560.800293
 31
0.0
 12
-4000.0
 22
-16000.0
 32
0.0
 13
900.0
 23
0.0
 33
0.0
 14
-900.000027
 24
0.0
 34
0.0
1001
ACAD
1000
DSTYLE
1002
{
1070
    40
1040
1.0
1002
}
  0
POLYLINE
  5
32
  8
TEAM-DET1
 66
     1
 10
0.0
 20
0.0
 30
0.0
  0
VERTEX
  5
423
  8
TEAM-DET1
 10
-840.000026
 20
0.0
 30
0.0
 42
-0.414214
  0
VERTEX
  5
424
  8
TEAM-DET1
 10
-500.000021
 20
340.000005
 30
0.0
  0
VERTEX
  5
425
  8
TEAM-DET1
 10
499.999994
 20
340.000005
 30
0.0
 42
-0.414214
  0
VERTEX
  5
426
  8
TEAM-DET1
 10
839.999999
 20
0.0
 30
0.0
  0
SEQEND
  5
427
  8
TEAM-DET1
  0
POLYLINE
  5
34
  8
TEAM-DET1
 66
     1
 10
0.0
 20
0.0
 30
0.0
  0
VERTEX
  5
428
  8
TEAM-DET1
 10
-840.000026
 20
0.0
 30
0.0
 42
0.414214
  0
VERTEX
  5
429
  8
TEAM-DET1
 10
-500.000021
 20
-340.000005
 30
0.0
  0
VERTEX
  5
42A
  8
TEAM-DET1
 10
499.999994
 20
-340.000005
 30
0.0
 42
0.414214
  0
VERTEX
  5
42B
  8
TEAM-DET1
 10
839.999999
 20
0.0
 30
0.0
  0
SEQEND
  5
42C
  8
TEAM-DET1
  0
POLYLINE
  5
35
  8
TEAM-BODY
 66
     1
 10
0.0
 20
0.0
 30
0.0
 70
     1
  0
VERTEX
  5
42D
  8
TEAM-BODY
 10
-900.0
 20
-400.0
 30
0.0
  0
VERTEX
  5
42E
  8
TEAM-BODY
 10
900.0
 20
-400.0
 30
0.0
  0
VERTEX
  5
42F
  8
TEAM-BODY
 10
900.0
 20
400.0
 30
0.0
  0
VERTEX
  5
430
  8
TEAM-BODY
 10
-900.0
 20
400.0
 30
0.0
  0
SEQEND
  5
431
  8
TEAM-BODY
  0
DIMENSION
  5
37
  8
TEAM-MAS
  2
*D3
 10
979.943382
 20
0.0
 30
0.0
 11
979.943382
 21
200.000003
 31
0.0
 12
-4000.0
 22
-16000.0
 32
0.0
 13
499.999994
 23
400.000006
 33
0.0
 14
511.999987
 24
0.0
 34
0.0
 50
90.0
1001
ACAD
1000
DSTYLE
1002
{
1070
    40
1040
1.0
1002
}
  0
POLYLINE
  5
45
  8
TEAM-KAN
 66
     1
 10
0.0
 20
0.0
 30
0.0
  0
VERTEX
  5
432
  8
TEAM-KAN
 10
795.422735
 20
-26.143864
 30
0.0
  0
VERTEX
  5
433
  8
TEAM-KAN
 10
795.732735
 20
-26.093864
 30
0.0
  0
VERTEX
  5
434
  8
TEAM-KAN
 10
796.052735
 20
-25.943864
 30
0.0
  0
VERTEX
  5
435
  8
TEAM-KAN
 10
796.362735
 20
-25.683864
 30
0.0
  0
VERTEX
  5
436
  8
TEAM-KAN
 10
796.662735
 20
-25.333864
 30
0.0
  0
VERTEX
  5
437
  8
TEAM-KAN
 10
796.962735
 20
-24.873864
 30
0.0
  0
VERTEX
  5
438
  8
TEAM-KAN
 10
797.262735
 20
-24.323864
 30
0.0
  0
VERTEX
  5
439
  8
TEAM-KAN
 10
797.552735
 20
-23.673864
 30
0.0
  0
VERTEX
  5
43A
  8
TEAM-KAN
 10
797.832735
 20
-22.933864
 30
0.0
  0
VERTEX
  5
43B
  8
TEAM-KAN
 10
798.102735
 20
-22.093864
 30
0.0
  0
VERTEX
  5
43C
  8
TEAM-KAN
 10
798.362735
 20
-21.183864
 30
0.0
  0
VERTEX
  5
43D
  8
TEAM-KAN
 10
798.612735
 20
-20.183864
 30
0.0
  0
VERTEX
  5
43E
  8
TEAM-KAN
 10
798.842735
 20
-19.093864
 30
0.0
  0
VERTEX
  5
43F
  8
TEAM-KAN
 10
799.072735
 20
-17.943864
 30
0.0
  0
VERTEX
  5
440
  8
TEAM-KAN
 10
799.272735
 20
-16.723864
 30
0.0
  0
VERTEX
  5
441
  8
TEAM-KAN
 10
799.462735
 20
-15.433864
 30
0.0
  0
VERTEX
  5
442
  8
TEAM-KAN
 10
799.642735
 20
-14.073864
 30
0.0
  0
VERTEX
  5
443
  8
TEAM-KAN
 10
799.802735
 20
-12.673864
 30
0.0
  0
VERTEX
  5
444
  8
TEAM-KAN
 10
799.942735
 20
-11.213864
 30
0.0
  0
VERTEX
  5
445
  8
TEAM-KAN
 10
800.072735
 20
-9.723864
 30
0.0
  0
VERTEX
  5
446
  8
TEAM-KAN
 10
800.182735
 20
-8.183864
 30
0.0
  0
VERTEX
  5
447
  8
TEAM-KAN
 10
800.262735
 20
-6.613864
 30
0.0
  0
VERTEX
  5
448
  8
TEAM-KAN
 10
800.332735
 20
-5.023864
 30
0.0
  0
VERTEX
  5
449
  8
TEAM-KAN
 10
800.382735
 20
-3.403864
 30
0.0
  0
VERTEX
  5
44A
  8
TEAM-KAN
 10
800.412735
 20
-1.773864
 30
0.0
  0
VERTEX
  5
44B
  8
TEAM-KAN
 10
800.422735
 20
-0.143864
 30
0.0
  0
VERTEX
  5
44C
  8
TEAM-KAN
 10
800.412735
 20
1.486136
 30
0.0
  0
VERTEX
  5
44D
  8
TEAM-KAN
 10
800.382735
 20
3.116136
 30
0.0
  0
VERTEX
  5
44E
  8
TEAM-KAN
 10
800.332735
 20
4.726136
 30
0.0
  0
VERTEX
  5
44F
  8
TEAM-KAN
 10
800.262735
 20
6.316136
 30
0.0
  0
VERTEX
  5
450
  8
TEAM-KAN
 10
800.182735
 20
7.886136
 30
0.0
  0
VERTEX
  5
451
  8
TEAM-KAN
 10
800.072735
 20
9.426136
 30
0.0
  0
VERTEX
  5
452
  8
TEAM-KAN
 10
799.942735
 20
10.926136
 30
0.0
  0
VERTEX
  5
453
  8
TEAM-KAN
 10
799.802735
 20
12.376136
 30
0.0
  0
VERTEX
  5
454
  8
TEAM-KAN
 10
799.642735
 20
13.786136
 30
0.0
  0
VERTEX
  5
455
  8
TEAM-KAN
 10
799.462735
 20
15.136136
 30
0.0
  0
VERTEX
  5
456
  8
TEAM-KAN
 10
799.272735
 20
16.426136
 30
0.0
  0
VERTEX
  5
457
  8
TEAM-KAN
 10
799.072735
 20
17.656136
 30
0.0
  0
VERTEX
  5
458
  8
TEAM-KAN
 10
798.842735
 20
18.806136
 30
0.0
  0
VERTEX
  5
459
  8
TEAM-KAN
 10
798.612735
 20
19.886136
 30
0.0
  0
VERTEX
  5
45A
  8
TEAM-KAN
 10
798.362735
 20
20.886136
 30
0.0
  0
VERTEX
  5
45B
  8
TEAM-KAN
 10
798.102735
 20
21.806136
 30
0.0
  0
VERTEX
  5
45C
  8
TEAM-KAN
 10
797.832735
 20
22.636137
 30
0.0
  0
VERTEX
  5
45D
  8
TEAM-KAN
 10
797.552735
 20
23.376137
 30
0.0
  0
VERTEX
  5
45E
  8
TEAM-KAN
 10
797.262735
 20
24.026137
 30
0.0
  0
VERTEX
  5
45F
  8
TEAM-KAN
 10
796.962735
 20
24.586137
 30
0.0
  0
VERTEX
  5
460
  8
TEAM-KAN
 10
796.662735
 20
25.036137
 30
0.0
  0
VERTEX
  5
461
  8
TEAM-KAN
 10
796.362735
 20
25.396137
 30
0.0
  0
SEQEND
  5
462
  8
TEAM-KAN
  0
POLYLINE
  5
47
  8
TEAM-KAN
 66
     1
 10
0.0
 20
0.0
 30
0.0
  0
VERTEX
  5
463
  8
TEAM-KAN
 10
796.362735
 20
25.396137
 30
0.0
  0
VERTEX
  5
464
  8
TEAM-KAN
 10
796.052735
 20
25.646137
 30
0.0
  0
VERTEX
  5
465
  8
TEAM-KAN
 10
795.732735
 20
25.796137
 30
0.0
  0
VERTEX
  5
466
  8
TEAM-KAN
 10
795.422735
 20
25.856137
 30
0.0
  0
VERTEX
  5
467
  8
TEAM-KAN
 10
795.112735
 20
25.796137
 30
0.0
  0
VERTEX
  5
468
  8
TEAM-KAN
 10
794.792735
 20
25.646137
 30
0.0
  0
VERTEX
  5
469
  8
TEAM-KAN
 10
794.482735
 20
25.396137
 30
0.0
  0
VERTEX
  5
46A
  8
TEAM-KAN
 10
794.182735
 20
25.036137
 30
0.0
  0
VERTEX
  5
46B
  8
TEAM-KAN
 10
793.872735
 20
24.586137
 30
0.0
  0
VERTEX
  5
46C
  8
TEAM-KAN
 10
793.582735
 20
24.026137
 30
0.0
  0
VERTEX
  5
46D
  8
TEAM-KAN
 10
793.292735
 20
23.376137
 30
0.0
  0
VERTEX
  5
46E
  8
TEAM-KAN
 10
793.012735
 20
22.636137
 30
0.0
  0
VERTEX
  5
46F
  8
TEAM-KAN
 10
792.742735
 20
21.806136
 30
0.0
  0
VERTEX
  5
470
  8
TEAM-KAN
 10
792.482735
 20
20.886136
 30
0.0
  0
VERTEX
  5
471
  8
TEAM-KAN
 10
792.232735
 20
19.886136
 30
0.0
  0
VERTEX
  5
472
  8
TEAM-KAN
 10
792.002735
 20
18.806136
 30
0.0
  0
VERTEX
  5
473
  8
TEAM-KAN
 10
791.772735
 20
17.656136
 30
0.0
  0
VERTEX
  5
474
  8
TEAM-KAN
 10
791.572735
 20
16.426136
 30
0.0
  0
VERTEX
  5
475
  8
TEAM-KAN
 10
791.372735
 20
15.136136
 30
0.0
  0
VERTEX
  5
476
  8
TEAM-KAN
 10
791.202735
 20
13.786136
 30
0.0
  0
VERTEX
  5
477
  8
TEAM-KAN
 10
791.042735
 20
12.376136
 30
0.0
  0
VERTEX
  5
478
  8
TEAM-KAN
 10
790.902735
 20
10.926136
 30
0.0
  0
VERTEX
  5
479
  8
TEAM-KAN
 10
790.772735
 20
9.426136
 30
0.0
  0
VERTEX
  5
47A
  8
TEAM-KAN
 10
790.672735
 20
7.886136
 30
0.0
  0
VERTEX
  5
47B
  8
TEAM-KAN
 10
790.582735
 20
6.316136
 30
0.0
  0
VERTEX
  5
47C
  8
TEAM-KAN
 10
790.512735
 20
4.726136
 30
0.0
  0
VERTEX
  5
47D
  8
TEAM-KAN
 10
790.462735
 20
3.116136
 30
0.0
  0
VERTEX
  5
47E
  8
TEAM-KAN
 10
790.432735
 20
1.486136
 30
0.0
  0
VERTEX
  5
47F
  8
TEAM-KAN
 10
790.422735
 20
-0.143864
 30
0.0
  0
VERTEX
  5
480
  8
TEAM-KAN
 10
790.432735
 20
-1.773864
 30
0.0
  0
VERTEX
  5
481
  8
TEAM-KAN
 10
790.462735
 20
-3.403864
 30
0.0
  0
VERTEX
  5
482
  8
TEAM-KAN
 10
790.512735
 20
-5.023864
 30
0.0
  0
VERTEX
  5
483
  8
TEAM-KAN
 10
790.582735
 20
-6.613864
 30
0.0
  0
VERTEX
  5
484
  8
TEAM-KAN
 10
790.672735
 20
-8.183864
 30
0.0
  0
VERTEX
  5
485
  8
TEAM-KAN
 10
790.772735
 20
-9.723864
 30
0.0
  0
VERTEX
  5
486
  8
TEAM-KAN
 10
790.902735
 20
-11.213864
 30
0.0
  0
VERTEX
  5
487
  8
TEAM-KAN
 10
791.042735
 20
-12.673864
 30
0.0
  0
VERTEX
  5
488
  8
TEAM-KAN
 10
791.202735
 20
-14.073864
 30
0.0
  0
VERTEX
  5
489
  8
TEAM-KAN
 10
791.372735
 20
-15.433864
 30
0.0
  0
VERTEX
  5
48A
  8
TEAM-KAN
 10
791.572735
 20
-16.723864
 30
0.0
  0
VERTEX
  5
48B
  8
TEAM-KAN
 10
791.772735
 20
-17.943864
 30
0.0
  0
VERTEX
  5
48C
  8
TEAM-KAN
 10
792.002735
 20
-19.093864
 30
0.0
  0
VERTEX
  5
48D
  8
TEAM-KAN
 10
792.232735
 20
-20.183864
 30
0.0
  0
VERTEX
  5
48E
  8
TEAM-KAN
 10
792.482735
 20
-21.183864
 30
0.0
  0
VERTEX
  5
48F
  8
TEAM-KAN
 10
792.742735
 20
-22.093864
 30
0.0
  0
VERTEX
  5
490
  8
TEAM-KAN
 10
793.012735
 20
-22.933864
 30
0.0
  0
VERTEX
  5
491
  8
TEAM-KAN
 10
793.292735
 20
-23.673864
 30
0.0
  0
VERTEX
  5
492
  8
TEAM-KAN
 10
793.582735
 20
-24.323864
 30
0.0
  0
SEQEND
  5
493
  8
TEAM-KAN
  0
POLYLINE
  5
48
  8
TEAM-KAN
 66
     1
 10
0.0
 20
0.0
 30
0.0
  0
VERTEX
  5
494
  8
TEAM-KAN
 10
793.582735
 20
-24.323864
 30
0.0
  0
VERTEX
  5
495
  8
TEAM-KAN
 10
793.872735
 20
-24.873864
 30
0.0
  0
VERTEX
  5
496
  8
TEAM-KAN
 10
794.182735
 20
-25.333864
 30
0.0
  0
VERTEX
  5
497
  8
TEAM-KAN
 10
794.482735
 20
-25.683864
 30
0.0
  0
VERTEX
  5
498
  8
TEAM-KAN
 10
794.792735
 20
-25.943864
 30
0.0
  0
VERTEX
  5
499
  8
TEAM-KAN
 10
795.112735
 20
-26.093864
 30
0.0
  0
VERTEX
  5
49A
  8
TEAM-KAN
 10
795.422735
 20
-26.143864
 30
0.0
  0
SEQEND
  5
49B
  8
TEAM-KAN
  0
LINE
  5
49
  8
TEAM-AXE
 10
795.422735
 20
34.236137
 30
0.0
 11
795.422735
 21
-34.533864
 31
0.0
  0
DIMENSION
  5
4C
  8
TEAM-MAS
  2
*D2
 10
511.999987
 20
478.317306
 30
0.0
 11
705.999993
 21
478.317306
 31
0.0
 12
-4000.0
 22
-16000.0
 32
0.0
 13
900.0
 23
0.0
 33
0.0
 14
511.999987
 24
0.0
 34
0.0
1001
ACAD
1000
DSTYLE
1002
{
1070
    40
1040
1.0
1002
}
  0
CIRCLE
  5
5A
  8
TEAM-DET1
 10
511.999987
 20
0.0
 30
0.0
 40
35.0
  0
CIRCLE
  5
5B
  8
TEAM-KAN
 10
511.999987
 20
0.0
 30
0.0
 40
26.0
  0
DIMENSION
  5
5C
  8
TEAM-MAS
  2
*D1
 10
1054.869925
 20
-400.0
 30
0.0
 11
1054.869925
 21
0.0
 31
0.0
 12
-4000.0
 22
-16000.0
 32
0.0
 13
900.0
 23
400.0
 33
0.0
 14
900.0
 24
-400.0
 34
0.0
 50
90.0
1001
ACAD
1000
DSTYLE
1002
{
1070
    78
1070
     0
1070
    40
1040
1.0
1002
}
  0
CIRCLE
  5
6A
  8
TEAM-INSP
 10
0.0
 20
0.0
 30
0.0
 40
10.0
  0
POLYLINE
  5
6C
  8
TEAM-BODY
 66
     1
 10
0.0
 20
0.0
 30
0.0
  0
VERTEX
  5
49C
  8
TEAM-BODY
 10
662.396648
 20
0.0
 30
0.0
 42
-0.414214
  0
VERTEX
  5
49D
  8
TEAM-BODY
 10
490.896646
 20
-171.500003
 30
0.0
  0
VERTEX
  5
49E
  8
TEAM-BODY
 10
-198.573364
 20
-171.500003
 30
0.0
 42
-0.414214
  0
VERTEX
  5
49F
  8
TEAM-BODY
 10
-370.073367
 20
0.0
 30
0.0
  0
SEQEND
  5
4A0
  8
TEAM-BODY
  0
POLYLINE
  5
6D
  8
TEAM-BODY
 66
     1
 10
0.0
 20
0.0
 30
0.0
  0
VERTEX
  5
4A1
  8
TEAM-BODY
 10
662.396648
 20
0.0
 30
0.0
 42
0.414214
  0
VERTEX
  5
4A2
  8
TEAM-BODY
 10
490.896646
 20
171.500003
 30
0.0
  0
VERTEX
  5
4A3
  8
TEAM-BODY
 10
-198.573364
 20
171.500003
 30
0.0
 42
0.414214
  0
VERTEX
  5
4A4
  8
TEAM-BODY
 10
-370.073367
 20
0.0
 30
0.0
  0
SEQEND
  5
4A5
  8
TEAM-BODY
  0
ENDSEC
  0
EOF
