  0
SECTION
  2
HEADER
  9
$ACADVER
  1
AC1009
  9
$INSBASE
 10
0.0
 20
0.0
 30
0.0
  9
$EXTMIN
 10
-901.360961
 20
-10.024544
 30
0.0
  9
$EXTMAX
 10
989.351478
 20
660.616122
 30
0.0
  9
$LIMMIN
 10
-901.360961
 20
-10.024544
  9
$LIMMAX
 10
989.351478
 20
660.616122
  9
$ORTHOMODE
 70
     1
  9
$REGENMODE
 70
     1
  9
$FILLMODE
 70
     1
  9
$QTEXTMODE
 70
     0
  9
$MIRRTEXT
 70
     0
  9
$DRAGMODE
 70
     2
  9
$LTSCALE
 40
25.0
  9
$OSMODE
 70
     0
  9
$ATTMODE
 70
     1
  9
$TEXTSIZE
 40
200.0
  9
$TRACEWID
 40
1.0
  9
$TEXTSTYLE
  7
STANDARD
  9
$CLAYER
  8
TEAM-MAS
  9
$CELTYPE
  6
BYLAYER
  9
$CECOLOR
 62
   256
  9
$DIMSCALE
 40
0.0
  9
$DIMASZ
 40
20.0
  9
$DIMEXO
 40
10.0
  9
$DIMDLI
 40
1.0
  9
$DIMRND
 40
0.0
  9
$DIMDLE
 40
0.0
  9
$DIMEXE
 40
1.0
  9
$DIMTP
 40
0.0
  9
$DIMTM
 40
0.0
  9
$DIMTXT
 40
35.0
  9
$DIMCEN
 40
1.0
  9
$DIMTSZ
 40
0.0
  9
$DIMTOL
 70
     0
  9
$DIMLIM
 70
     0
  9
$DIMTIH
 70
     0
  9
$DIMTOH
 70
     0
  9
$DIMSE1
 70
     0
  9
$DIMSE2
 70
     0
  9
$DIMTAD
 70
     0
  9
$DIMZIN
 70
     0
  9
$DIMBLK
  1

  9
$DIMASO
 70
     1
  9
$DIMSHO
 70
     0
  9
$DIMPOST
  1

  9
$DIMAPOST
  1

  9
$DIMALT
 70
     0
  9
$DIMALTD
 70
     2
  9
$DIMALTF
 40
25.4
  9
$DIMLFAC
 40
1.0
  9
$DIMTOFL
 70
     0
  9
$DIMTVP
 40
0.0
  9
$DIMTIX
 70
     0
  9
$DIMSOXD
 70
     0
  9
$DIMSAH
 70
     0
  9
$DIMBLK1
  1

  9
$DIMBLK2
  1

  9
$DIMSTYLE
  2
TEAM
  9
$DIMCLRD
 70
     9
  9
$DIMCLRE
 70
     9
  9
$DIMCLRT
 70
    11
  9
$DIMTFAC
 40
1.0
  9
$DIMGAP
 40
15.0
  9
$LUNITS
 70
     2
  9
$LUPREC
 70
     1
  9
$SKETCHINC
 40
1.0
  9
$FILLETRAD
 40
50.0
  9
$AUNITS
 70
     0
  9
$AUPREC
 70
     0
  9
$MENU
  1
ROPLANS
  9
$ELEVATION
 40
0.0
  9
$PELEVATION
 40
0.0
  9
$THICKNESS
 40
0.0
  9
$LIMCHECK
 70
     0
  9
$BLIPMODE
 70
     1
  9
$CHAMFERA
 40
0.0
  9
$CHAMFERB
 40
0.0
  9
$SKPOLY
 70
     0
  9
$TDCREATE
 40
2450392.957851
  9
$TDUPDATE
 40
2455493.945579
  9
$TDINDWG
 40
1.992456
  9
$TDUSRTIMER
 40
1.992456
  9
$USRTIMER
 70
     1
  9
$ANGBASE
 50
0.0
  9
$ANGDIR
 70
     0
  9
$PDMODE
 70
     0
  9
$PDSIZE
 40
0.0
  9
$PLINEWID
 40
0.0
  9
$COORDS
 70
     2
  9
$SPLFRAME
 70
     0
  9
$SPLINETYPE
 70
     6
  9
$SPLINESEGS
 70
     8
  9
$ATTDIA
 70
     0
  9
$ATTREQ
 70
     0
  9
$HANDLING
 70
     1
  9
$HANDSEED
  5
12B
  9
$SURFTAB1
 70
    24
  9
$SURFTAB2
 70
    24
  9
$SURFTYPE
 70
     6
  9
$SURFU
 70
     6
  9
$SURFV
 70
     6
  9
$UCSNAME
  2

  9
$UCSORG
 10
0.0
 20
0.0
 30
0.0
  9
$UCSXDIR
 10
1.0
 20
0.0
 30
0.0
  9
$UCSYDIR
 10
0.0
 20
1.0
 30
0.0
  9
$PUCSNAME
  2

  9
$PUCSORG
 10
0.0
 20
0.0
 30
0.0
  9
$PUCSXDIR
 10
1.0
 20
0.0
 30
0.0
  9
$PUCSYDIR
 10
0.0
 20
1.0
 30
0.0
  9
$USERI1
 70
     0
  9
$USERI2
 70
     0
  9
$USERI3
 70
     0
  9
$USERI4
 70
     0
  9
$USERI5
 70
     0
  9
$USERR1
 40
0.0
  9
$USERR2
 40
0.0
  9
$USERR3
 40
0.0
  9
$USERR4
 40
0.0
  9
$USERR5
 40
0.0
  9
$WORLDVIEW
 70
     1
  9
$SHADEDGE
 70
     0
  9
$SHADEDIF
 70
    70
  9
$TILEMODE
 70
     1
  9
$MAXACTVP
 70
    16
  9
$PLIMCHECK
 70
     0
  9
$PEXTMIN
 10
-0.805942
 20
0.005011
 30
0.0
  9
$PEXTMAX
 10
20.250094
 20
11.356329
 30
0.0
  9
$PLIMMIN
 10
0.0
 20
0.0
  9
$PLIMMAX
 10
12.0
 20
9.0
  9
$UNITMODE
 70
     0
  9
$VISRETAIN
 70
     0
  9
$PLINEGEN
 70
     0
  9
$PSLTSCALE
 70
     0
  0
ENDSEC
  0
SECTION
  2
TABLES
  0
TABLE
  2
VPORT
 70
     2
  0
VPORT
  2
*ACTIVE
 70
     0
 10
0.0
 20
0.0
 11
1.0
 21
1.0
 12
43.995259
 22
325.295789
 13
0.0
 23
0.0
 14
1.0
 24
1.0
 15
50.0
 25
50.0
 16
0.0
 26
0.0
 36
1.0
 17
0.0
 27
0.0
 37
0.0
 40
1016.699231
 41
1.865779
 42
50.0
 43
0.0
 44
0.0
 50
0.0
 51
0.0
 71
     0
 72
   100
 73
     1
 74
     1
 75
     0
 76
     0
 77
     0
 78
     0
  0
ENDTAB
  0
TABLE
  2
LTYPE
 70
     2
  0
LTYPE
  2
CONTINUOUS
 70
     0
  3
Solid Line
 72
    65
 73
     0
 40
0.0
  0
LTYPE
  2
22
 70
     0
  3

 72
    65
 73
     2
 40
1.4
 49
1.2
 49
-0.2
  0
ENDTAB
  0
TABLE
  2
LAYER
 70
     9
  0
LAYER
  2
0
 70
     0
 62
     7
  6
CONTINUOUS
  0
LAYER
  2
DEFPOINTS
 70
     0
 62
     7
  6
CONTINUOUS
  0
LAYER
  2
TEAM-BODY
 70
     0
 62
     2
  6
CONTINUOUS
  0
LAYER
  2
TEAM-MAS
 70
     0
 62
     9
  6
CONTINUOUS
  0
LAYER
  2
TEAM-TXT
 70
     0
 62
    11
  6
CONTINUOUS
  0
LAYER
  2
TEAM-HIDE
 70
     0
 62
     8
  6
22
  0
LAYER
  2
TEAM-KAN
 70
     0
 62
     6
  6
CONTINUOUS
  0
LAYER
  2
TEAM-DET3
 70
     0
 62
    14
  6
CONTINUOUS
  0
LAYER
  2
TEAM-INSP
 70
     0
 62
     5
  6
CONTINUOUS
  0
ENDTAB
  0
TABLE
  2
STYLE
 70
     2
  0
STYLE
  2
STANDARD
 70
     0
 40
0.0
 41
1.0
 50
0.0
 71
     0
 42
200.0
  3
txt
  4

  0
STYLE
  2
TEAM
 70
     0
 40
0.0
 41
0.8
 50
15.0
 71
     0
 42
7.0
  3
ROMANS.shx
  4

  0
ENDTAB
  0
TABLE
  2
VIEW
 70
     0
  0
ENDTAB
  0
TABLE
  2
UCS
 70
     0
  0
ENDTAB
  0
TABLE
  2
APPID
 70
     1
  0
APPID
  2
ACAD
 70
     0
  0
ENDTAB
  0
TABLE
  2
DIMSTYLE
 70
     1
  0
DIMSTYLE
  2
TEAM
 70
     0
  3

  4

  5

  6

  7

 40
0.0
 41
20.0
 42
10.0
 43
1.0
 44
1.0
 45
0.0
 46
0.0
 47
0.0
 48
0.0
140
35.0
141
1.0
142
0.0
143
25.4
144
1.0
145
0.0
146
1.0
147
15.0
 71
     0
 72
     0
 73
     0
 74
     0
 75
     0
 76
     0
 77
     0
 78
     0
170
     0
171
     2
172
     0
173
     0
174
     0
175
     0
176
     9
177
     9
178
    11
  0
ENDTAB
  0
ENDSEC
  0
SECTION
  2
BLOCKS
  0
BLOCK
  8
0
  2
$MODEL_SPACE
 70
     0
 10
0.0
 20
0.0
 30
0.0
  3
$MODEL_SPACE
  1

  0
ENDBLK
  5
124
  8
0
  0
BLOCK
 67
     1
  8
0
  2
$PAPER_SPACE
 70
     0
 10
0.0
 20
0.0
 30
0.0
  3
$PAPER_SPACE
  1

  0
ENDBLK
  5
122
 67
     1
  8
0
  0
BLOCK
  8
0
  2
*D0
 70
     1
 10
0.0
 20
0.0
 30
0.0
  3
*D0
  1

  0
LINE
  5
37
  8
0
  6
BYBLOCK
 62
     9
 10
12900.0
 20
16574.0
 30
0.0
 11
12900.0
 21
16645.8411
 31
0.0
  0
LINE
  5
38
  8
0
  6
BYBLOCK
 62
     9
 10
11099.999973
 20
16574.0
 30
0.0
 11
11099.999973
 21
16645.8411
 31
0.0
  0
LINE
  5
39
  8
0
  6
BYBLOCK
 62
     9
 10
12880.0
 20
16644.8411
 30
0.0
 11
12055.263766
 21
16644.8411
 31
0.0
  0
LINE
  5
3A
  8
0
  6
BYBLOCK
 62
     9
 10
11119.999973
 20
16644.8411
 30
0.0
 11
11944.736207
 21
16644.8411
 31
0.0
  0
SOLID
  5
3B
  8
0
  6
BYBLOCK
 62
     9
 10
12880.0
 20
16648.174433
 30
0.0
 11
12880.0
 21
16641.507766
 31
0.0
 12
12900.0
 22
16644.8411
 32
0.0
 13
12900.0
 23
16644.8411
 33
0.0
  0
SOLID
  5
3C
  8
0
  6
BYBLOCK
 62
     9
 10
11119.999973
 20
16648.174433
 30
0.0
 11
11119.999973
 21
16641.507766
 31
0.0
 12
11099.999973
 22
16644.8411
 32
0.0
 13
11099.999973
 23
16644.8411
 33
0.0
  0
TEXT
  5
3D
  8
0
  6
BYBLOCK
 62
    11
 10
11954.486207
 20
16627.3411
 30
0.0
 40
35.0
  1
1800
  0
POINT
  5
3E
  8
DEFPOINTS
  6
BYBLOCK
 62
     0
 10
12900.0
 20
16564.0
 30
0.0
  0
POINT
  5
3F
  8
DEFPOINTS
  6
BYBLOCK
 62
     0
 10
11099.999973
 20
16564.0
 30
0.0
  0
POINT
  5
40
  8
DEFPOINTS
  6
BYBLOCK
 62
     0
 10
11099.999973
 20
16644.8411
 30
0.0
  0
ENDBLK
  5
42
  8
0
  0
BLOCK
  8
0
  2
*D1
 70
     1
 10
0.0
 20
0.0
 30
0.0
  3
*D1
  1

  0
LINE
  5
22
  8
0
  6
BYBLOCK
 62
     9
 10
12537.999987
 20
16099.999994
 30
0.0
 11
12537.999987
 21
16051.991411
 31
0.0
  0
LINE
  5
23
  8
0
  6
BYBLOCK
 62
     9
 10
12485.999986
 20
16099.999994
 30
0.0
 11
12485.999986
 21
16051.991411
 31
0.0
  0
LINE
  5
24
  8
0
  6
BYBLOCK
 62
     9
 10
12557.999987
 20
16052.991411
 30
0.0
 11
12577.999987
 21
16052.991411
 31
0.0
  0
LINE
  5
25
  8
0
  6
BYBLOCK
 62
     9
 10
12465.999986
 20
16052.991411
 30
0.0
 11
12445.999986
 21
16052.991411
 31
0.0
  0
TEXT
  5
26
  8
0
  6
BYBLOCK
 62
    11
 10
12552.448953
 20
16035.491411
 30
0.0
 40
35.0
  1
52
  0
LINE
  5
27
  8
0
  6
BYBLOCK
 62
     9
 10
12537.999987
 20
16052.991411
 30
0.0
 11
12485.999986
 21
16052.991411
 31
0.0
  0
SOLID
  5
28
  8
0
  6
BYBLOCK
 62
     9
 10
12557.999987
 20
16056.324744
 30
0.0
 11
12557.999987
 21
16049.658078
 31
0.0
 12
12537.999987
 22
16052.991411
 32
0.0
 13
12537.999987
 23
16052.991411
 33
0.0
  0
SOLID
  5
29
  8
0
  6
BYBLOCK
 62
     9
 10
12465.999986
 20
16056.324744
 30
0.0
 11
12465.999986
 21
16049.658078
 31
0.0
 12
12485.999986
 22
16052.991411
 32
0.0
 13
12485.999986
 23
16052.991411
 33
0.0
  0
POINT
  5
2A
  8
DEFPOINTS
  6
BYBLOCK
 62
     0
 10
12537.999987
 20
16109.999994
 30
0.0
  0
POINT
  5
2C
  8
DEFPOINTS
  6
BYBLOCK
 62
     0
 10
12485.999986
 20
16109.999994
 30
0.0
  0
POINT
  5
2D
  8
DEFPOINTS
  6
BYBLOCK
 62
     0
 10
12485.999986
 20
16052.991411
 30
0.0
  0
ENDBLK
  5
2F
  8
0
  0
BLOCK
  8
0
  2
*D2
 70
     1
 10
0.0
 20
0.0
 30
0.0
  3
*D2
  1

  0
LINE
  5
73
  8
0
  6
BYBLOCK
 62
     9
 10
12904.0
 20
16580.0
 30
0.0
 11
12974.485019
 21
16580.0
 31
0.0
  0
LINE
  5
74
  8
0
  6
BYBLOCK
 62
     9
 10
12551.189987
 20
16109.999994
 30
0.0
 11
12974.485019
 21
16109.999994
 31
0.0
  0
LINE
  5
75
  8
0
  6
BYBLOCK
 62
     9
 10
12973.485019
 20
16560.0
 30
0.0
 11
12973.485019
 21
16393.263776
 31
0.0
  0
LINE
  5
76
  8
0
  6
BYBLOCK
 62
     9
 10
12973.485019
 20
16129.999994
 30
0.0
 11
12973.485019
 21
16296.736217
 31
0.0
  0
SOLID
  5
77
  8
0
  6
BYBLOCK
 62
     9
 10
12970.151685
 20
16560.0
 30
0.0
 11
12976.818352
 21
16560.0
 31
0.0
 12
12973.485019
 22
16580.0
 32
0.0
 13
12973.485019
 23
16580.0
 33
0.0
  0
SOLID
  5
78
  8
0
  6
BYBLOCK
 62
     9
 10
12970.151685
 20
16129.999994
 30
0.0
 11
12976.818352
 21
16129.999994
 31
0.0
 12
12973.485019
 22
16109.999994
 32
0.0
 13
12973.485019
 23
16109.999994
 33
0.0
  0
TEXT
  5
79
  8
0
  6
BYBLOCK
 62
    11
 10
12990.985019
 20
16306.486217
 30
0.0
 40
35.0
  1
470
 50
90.0
  0
POINT
  5
7A
  8
DEFPOINTS
  6
BYBLOCK
 62
     0
 10
12894.0
 20
16580.0
 30
0.0
  0
POINT
  5
7B
  8
DEFPOINTS
  6
BYBLOCK
 62
     0
 10
12541.189987
 20
16109.999994
 30
0.0
  0
POINT
  5
7C
  8
DEFPOINTS
  6
BYBLOCK
 62
     0
 10
12973.485019
 20
16109.999994
 30
0.0
  0
ENDBLK
  5
7E
  8
0
  0
ENDSEC
  0
SECTION
  2
ENTITIES
  0
DIMENSION
  5
20
  8
TEAM-MAS
  2
*D1
 10
485.999986
 20
52.991411
 30
0.0
 11
577.999987
 21
52.991411
 31
0.0
 12
-12000.0
 22
-16000.0
 32
0.0
 70
   128
 13
537.999987
 23
109.999994
 33
0.0
 14
485.999986
 24
109.999994
 34
0.0
1001
ACAD
1000
DSTYLE
1002
{
1070
    40
1040
1.0
1002
}
  0
ARC
  5
30
  8
TEAM-BODY
 10
511.999987
 20
1620.810016
 30
0.0
 40
1500.000023
 50
268.5
 51
271.5
  0
LINE
  5
32
  8
TEAM-KAN
 10
482.809986
 20
112.999994
 30
0.0
 11
541.189987
 21
112.999994
 31
0.0
  0
LINE
  5
34
  8
TEAM-KAN
 10
482.809986
 20
109.999994
 30
0.0
 11
541.189987
 21
109.999994
 31
0.0
  0
DIMENSION
  5
35
  8
TEAM-MAS
  2
*D0
 10
-900.000027
 20
644.8411
 30
0.0
 11
-0.000013
 21
644.8411
 31
0.0
 12
-12000.0
 22
-16000.0
 32
0.0
 13
900.0
 23
564.0
 33
0.0
 14
-900.000027
 24
564.0
 34
0.0
1001
ACAD
1000
DSTYLE
1002
{
1070
    78
1070
     0
1070
    40
1040
1.0
1002
}
  0
LINE
  5
43
  8
TEAM-BODY
 10
-894.000027
 20
580.0
 30
0.0
 11
894.0
 21
580.0
 31
0.0
  0
LINE
  5
44
  8
TEAM-BODY
 10
-894.000027
 20
548.0
 30
0.0
 11
894.0
 21
548.0
 31
0.0
  0
LINE
  5
45
  8
TEAM-DET3
 10
336.311915
 20
100.800166
 30
0.0
 11
336.311915
 21
123.0116
 31
0.0
  0
LINE
  5
47
  8
TEAM-DET3
 10
347.476028
 20
100.800166
 30
0.0
 11
347.476028
 21
122.873992
 31
0.0
  0
LINE
  5
48
  8
TEAM-DET3
 10
336.311915
 20
100.800166
 30
0.0
 11
347.476028
 21
100.800166
 31
0.0
  0
LINE
  5
49
  8
TEAM-DET3
 10
331.893972
 20
74.292505
 30
0.0
 11
336.311915
 21
100.800166
 31
0.0
  0
LINE
  5
4A
  8
TEAM-DET3
 10
351.893972
 20
74.292505
 30
0.0
 11
347.476028
 21
100.800166
 31
0.0
  0
LINE
  5
4B
  8
TEAM-DET3
 10
331.893972
 20
40.0
 30
0.0
 11
331.893972
 21
74.292505
 31
0.0
  0
LINE
  5
4C
  8
TEAM-DET3
 10
351.893972
 20
74.292505
 30
0.0
 11
331.893972
 21
74.292505
 31
0.0
  0
LINE
  5
4D
  8
TEAM-DET3
 10
351.893972
 20
40.0
 30
0.0
 11
351.893972
 21
74.292505
 31
0.0
  0
LINE
  5
4E
  8
TEAM-DET3
 10
326.893972
 20
0.0
 30
0.0
 11
326.893972
 21
40.0
 31
0.0
  0
LINE
  5
4F
  8
TEAM-DET3
 10
356.893972
 20
0.0
 30
0.0
 11
356.893972
 21
40.0
 31
0.0
  0
LINE
  5
50
  8
TEAM-DET3
 10
356.893972
 20
40.0
 30
0.0
 11
326.893972
 21
40.0
 31
0.0
  0
LINE
  5
51
  8
TEAM-DET3
 10
326.893972
 20
0.0
 30
0.0
 11
356.893972
 21
0.0
 31
0.0
  0
LINE
  5
52
  8
TEAM-KAN
 10
485.999986
 20
109.999994
 30
0.0
 11
485.999986
 21
112.999994
 31
0.0
  0
ARC
  5
53
  8
TEAM-KAN
 10
468.119986
 20
109.439994
 30
0.0
 40
12.0
 50
30.18664
 51
88.48913
  0
ARC
  5
54
  8
TEAM-KAN
 10
468.119986
 20
109.439994
 30
0.0
 40
9.0
 50
30.19201
 51
88.50761
  0
ARC
  5
55
  8
TEAM-KAN
 10
482.809986
 20
117.999994
 30
0.0
 40
8.0
 50
210.196
 51
270.0
  0
ARC
  5
56
  8
TEAM-KAN
 10
482.809986
 20
117.999994
 30
0.0
 40
5.0
 50
210.2113
 51
270.0
  0
LINE
  5
57
  8
TEAM-DET3
 10
-369.77941
 20
114.745045
 30
0.0
 11
-369.77941
 21
131.71485
 31
0.0
  0
LINE
  5
58
  8
TEAM-DET3
 10
-358.615298
 20
114.745045
 30
0.0
 11
-358.615298
 21
131.577242
 31
0.0
  0
LINE
  5
59
  8
TEAM-DET3
 10
-379.197354
 20
0.0
 30
0.0
 11
-379.197354
 21
40.0
 31
0.0
  0
LINE
  5
5A
  8
TEAM-DET3
 10
-349.197354
 20
0.0
 30
0.0
 11
-349.197354
 21
40.0
 31
0.0
  0
LINE
  5
5B
  8
TEAM-DET3
 10
-349.197354
 20
40.0
 30
0.0
 11
-379.197354
 21
40.0
 31
0.0
  0
LINE
  5
5C
  8
TEAM-DET3
 10
-369.77941
 20
114.745045
 30
0.0
 11
-358.615298
 21
114.745045
 31
0.0
  0
LINE
  5
5D
  8
TEAM-DET3
 10
-374.197354
 20
88.237384
 30
0.0
 11
-369.77941
 21
114.745045
 31
0.0
  0
LINE
  5
5E
  8
TEAM-DET3
 10
-354.197354
 20
88.237384
 30
0.0
 11
-358.615298
 21
114.745045
 31
0.0
  0
LINE
  5
5F
  8
TEAM-DET3
 10
-374.197354
 20
40.0
 30
0.0
 11
-374.197354
 21
88.237384
 31
0.0
  0
LINE
  5
60
  8
TEAM-DET3
 10
-354.197354
 20
88.237384
 30
0.0
 11
-374.197354
 21
88.237384
 31
0.0
  0
LINE
  5
61
  8
TEAM-DET3
 10
-354.197354
 20
40.0
 30
0.0
 11
-354.197354
 21
88.237384
 31
0.0
  0
LINE
  5
62
  8
TEAM-DET3
 10
-379.197354
 20
0.0
 30
0.0
 11
-349.197354
 21
0.0
 31
0.0
  0
CIRCLE
  5
63
  8
TEAM-INSP
 10
0.0
 20
0.0
 30
0.0
 40
10.0
  0
LINE
  5
65
  8
TEAM-BODY
 10
-900.000027
 20
554.0
 30
0.0
 11
-900.000027
 21
574.0
 31
0.0
  0
ARC
  5
66
  8
TEAM-BODY
 10
-894.000027
 20
554.0
 30
0.0
 40
6.0
 50
180.0
 51
270.0
  0
ARC
  5
67
  8
TEAM-BODY
 10
-894.000027
 20
574.0
 30
0.0
 40
6.0
 50
90.0
 51
180.0
  0
ARC
  5
68
  8
TEAM-BODY
 10
1559.364726
 20
1638.576432
 30
0.0
 40
2620.955004
 50
204.588467
 51
213.569446
  0
TEXT
  5
69
  8
TEAM-TXT
 10
-774.932635
 20
495.75601
 30
0.0
 40
30.0
  1
team 121714
 41
0.8
 51
15.0
  7
TEAM
  0
ARC
  5
6C
  8
TEAM-BODY
 10
-512.570021
 20
273.469996
 30
0.0
 40
140.000002
 50
216.9447
 51
268.4987
  0
LINE
  5
6D
  8
TEAM-HIDE
 10
356.893972
 20
0.0
 30
0.0
 11
-379.197354
 21
0.0
 31
0.0
  0
LINE
  5
70
  8
TEAM-BODY
 10
472.739986
 20
121.329994
 30
0.0
 11
-516.230021
 21
133.519994
 31
0.0
  0
DIMENSION
  5
71
  8
TEAM-MAS
  2
*D2
 10
973.485019
 20
109.999994
 30
0.0
 11
973.485019
 21
344.999997
 31
0.0
 12
-12000.0
 22
-16000.0
 32
0.0
 13
894.0
 23
580.0
 33
0.0
 14
541.189987
 24
109.999994
 34
0.0
 50
90.0
1001
ACAD
1000
DSTYLE
1002
{
1070
    40
1040
1.0
1002
}
  0
ARC
  5
7F
  8
TEAM-BODY
 10
-1330.874485
 20
1055.840241
 30
0.0
 40
2213.839329
 50
336.96623
 51
346.738623
  0
LINE
  5
80
  8
TEAM-BODY
 10
551.269987
 20
121.329994
 30
0.0
 11
598.234034
 21
128.933091
 31
0.0
  0
ARC
  5
81
  8
TEAM-KAN
 10
555.889987
 20
109.439994
 30
0.0
 40
12.0
 50
91.51086
 51
149.804
  0
ARC
  5
82
  8
TEAM-KAN
 10
555.889987
 20
109.439994
 30
0.0
 40
9.0
 50
91.51724
 51
149.7955
  0
ARC
  5
83
  8
TEAM-KAN
 10
541.189987
 20
117.999994
 30
0.0
 40
8.0
 50
270.0
 51
329.804
  0
ARC
  5
84
  8
TEAM-KAN
 10
541.189987
 20
117.999994
 30
0.0
 40
5.0
 50
270.0
 51
329.8112
  0
LINE
  5
85
  8
TEAM-KAN
 10
537.999987
 20
109.999994
 30
0.0
 11
537.999987
 21
112.999994
 31
0.0
  0
ARC
  5
86
  8
TEAM-BODY
 10
575.42018
 20
296.457715
 30
0.0
 40
169.070908
 50
277.754954
 51
320.81045
  0
LINE
  5
87
  8
TEAM-BODY
 10
900.0
 20
554.0
 30
0.0
 11
900.0
 21
574.0
 31
0.0
  0
ARC
  5
88
  8
TEAM-BODY
 10
894.0
 20
554.0
 30
0.0
 40
6.0
 50
270.0
 51
0.0
  0
ARC
  5
89
  8
TEAM-BODY
 10
894.0
 20
574.0
 30
0.0
 40
6.0
 50
0.0
 51
90.0
  0
ENDSEC
  0
EOF
