  0
SECTION
  2
HEADER
  9
$ACADVER
  1
AC1009
  9
$INSBASE
 10
0.0
 20
0.0
 30
0.0
  9
$EXTMIN
 10
-851.379426
 20
-10.022163
 30
0.0
  9
$EXTMAX
 10
1018.095104
 20
693.312099
 30
0.0
  9
$LIMMIN
 10
-851.379426
 20
-10.022163
  9
$LIMMAX
 10
1018.095104
 20
693.312099
  9
$ORTHOMODE
 70
     1
  9
$REGENMODE
 70
     1
  9
$FILLMODE
 70
     1
  9
$QTEXTMODE
 70
     0
  9
$MIRRTEXT
 70
     0
  9
$DRAGMODE
 70
     2
  9
$LTSCALE
 40
25.0
  9
$OSMODE
 70
     0
  9
$ATTMODE
 70
     1
  9
$TEXTSIZE
 40
200.0
  9
$TRACEWID
 40
1.0
  9
$TEXTSTYLE
  7
STANDARD
  9
$CLAYER
  8
TEAM-MAS
  9
$CELTYPE
  6
BYLAYER
  9
$CECOLOR
 62
   256
  9
$DIMSCALE
 40
0.0
  9
$DIMASZ
 40
20.0
  9
$DIMEXO
 40
10.0
  9
$DIMDLI
 40
1.0
  9
$DIMRND
 40
0.0
  9
$DIMDLE
 40
0.0
  9
$DIMEXE
 40
1.0
  9
$DIMTP
 40
0.0
  9
$DIMTM
 40
0.0
  9
$DIMTXT
 40
35.0
  9
$DIMCEN
 40
1.0
  9
$DIMTSZ
 40
0.0
  9
$DIMTOL
 70
     0
  9
$DIMLIM
 70
     0
  9
$DIMTIH
 70
     0
  9
$DIMTOH
 70
     0
  9
$DIMSE1
 70
     0
  9
$DIMSE2
 70
     0
  9
$DIMTAD
 70
     0
  9
$DIMZIN
 70
     0
  9
$DIMBLK
  1

  9
$DIMASO
 70
     1
  9
$DIMSHO
 70
     0
  9
$DIMPOST
  1

  9
$DIMAPOST
  1

  9
$DIMALT
 70
     0
  9
$DIMALTD
 70
     2
  9
$DIMALTF
 40
25.4
  9
$DIMLFAC
 40
1.0
  9
$DIMTOFL
 70
     0
  9
$DIMTVP
 40
0.0
  9
$DIMTIX
 70
     0
  9
$DIMSOXD
 70
     0
  9
$DIMSAH
 70
     0
  9
$DIMBLK1
  1

  9
$DIMBLK2
  1

  9
$DIMSTYLE
  2
TEAM
  9
$DIMCLRD
 70
     9
  9
$DIMCLRE
 70
     9
  9
$DIMCLRT
 70
    11
  9
$DIMTFAC
 40
1.0
  9
$DIMGAP
 40
15.0
  9
$LUNITS
 70
     2
  9
$LUPREC
 70
     1
  9
$SKETCHINC
 40
1.0
  9
$FILLETRAD
 40
50.0
  9
$AUNITS
 70
     0
  9
$AUPREC
 70
     0
  9
$MENU
  1
ROPLANS
  9
$ELEVATION
 40
0.0
  9
$PELEVATION
 40
0.0
  9
$THICKNESS
 40
0.0
  9
$LIMCHECK
 70
     0
  9
$BLIPMODE
 70
     1
  9
$CHAMFERA
 40
0.0
  9
$CHAMFERB
 40
0.0
  9
$SKPOLY
 70
     0
  9
$TDCREATE
 40
2450392.957851
  9
$TDUPDATE
 40
2455493.945579
  9
$TDINDWG
 40
1.992456
  9
$TDUSRTIMER
 40
1.992456
  9
$USRTIMER
 70
     1
  9
$ANGBASE
 50
0.0
  9
$ANGDIR
 70
     0
  9
$PDMODE
 70
     0
  9
$PDSIZE
 40
0.0
  9
$PLINEWID
 40
0.0
  9
$COORDS
 70
     2
  9
$SPLFRAME
 70
     0
  9
$SPLINETYPE
 70
     6
  9
$SPLINESEGS
 70
     8
  9
$ATTDIA
 70
     0
  9
$ATTREQ
 70
     0
  9
$HANDLING
 70
     1
  9
$HANDSEED
  5
21B
  9
$SURFTAB1
 70
    24
  9
$SURFTAB2
 70
    24
  9
$SURFTYPE
 70
     6
  9
$SURFU
 70
     6
  9
$SURFV
 70
     6
  9
$UCSNAME
  2

  9
$UCSORG
 10
0.0
 20
0.0
 30
0.0
  9
$UCSXDIR
 10
1.0
 20
0.0
 30
0.0
  9
$UCSYDIR
 10
0.0
 20
1.0
 30
0.0
  9
$PUCSNAME
  2

  9
$PUCSORG
 10
0.0
 20
0.0
 30
0.0
  9
$PUCSXDIR
 10
1.0
 20
0.0
 30
0.0
  9
$PUCSYDIR
 10
0.0
 20
1.0
 30
0.0
  9
$USERI1
 70
     0
  9
$USERI2
 70
     0
  9
$USERI3
 70
     0
  9
$USERI4
 70
     0
  9
$USERI5
 70
     0
  9
$USERR1
 40
0.0
  9
$USERR2
 40
0.0
  9
$USERR3
 40
0.0
  9
$USERR4
 40
0.0
  9
$USERR5
 40
0.0
  9
$WORLDVIEW
 70
     1
  9
$SHADEDGE
 70
     0
  9
$SHADEDIF
 70
    70
  9
$TILEMODE
 70
     1
  9
$MAXACTVP
 70
    16
  9
$PLIMCHECK
 70
     0
  9
$PEXTMIN
 10
-0.805942
 20
0.005011
 30
0.0
  9
$PEXTMAX
 10
20.250094
 20
11.356329
 30
0.0
  9
$PLIMMIN
 10
0.0
 20
0.0
  9
$PLIMMAX
 10
12.0
 20
9.0
  9
$UNITMODE
 70
     0
  9
$VISRETAIN
 70
     0
  9
$PLINEGEN
 70
     0
  9
$PSLTSCALE
 70
     0
  0
ENDSEC
  0
SECTION
  2
TABLES
  0
TABLE
  2
VPORT
 70
     2
  0
VPORT
  2
*ACTIVE
 70
     0
 10
0.0
 20
0.0
 11
1.0
 21
1.0
 12
83.357839
 22
341.644968
 13
0.0
 23
0.0
 14
1.0
 24
1.0
 15
50.0
 25
50.0
 16
0.0
 26
0.0
 36
1.0
 17
0.0
 27
0.0
 37
0.0
 40
1005.278898
 41
1.865779
 42
50.0
 43
0.0
 44
0.0
 50
0.0
 51
0.0
 71
     0
 72
   100
 73
     1
 74
     1
 75
     0
 76
     0
 77
     0
 78
     0
  0
ENDTAB
  0
TABLE
  2
LTYPE
 70
     3
  0
LTYPE
  2
CONTINUOUS
 70
     0
  3
Solid Line
 72
    65
 73
     0
 40
0.0
  0
LTYPE
  2
31
 70
     0
  3

 72
    65
 73
     4
 40
2.1
 49
1.5
 49
-0.3
 49
0.0
 49
-0.3
  0
LTYPE
  2
22
 70
     0
  3

 72
    65
 73
     2
 40
1.4
 49
1.2
 49
-0.2
  0
ENDTAB
  0
TABLE
  2
LAYER
 70
    10
  0
LAYER
  2
0
 70
     0
 62
     7
  6
CONTINUOUS
  0
LAYER
  2
DEFPOINTS
 70
     0
 62
     7
  6
CONTINUOUS
  0
LAYER
  2
TEAM-BODY
 70
     0
 62
     2
  6
CONTINUOUS
  0
LAYER
  2
TEAM-AXE
 70
     0
 62
    10
  6
31
  0
LAYER
  2
TEAM-MAS
 70
     0
 62
     9
  6
CONTINUOUS
  0
LAYER
  2
TEAM-TXT
 70
     0
 62
    11
  6
CONTINUOUS
  0
LAYER
  2
TEAM-DET1
 70
     0
 62
     4
  6
CONTINUOUS
  0
LAYER
  2
TEAM-HIDE
 70
     0
 62
     8
  6
22
  0
LAYER
  2
TEAM-KAN
 70
     0
 62
     6
  6
CONTINUOUS
  0
LAYER
  2
TEAM-INSP
 70
     0
 62
     5
  6
CONTINUOUS
  0
ENDTAB
  0
TABLE
  2
STYLE
 70
     2
  0
STYLE
  2
STANDARD
 70
     0
 40
0.0
 41
1.0
 50
0.0
 71
     0
 42
200.0
  3
txt
  4

  0
STYLE
  2
TEAM
 70
     0
 40
0.0
 41
0.8
 50
15.0
 71
     0
 42
7.0
  3
ROMANS.shx
  4

  0
ENDTAB
  0
TABLE
  2
VIEW
 70
     0
  0
ENDTAB
  0
TABLE
  2
UCS
 70
     0
  0
ENDTAB
  0
TABLE
  2
APPID
 70
     1
  0
APPID
  2
ACAD
 70
     0
  0
ENDTAB
  0
TABLE
  2
DIMSTYLE
 70
     1
  0
DIMSTYLE
  2
TEAM
 70
     0
  3

  4

  5

  6

  7

 40
0.0
 41
20.0
 42
10.0
 43
1.0
 44
1.0
 45
0.0
 46
0.0
 47
0.0
 48
0.0
140
35.0
141
1.0
142
0.0
143
25.4
144
1.0
145
0.0
146
1.0
147
15.0
 71
     0
 72
     0
 73
     0
 74
     0
 75
     0
 76
     0
 77
     0
 78
     0
170
     0
171
     2
172
     0
173
     0
174
     0
175
     0
176
     9
177
     9
178
    11
  0
ENDTAB
  0
ENDSEC
  0
SECTION
  2
BLOCKS
  0
BLOCK
  8
0
  2
$MODEL_SPACE
 70
     0
 10
0.0
 20
0.0
 30
0.0
  3
$MODEL_SPACE
  1

  0
ENDBLK
  5
1F2
  8
0
  0
BLOCK
 67
     1
  8
0
  2
$PAPER_SPACE
 70
     0
 10
0.0
 20
0.0
 30
0.0
  3
$PAPER_SPACE
  1

  0
ENDBLK
  5
1F0
 67
     1
  8
0
  0
BLOCK
  8
0
  2
*D0
 70
     1
 10
0.0
 20
0.0
 30
0.0
  3
*D0
  1

  0
LINE
  5
33
  8
0
  6
BYBLOCK
 62
     9
 10
12850.000014
 20
52560.0
 30
0.0
 11
12850.000014
 21
52678.521778
 31
0.0
  0
LINE
  5
34
  8
0
  6
BYBLOCK
 62
     9
 10
11149.999987
 20
52560.0
 30
0.0
 11
11149.999987
 21
52678.521778
 31
0.0
  0
LINE
  5
35
  8
0
  6
BYBLOCK
 62
     9
 10
12830.000014
 20
52677.521778
 30
0.0
 11
12055.26378
 21
52677.521778
 31
0.0
  0
LINE
  5
36
  8
0
  6
BYBLOCK
 62
     9
 10
11169.999987
 20
52677.521778
 30
0.0
 11
11944.73622
 21
52677.521778
 31
0.0
  0
SOLID
  5
37
  8
0
  6
BYBLOCK
 62
     9
 10
12830.000014
 20
52680.855111
 30
0.0
 11
12830.000014
 21
52674.188445
 31
0.0
 12
12850.000014
 22
52677.521778
 32
0.0
 13
12850.000014
 23
52677.521778
 33
0.0
  0
SOLID
  5
38
  8
0
  6
BYBLOCK
 62
     9
 10
11169.999987
 20
52680.855111
 30
0.0
 11
11169.999987
 21
52674.188445
 31
0.0
 12
11149.999987
 22
52677.521778
 32
0.0
 13
11149.999987
 23
52677.521778
 33
0.0
  0
TEXT
  5
39
  8
0
  6
BYBLOCK
 62
    11
 10
11954.48622
 20
52660.021778
 30
0.0
 40
35.0
  1
1700
  0
POINT
  5
3A
  8
DEFPOINTS
  6
BYBLOCK
 62
     0
 10
12850.000014
 20
52550.0
 30
0.0
  0
POINT
  5
3B
  8
DEFPOINTS
  6
BYBLOCK
 62
     0
 10
11149.999987
 20
52550.0
 30
0.0
  0
POINT
  5
3C
  8
DEFPOINTS
  6
BYBLOCK
 62
     0
 10
11149.999987
 20
52677.521778
 30
0.0
  0
ENDBLK
  5
3E
  8
0
  0
BLOCK
  8
0
  2
*D1
 70
     1
 10
0.0
 20
0.0
 30
0.0
  3
*D1
  1

  0
LINE
  5
24
  8
0
  6
BYBLOCK
 62
     9
 10
12854.000013
 20
52600.0
 30
0.0
 11
13001.778966
 21
52600.0
 31
0.0
  0
LINE
  5
25
  8
0
  6
BYBLOCK
 62
     9
 10
12164.265423
 20
52100.024006
 30
0.0
 11
13001.778966
 21
52100.024006
 31
0.0
  0
LINE
  5
26
  8
0
  6
BYBLOCK
 62
     9
 10
13000.778966
 20
52580.0
 30
0.0
 11
13000.778966
 21
52396.525783
 31
0.0
  0
LINE
  5
27
  8
0
  6
BYBLOCK
 62
     9
 10
13000.778966
 20
52120.024006
 30
0.0
 11
13000.778966
 21
52303.498224
 31
0.0
  0
SOLID
  5
28
  8
0
  6
BYBLOCK
 62
     9
 10
12997.445632
 20
52580.0
 30
0.0
 11
13004.112299
 21
52580.0
 31
0.0
 12
13000.778966
 22
52600.0
 32
0.0
 13
13000.778966
 23
52600.0
 33
0.0
  0
SOLID
  5
29
  8
0
  6
BYBLOCK
 62
     9
 10
12997.445632
 20
52120.024006
 30
0.0
 11
13004.112299
 21
52120.024006
 31
0.0
 12
13000.778966
 22
52100.024006
 32
0.0
 13
13000.778966
 23
52100.024006
 33
0.0
  0
TEXT
  5
2A
  8
0
  6
BYBLOCK
 62
    11
 10
13018.278966
 20
52313.248224
 30
0.0
 40
35.0
  1
500
 50
90.0
  0
POINT
  5
2B
  8
DEFPOINTS
  6
BYBLOCK
 62
     0
 10
12844.000013
 20
52600.0
 30
0.0
  0
POINT
  5
2D
  8
DEFPOINTS
  6
BYBLOCK
 62
     0
 10
12154.265423
 20
52100.024006
 30
0.0
  0
POINT
  5
2E
  8
DEFPOINTS
  6
BYBLOCK
 62
     0
 10
13000.778966
 20
52100.024006
 30
0.0
  0
ENDBLK
  5
30
  8
0
  0
BLOCK
  8
0
  2
*D2
 70
     1
 10
0.0
 20
0.0
 30
0.0
  3
*D2
  1

  0
LINE
  5
4D
  8
0
  6
BYBLOCK
 62
     9
 10
12141.0
 20
52078.699994
 30
0.0
 11
12141.0
 21
52057.952238
 31
0.0
  0
LINE
  5
4E
  8
0
  6
BYBLOCK
 62
     9
 10
12089.0
 20
52078.699994
 30
0.0
 11
12089.0
 21
52057.952238
 31
0.0
  0
LINE
  5
4F
  8
0
  6
BYBLOCK
 62
     9
 10
12161.0
 20
52058.952238
 30
0.0
 11
12181.0
 21
52058.952238
 31
0.0
  0
LINE
  5
50
  8
0
  6
BYBLOCK
 62
     9
 10
12069.0
 20
52058.952238
 30
0.0
 11
12049.0
 21
52058.952238
 31
0.0
  0
TEXT
  5
51
  8
0
  6
BYBLOCK
 62
    11
 10
12153.489278
 20
52041.452238
 30
0.0
 40
35.0
  1
52
  0
LINE
  5
52
  8
0
  6
BYBLOCK
 62
     9
 10
12141.0
 20
52058.952238
 30
0.0
 11
12089.0
 21
52058.952238
 31
0.0
  0
SOLID
  5
53
  8
0
  6
BYBLOCK
 62
     9
 10
12161.0
 20
52062.285572
 30
0.0
 11
12161.0
 21
52055.618905
 31
0.0
 12
12141.0
 22
52058.952238
 32
0.0
 13
12141.0
 23
52058.952238
 33
0.0
  0
SOLID
  5
54
  8
0
  6
BYBLOCK
 62
     9
 10
12069.0
 20
52062.285572
 30
0.0
 11
12069.0
 21
52055.618905
 31
0.0
 12
12089.0
 22
52058.952238
 32
0.0
 13
12089.0
 23
52058.952238
 33
0.0
  0
POINT
  5
55
  8
DEFPOINTS
  6
BYBLOCK
 62
     0
 10
12141.0
 20
52088.699994
 30
0.0
  0
POINT
  5
56
  8
DEFPOINTS
  6
BYBLOCK
 62
     0
 10
12089.0
 20
52088.699994
 30
0.0
  0
POINT
  5
57
  8
DEFPOINTS
  6
BYBLOCK
 62
     0
 10
12089.0
 20
52058.952238
 30
0.0
  0
ENDBLK
  5
59
  8
0
  0
BLOCK
  8
0
  2
*D3
 70
     1
 10
0.0
 20
0.0
 30
0.0
  3
*D3
  1

  0
LINE
  5
77
  8
0
  6
BYBLOCK
 62
     9
 10
12854.000013
 20
52600.0
 30
0.0
 11
12925.416714
 21
52600.0
 31
0.0
  0
LINE
  5
78
  8
0
  6
BYBLOCK
 62
     9
 10
12860.000014
 20
52500.0
 30
0.0
 11
12925.416714
 21
52500.0
 31
0.0
  0
LINE
  5
79
  8
0
  6
BYBLOCK
 62
     9
 10
12924.416714
 20
52620.0
 30
0.0
 11
12924.416714
 21
52640.0
 31
0.0
  0
LINE
  5
7A
  8
0
  6
BYBLOCK
 62
     9
 10
12924.416714
 20
52480.0
 30
0.0
 11
12924.416714
 21
52460.0
 31
0.0
  0
SOLID
  5
7B
  8
0
  6
BYBLOCK
 62
     9
 10
12921.083381
 20
52620.0
 30
0.0
 11
12927.750048
 21
52620.0
 31
0.0
 12
12924.416714
 22
52600.0
 32
0.0
 13
12924.416714
 23
52600.0
 33
0.0
  0
SOLID
  5
7C
  8
0
  6
BYBLOCK
 62
     9
 10
12921.083381
 20
52480.0
 30
0.0
 11
12927.750048
 21
52480.0
 31
0.0
 12
12924.416714
 22
52500.0
 32
0.0
 13
12924.416714
 23
52500.0
 33
0.0
  0
TEXT
  5
7D
  8
0
  6
BYBLOCK
 62
    11
 10
12941.916714
 20
52516.73622
 30
0.0
 40
35.0
  1
100
 50
90.0
  0
POINT
  5
7E
  8
DEFPOINTS
  6
BYBLOCK
 62
     0
 10
12844.000013
 20
52600.0
 30
0.0
  0
POINT
  5
7F
  8
DEFPOINTS
  6
BYBLOCK
 62
     0
 10
12850.000014
 20
52500.0
 30
0.0
  0
POINT
  5
80
  8
DEFPOINTS
  6
BYBLOCK
 62
     0
 10
12924.416714
 20
52500.0
 30
0.0
  0
ENDBLK
  5
82
  8
0
  0
ENDSEC
  0
SECTION
  2
ENTITIES
  0
LINE
  5
20
  8
TEAM-BODY
 10
154.270001
 20
100.029994
 30
0.0
 11
686.801573
 21
120.024006
 31
0.0
  0
DIMENSION
  5
22
  8
TEAM-MAS
  2
*D1
 10
1000.778966
 20
100.024006
 30
0.0
 11
1000.778966
 21
350.012003
 31
0.0
 12
-12000.0
 22
-52000.0
 32
0.0
 13
844.000013
 23
600.0
 33
0.0
 14
154.265423
 24
100.024006
 34
0.0
 50
90.0
1001
ACAD
1000
DSTYLE
1002
{
1070
    40
1040
1.0
1002
}
  0
DIMENSION
  5
31
  8
0
  2
*D0
 10
-850.000014
 20
677.521778
 30
0.0
 11
0.0
 21
677.521778
 31
0.0
 12
-12000.0
 22
-52000.0
 32
0.0
 13
850.000014
 23
550.0
 33
0.0
 14
-850.000014
 24
550.0
 34
0.0
1001
ACAD
1000
DSTYLE
1002
{
1070
    78
1070
     0
1070
    40
1040
1.0
1002
}
  0
LINE
  5
3F
  8
TEAM-BODY
 10
-844.000013
 20
600.0
 30
0.0
 11
844.000013
 21
600.0
 31
0.0
  0
LINE
  5
40
  8
TEAM-BODY
 10
-850.000014
 20
500.0
 30
0.0
 11
850.000014
 21
500.0
 31
0.0
  0
LINE
  5
41
  8
TEAM-BODY
 10
75.739999
 20
100.029994
 30
0.0
 11
-465.244577
 21
120.024006
 31
0.0
  0
CIRCLE
  5
42
  8
TEAM-INSP
 10
0.0
 20
0.0
 30
0.0
 40
10.0
  0
POLYLINE
  5
44
  8
TEAM-DET1
 66
     1
 10
0.0
 20
0.0
 30
0.0
 70
   129
  0
VERTEX
  5
1F8
  8
TEAM-DET1
 10
89.0
 20
539.263828
 30
0.0
  0
VERTEX
  5
1F9
  8
TEAM-DET1
 10
89.469853
 20
536.481572
 30
0.0
  0
VERTEX
  5
1FA
  8
TEAM-DET1
 10
90.862433
 20
533.799873
 30
0.0
  0
VERTEX
  5
1FB
  8
TEAM-DET1
 10
93.127408
 20
531.315656
 30
0.0
  0
VERTEX
  5
1FC
  8
TEAM-DET1
 10
96.182915
 20
529.118707
 30
0.0
  0
VERTEX
  5
1FD
  8
TEAM-DET1
 10
99.91852
 20
527.288428
 30
0.0
  0
VERTEX
  5
1FE
  8
TEAM-DET1
 10
104.199209
 20
525.890972
 30
0.0
  0
VERTEX
  5
1FF
  8
TEAM-DET1
 10
108.870268
 20
524.976846
 30
0.0
  0
VERTEX
  5
200
  8
TEAM-DET1
 10
113.76287
 20
524.579088
 30
0.0
  0
VERTEX
  5
201
  8
TEAM-DET1
 10
118.700186
 20
524.712076
 30
0.0
  0
VERTEX
  5
202
  8
TEAM-DET1
 10
123.503767
 20
525.371001
 30
0.0
  0
VERTEX
  5
203
  8
TEAM-DET1
 10
128.0
 20
526.53205
 30
0.0
  0
VERTEX
  5
204
  8
TEAM-DET1
 10
132.026379
 20
528.153258
 30
0.0
  0
VERTEX
  5
205
  8
TEAM-DET1
 10
135.437381
 20
530.176031
 30
0.0
  0
VERTEX
  5
206
  8
TEAM-DET1
 10
138.109722
 20
532.527261
 30
0.0
  0
VERTEX
  5
207
  8
TEAM-DET1
 10
139.946818
 20
535.121968
 30
0.0
  0
VERTEX
  5
208
  8
TEAM-DET1
 10
140.88227
 20
537.866372
 30
0.0
  0
VERTEX
  5
209
  8
TEAM-DET1
 10
140.88227
 20
540.661284
 30
0.0
  0
VERTEX
  5
20A
  8
TEAM-DET1
 10
139.946818
 20
543.405689
 30
0.0
  0
VERTEX
  5
20B
  8
TEAM-DET1
 10
138.109722
 20
546.000396
 30
0.0
  0
VERTEX
  5
20C
  8
TEAM-DET1
 10
135.437381
 20
548.351626
 30
0.0
  0
VERTEX
  5
20D
  8
TEAM-DET1
 10
132.026379
 20
550.374399
 30
0.0
  0
VERTEX
  5
20E
  8
TEAM-DET1
 10
128.0
 20
551.995607
 30
0.0
  0
VERTEX
  5
20F
  8
TEAM-DET1
 10
123.503767
 20
553.156655
 30
0.0
  0
VERTEX
  5
210
  8
TEAM-DET1
 10
118.700186
 20
553.815581
 30
0.0
  0
VERTEX
  5
211
  8
TEAM-DET1
 10
113.76287
 20
553.948568
 30
0.0
  0
VERTEX
  5
212
  8
TEAM-DET1
 10
108.870268
 20
553.550811
 30
0.0
  0
VERTEX
  5
213
  8
TEAM-DET1
 10
104.199209
 20
552.636684
 30
0.0
  0
VERTEX
  5
214
  8
TEAM-DET1
 10
99.91852
 20
551.239228
 30
0.0
  0
VERTEX
  5
215
  8
TEAM-DET1
 10
96.182915
 20
549.40895
 30
0.0
  0
VERTEX
  5
216
  8
TEAM-DET1
 10
93.127408
 20
547.212001
 30
0.0
  0
VERTEX
  5
217
  8
TEAM-DET1
 10
90.862433
 20
544.727784
 30
0.0
  0
VERTEX
  5
218
  8
TEAM-DET1
 10
89.469853
 20
542.046085
 30
0.0
  0
SEQEND
  5
219
  8
TEAM-DET1
  0
LINE
  5
46
  8
TEAM-AXE
 10
89.0
 20
539.263828
 30
0.0
 11
141.0
 21
539.263828
 31
0.0
  0
LINE
  5
49
  8
TEAM-AXE
 10
115.0
 20
553.96522
 30
0.0
 11
115.0
 21
524.562437
 31
0.0
  0
LINE
  5
4A
  8
TEAM-AXE
 10
115.0
 20
103.401385
 30
0.0
 11
115.0
 21
73.998602
 31
0.0
  0
DIMENSION
  5
4B
  8
TEAM-MAS
  2
*D2
 10
89.0
 20
58.952238
 30
0.0
 11
179.040312
 21
58.952238
 31
0.0
 12
-12000.0
 22
-52000.0
 32
0.0
 70
   128
 13
141.0
 23
88.699994
 33
0.0
 14
89.0
 24
88.699994
 34
0.0
1001
ACAD
1000
DSTYLE
1002
{
1070
    40
1040
1.0
1002
}
  0
ARC
  5
5A
  8
TEAM-BODY
 10
115.0
 20
1599.510016
 30
0.0
 40
1500.000023
 50
268.5
 51
271.5
  0
LINE
  5
5B
  8
TEAM-KAN
 10
85.81
 20
91.699994
 30
0.0
 11
144.19
 21
91.699994
 31
0.0
  0
LINE
  5
5D
  8
TEAM-KAN
 10
85.81
 20
88.699994
 30
0.0
 11
144.19
 21
88.699994
 31
0.0
  0
ARC
  5
5E
  8
TEAM-KAN
 10
71.119999
 20
88.139994
 30
0.0
 40
12.0
 50
30.18664
 51
88.48913
  0
ARC
  5
5F
  8
TEAM-KAN
 10
71.119999
 20
88.139994
 30
0.0
 40
9.0
 50
30.19201
 51
88.50761
  0
ARC
  5
60
  8
TEAM-KAN
 10
85.81
 20
96.699994
 30
0.0
 40
8.0
 50
210.196
 51
270.0
  0
ARC
  5
61
  8
TEAM-KAN
 10
85.81
 20
96.699994
 30
0.0
 40
5.0
 50
210.2113
 51
270.0
  0
LINE
  5
62
  8
TEAM-KAN
 10
89.0
 20
88.699994
 30
0.0
 11
89.0
 21
91.699994
 31
0.0
  0
ARC
  5
63
  8
TEAM-KAN
 10
158.890001
 20
88.139994
 30
0.0
 40
12.0
 50
91.51086
 51
149.804
  0
ARC
  5
64
  8
TEAM-KAN
 10
158.890001
 20
88.139994
 30
0.0
 40
9.0
 50
91.51724
 51
149.7955
  0
ARC
  5
65
  8
TEAM-KAN
 10
144.19
 20
96.699994
 30
0.0
 40
8.0
 50
270.0
 51
329.804
  0
ARC
  5
66
  8
TEAM-KAN
 10
144.19
 20
96.699994
 30
0.0
 40
5.0
 50
270.0
 51
329.8112
  0
LINE
  5
67
  8
TEAM-KAN
 10
141.0
 20
88.699994
 30
0.0
 11
141.0
 21
91.699994
 31
0.0
  0
ARC
  5
68
  8
TEAM-HIDE
 10
-1760.714549
 20
-429.073756
 30
0.0
 40
1399.352311
 50
41.600387
 51
47.340426
  0
ARC
  5
6B
  8
TEAM-BODY
 10
-844.000013
 20
594.0
 30
0.0
 40
6.0
 50
90.0
 51
180.0
  0
LINE
  5
6C
  8
TEAM-BODY
 10
-850.000014
 20
500.0
 30
0.0
 11
-850.000014
 21
594.0
 31
0.0
  0
ARC
  5
6D
  8
TEAM-BODY
 10
-1661.783745
 20
-392.608043
 30
0.0
 40
1301.728696
 50
23.191695
 51
43.29145
  0
TEXT
  5
6E
  8
TEAM-TXT
 10
-637.908598
 20
430.954819
 30
0.0
 40
30.0
  1
team 121726
 41
0.8
 51
15.0
  7
TEAM
  0
ARC
  5
71
  8
TEAM-BODY
 10
1716.217207
 20
98.88046
 30
0.0
 40
1029.632749
 50
157.071921
 51
178.823346
  0
ARC
  5
72
  8
TEAM-HIDE
 10
1821.657806
 20
78.050546
 30
0.0
 40
1135.068941
 50
152.623253
 51
158.177091
  0
ARC
  5
73
  8
TEAM-BODY
 10
844.000013
 20
594.0
 30
0.0
 40
6.0
 50
0.0
 51
90.0
  0
LINE
  5
74
  8
TEAM-BODY
 10
850.000014
 20
500.0
 30
0.0
 11
850.000014
 21
594.0
 31
0.0
  0
DIMENSION
  5
75
  8
0
  2
*D3
 10
924.416714
 20
500.0
 30
0.0
 11
924.416714
 21
550.0
 31
0.0
 12
-12000.0
 22
-52000.0
 32
0.0
 13
844.000013
 23
600.0
 33
0.0
 14
850.000014
 24
500.0
 34
0.0
 50
90.0
1001
ACAD
1000
DSTYLE
1002
{
1070
    78
1070
     0
1070
    40
1040
1.0
1002
}
  0
ENDSEC
  0
EOF
