  0
SECTION
  2
HEADER
  9
$ACADVER
  1
AC1009
  9
$INSBASE
 10
0.0
 20
0.0
 30
0.0
  9
$EXTMIN
 10
-850.104479
 20
-375.066545
 30
0.0
  9
$EXTMAX
 10
1000.77031
 20
551.620627
 30
0.0
  9
$LIMMIN
 10
-850.104479
 20
-375.066545
  9
$LIMMAX
 10
1000.77031
 20
551.620627
  9
$ORTHOMODE
 70
     1
  9
$REGENMODE
 70
     1
  9
$FILLMODE
 70
     1
  9
$QTEXTMODE
 70
     0
  9
$MIRRTEXT
 70
     0
  9
$DRAGMODE
 70
     2
  9
$LTSCALE
 40
25.0
  9
$OSMODE
 70
     0
  9
$ATTMODE
 70
     1
  9
$TEXTSIZE
 40
200.0
  9
$TRACEWID
 40
1.0
  9
$TEXTSTYLE
  7
STANDARD
  9
$CLAYER
  8
TEAM-MAS
  9
$CELTYPE
  6
BYLAYER
  9
$CECOLOR
 62
   256
  9
$DIMSCALE
 40
0.0
  9
$DIMASZ
 40
20.0
  9
$DIMEXO
 40
10.0
  9
$DIMDLI
 40
1.0
  9
$DIMRND
 40
0.0
  9
$DIMDLE
 40
0.0
  9
$DIMEXE
 40
1.0
  9
$DIMTP
 40
0.0
  9
$DIMTM
 40
0.0
  9
$DIMTXT
 40
35.0
  9
$DIMCEN
 40
1.0
  9
$DIMTSZ
 40
0.0
  9
$DIMTOL
 70
     0
  9
$DIMLIM
 70
     0
  9
$DIMTIH
 70
     0
  9
$DIMTOH
 70
     0
  9
$DIMSE1
 70
     0
  9
$DIMSE2
 70
     0
  9
$DIMTAD
 70
     0
  9
$DIMZIN
 70
     0
  9
$DIMBLK
  1

  9
$DIMASO
 70
     1
  9
$DIMSHO
 70
     0
  9
$DIMPOST
  1

  9
$DIMAPOST
  1

  9
$DIMALT
 70
     0
  9
$DIMALTD
 70
     2
  9
$DIMALTF
 40
25.4
  9
$DIMLFAC
 40
1.0
  9
$DIMTOFL
 70
     0
  9
$DIMTVP
 40
0.0
  9
$DIMTIX
 70
     0
  9
$DIMSOXD
 70
     0
  9
$DIMSAH
 70
     0
  9
$DIMBLK1
  1

  9
$DIMBLK2
  1

  9
$DIMSTYLE
  2
TEAM
  9
$DIMCLRD
 70
     9
  9
$DIMCLRE
 70
     9
  9
$DIMCLRT
 70
    11
  9
$DIMTFAC
 40
1.0
  9
$DIMGAP
 40
15.0
  9
$LUNITS
 70
     2
  9
$LUPREC
 70
     1
  9
$SKETCHINC
 40
1.0
  9
$FILLETRAD
 40
50.0
  9
$AUNITS
 70
     0
  9
$AUPREC
 70
     0
  9
$MENU
  1
ROPLANS
  9
$ELEVATION
 40
0.0
  9
$PELEVATION
 40
0.0
  9
$THICKNESS
 40
0.0
  9
$LIMCHECK
 70
     0
  9
$BLIPMODE
 70
     1
  9
$CHAMFERA
 40
0.0
  9
$CHAMFERB
 40
0.0
  9
$SKPOLY
 70
     0
  9
$TDCREATE
 40
2450392.957851
  9
$TDUPDATE
 40
2455493.945579
  9
$TDINDWG
 40
1.992456
  9
$TDUSRTIMER
 40
1.992456
  9
$USRTIMER
 70
     1
  9
$ANGBASE
 50
0.0
  9
$ANGDIR
 70
     0
  9
$PDMODE
 70
     0
  9
$PDSIZE
 40
0.0
  9
$PLINEWID
 40
0.0
  9
$COORDS
 70
     2
  9
$SPLFRAME
 70
     0
  9
$SPLINETYPE
 70
     6
  9
$SPLINESEGS
 70
     8
  9
$ATTDIA
 70
     0
  9
$ATTREQ
 70
     0
  9
$HANDLING
 70
     1
  9
$HANDSEED
  5
53B
  9
$SURFTAB1
 70
    24
  9
$SURFTAB2
 70
    24
  9
$SURFTYPE
 70
     6
  9
$SURFU
 70
     6
  9
$SURFV
 70
     6
  9
$UCSNAME
  2

  9
$UCSORG
 10
0.0
 20
0.0
 30
0.0
  9
$UCSXDIR
 10
1.0
 20
0.0
 30
0.0
  9
$UCSYDIR
 10
0.0
 20
1.0
 30
0.0
  9
$PUCSNAME
  2

  9
$PUCSORG
 10
0.0
 20
0.0
 30
0.0
  9
$PUCSXDIR
 10
1.0
 20
0.0
 30
0.0
  9
$PUCSYDIR
 10
0.0
 20
1.0
 30
0.0
  9
$USERI1
 70
     0
  9
$USERI2
 70
     0
  9
$USERI3
 70
     0
  9
$USERI4
 70
     0
  9
$USERI5
 70
     0
  9
$USERR1
 40
0.0
  9
$USERR2
 40
0.0
  9
$USERR3
 40
0.0
  9
$USERR4
 40
0.0
  9
$USERR5
 40
0.0
  9
$WORLDVIEW
 70
     1
  9
$SHADEDGE
 70
     0
  9
$SHADEDIF
 70
    70
  9
$TILEMODE
 70
     1
  9
$MAXACTVP
 70
    16
  9
$PLIMCHECK
 70
     0
  9
$PEXTMIN
 10
-0.805942
 20
0.005011
 30
0.0
  9
$PEXTMAX
 10
20.250094
 20
11.356329
 30
0.0
  9
$PLIMMIN
 10
0.0
 20
0.0
  9
$PLIMMAX
 10
12.0
 20
9.0
  9
$UNITMODE
 70
     0
  9
$VISRETAIN
 70
     0
  9
$PLINEGEN
 70
     0
  9
$PSLTSCALE
 70
     0
  0
ENDSEC
  0
SECTION
  2
TABLES
  0
TABLE
  2
VPORT
 70
     2
  0
VPORT
  2
*ACTIVE
 70
     0
 10
0.0
 20
0.0
 11
1.0
 21
1.0
 12
75.332916
 22
88.277041
 13
0.0
 23
0.0
 14
1.0
 24
1.0
 15
50.0
 25
50.0
 16
0.0
 26
0.0
 36
1.0
 17
0.0
 27
0.0
 37
0.0
 40
995.277196
 41
1.865779
 42
50.0
 43
0.0
 44
0.0
 50
0.0
 51
0.0
 71
     0
 72
   100
 73
     1
 74
     1
 75
     0
 76
     0
 77
     0
 78
     0
  0
ENDTAB
  0
TABLE
  2
LTYPE
 70
     2
  0
LTYPE
  2
CONTINUOUS
 70
     0
  3
Solid Line
 72
    65
 73
     0
 40
0.0
  0
LTYPE
  2
31
 70
     0
  3

 72
    65
 73
     4
 40
2.1
 49
1.5
 49
-0.3
 49
0.0
 49
-0.3
  0
ENDTAB
  0
TABLE
  2
LAYER
 70
     9
  0
LAYER
  2
0
 70
     0
 62
     7
  6
CONTINUOUS
  0
LAYER
  2
DEFPOINTS
 70
     0
 62
     7
  6
CONTINUOUS
  0
LAYER
  2
TEAM-BODY
 70
     0
 62
     2
  6
CONTINUOUS
  0
LAYER
  2
TEAM-AXE
 70
     0
 62
    10
  6
31
  0
LAYER
  2
TEAM-MAS
 70
     0
 62
     9
  6
CONTINUOUS
  0
LAYER
  2
TEAM-TXT
 70
     0
 62
    11
  6
CONTINUOUS
  0
LAYER
  2
TEAM-DET1
 70
     0
 62
     4
  6
CONTINUOUS
  0
LAYER
  2
TEAM-KAN
 70
     0
 62
     6
  6
CONTINUOUS
  0
LAYER
  2
TEAM-INSP
 70
     0
 62
     5
  6
CONTINUOUS
  0
ENDTAB
  0
TABLE
  2
STYLE
 70
     2
  0
STYLE
  2
STANDARD
 70
     0
 40
0.0
 41
1.0
 50
0.0
 71
     0
 42
200.0
  3
txt
  4

  0
STYLE
  2
TEAM
 70
     0
 40
0.0
 41
0.8
 50
15.0
 71
     0
 42
7.0
  3
ROMANS.shx
  4

  0
ENDTAB
  0
TABLE
  2
VIEW
 70
     0
  0
ENDTAB
  0
TABLE
  2
UCS
 70
     0
  0
ENDTAB
  0
TABLE
  2
APPID
 70
     1
  0
APPID
  2
ACAD
 70
     0
  0
ENDTAB
  0
TABLE
  2
DIMSTYLE
 70
     1
  0
DIMSTYLE
  2
TEAM
 70
     0
  3

  4

  5

  6

  7

 40
0.0
 41
20.0
 42
10.0
 43
1.0
 44
1.0
 45
0.0
 46
0.0
 47
0.0
 48
0.0
140
35.0
141
1.0
142
0.0
143
25.4
144
1.0
145
0.0
146
1.0
147
15.0
 71
     0
 72
     0
 73
     0
 74
     0
 75
     0
 76
     0
 77
     0
 78
     0
170
     0
171
     2
172
     0
173
     0
174
     0
175
     0
176
     9
177
     9
178
    11
  0
ENDTAB
  0
ENDSEC
  0
SECTION
  2
BLOCKS
  0
BLOCK
  8
0
  2
$MODEL_SPACE
 70
     0
 10
0.0
 20
0.0
 30
0.0
  3
$MODEL_SPACE
  1

  0
ENDBLK
  5
49C
  8
0
  0
BLOCK
 67
     1
  8
0
  2
$PAPER_SPACE
 70
     0
 10
0.0
 20
0.0
 30
0.0
  3
$PAPER_SPACE
  1

  0
ENDBLK
  5
49A
 67
     1
  8
0
  0
BLOCK
  8
0
  2
*D0
 70
     1
 10
0.0
 20
0.0
 30
0.0
  3
*D0
  1

  0
LINE
  5
28
  8
0
  6
BYBLOCK
 62
     9
 10
4850.0
 20
84010.0
 30
0.0
 11
4850.0
 21
84536.800293
 31
0.0
  0
LINE
  5
29
  8
0
  6
BYBLOCK
 62
     9
 10
3149.999973
 20
84010.0
 30
0.0
 11
3149.999973
 21
84536.800293
 31
0.0
  0
LINE
  5
2A
  8
0
  6
BYBLOCK
 62
     9
 10
4830.0
 20
84535.800293
 30
0.0
 11
4055.263766
 21
84535.800293
 31
0.0
  0
LINE
  5
2B
  8
0
  6
BYBLOCK
 62
     9
 10
3169.999973
 20
84535.800293
 30
0.0
 11
3944.736207
 21
84535.800293
 31
0.0
  0
SOLID
  5
2C
  8
0
  6
BYBLOCK
 62
     9
 10
4830.0
 20
84539.133626
 30
0.0
 11
4830.0
 21
84532.46696
 31
0.0
 12
4850.0
 22
84535.800293
 32
0.0
 13
4850.0
 23
84535.800293
 33
0.0
  0
SOLID
  5
2D
  8
0
  6
BYBLOCK
 62
     9
 10
3169.999973
 20
84539.133626
 30
0.0
 11
3169.999973
 21
84532.46696
 31
0.0
 12
3149.999973
 22
84535.800293
 32
0.0
 13
3149.999973
 23
84535.800293
 33
0.0
  0
TEXT
  5
2E
  8
0
  6
BYBLOCK
 62
    11
 10
3954.486207
 20
84518.300293
 30
0.0
 40
35.0
  1
1700
  0
POINT
  5
2F
  8
DEFPOINTS
  6
BYBLOCK
 62
     0
 10
4850.0
 20
84000.0
 30
0.0
  0
POINT
  5
31
  8
DEFPOINTS
  6
BYBLOCK
 62
     0
 10
3149.999973
 20
84000.0
 30
0.0
  0
POINT
  5
32
  8
DEFPOINTS
  6
BYBLOCK
 62
     0
 10
3149.999973
 20
84535.800293
 30
0.0
  0
ENDBLK
  5
34
  8
0
  0
BLOCK
  8
0
  2
*D1
 70
     1
 10
0.0
 20
0.0
 30
0.0
  3
*D1
  1

  0
LINE
  5
61
  8
0
  6
BYBLOCK
 62
     9
 10
4850.0
 20
84010.0
 30
0.0
 11
4850.0
 21
84454.317306
 31
0.0
  0
LINE
  5
62
  8
0
  6
BYBLOCK
 62
     9
 10
4549.999987
 20
84010.0
 30
0.0
 11
4549.999987
 21
84454.317306
 31
0.0
  0
LINE
  5
63
  8
0
  6
BYBLOCK
 62
     9
 10
4830.0
 20
84453.317306
 30
0.0
 11
4746.513773
 21
84453.317306
 31
0.0
  0
LINE
  5
64
  8
0
  6
BYBLOCK
 62
     9
 10
4569.999987
 20
84453.317306
 30
0.0
 11
4653.486214
 21
84453.317306
 31
0.0
  0
SOLID
  5
65
  8
0
  6
BYBLOCK
 62
     9
 10
4830.0
 20
84456.650639
 30
0.0
 11
4830.0
 21
84449.983973
 31
0.0
 12
4850.0
 22
84453.317306
 32
0.0
 13
4850.0
 23
84453.317306
 33
0.0
  0
SOLID
  5
66
  8
0
  6
BYBLOCK
 62
     9
 10
4569.999987
 20
84456.650639
 30
0.0
 11
4569.999987
 21
84449.983973
 31
0.0
 12
4549.999987
 22
84453.317306
 32
0.0
 13
4549.999987
 23
84453.317306
 33
0.0
  0
TEXT
  5
67
  8
0
  6
BYBLOCK
 62
    11
 10
4663.236214
 20
84435.817306
 30
0.0
 40
35.0
  1
300
  0
POINT
  5
68
  8
DEFPOINTS
  6
BYBLOCK
 62
     0
 10
4850.0
 20
84000.0
 30
0.0
  0
POINT
  5
69
  8
DEFPOINTS
  6
BYBLOCK
 62
     0
 10
4549.999987
 20
84000.0
 30
0.0
  0
POINT
  5
6A
  8
DEFPOINTS
  6
BYBLOCK
 62
     0
 10
4549.999987
 20
84453.317306
 30
0.0
  0
ENDBLK
  5
6C
  8
0
  0
BLOCK
  8
0
  2
*D2
 70
     1
 10
0.0
 20
0.0
 30
0.0
  3
*D2
  1

  0
LINE
  5
53
  8
0
  6
BYBLOCK
 62
     9
 10
4559.999987
 20
84000.0
 30
0.0
 11
4919.795674
 21
84000.0
 31
0.0
  0
LINE
  5
54
  8
0
  6
BYBLOCK
 62
     9
 10
4860.0
 20
83625.0
 30
0.0
 11
4919.795674
 21
83625.0
 31
0.0
  0
LINE
  5
55
  8
0
  6
BYBLOCK
 62
     9
 10
4918.795674
 20
83980.0
 30
0.0
 11
4918.795674
 21
83859.724874
 31
0.0
  0
LINE
  5
56
  8
0
  6
BYBLOCK
 62
     9
 10
4918.795674
 20
83645.0
 30
0.0
 11
4918.795674
 21
83765.275126
 31
0.0
  0
SOLID
  5
57
  8
0
  6
BYBLOCK
 62
     9
 10
4915.462341
 20
83980.0
 30
0.0
 11
4922.129007
 21
83980.0
 31
0.0
 12
4918.795674
 22
84000.0
 32
0.0
 13
4918.795674
 23
84000.0
 33
0.0
  0
SOLID
  5
58
  8
0
  6
BYBLOCK
 62
     9
 10
4915.462341
 20
83645.0
 30
0.0
 11
4922.129007
 21
83645.0
 31
0.0
 12
4918.795674
 22
83625.0
 32
0.0
 13
4918.795674
 23
83625.0
 33
0.0
  0
TEXT
  5
59
  8
0
  6
BYBLOCK
 62
    11
 10
4936.295674
 20
83775.025126
 30
0.0
 40
35.0
  1
375
 50
90.0
  0
POINT
  5
5A
  8
DEFPOINTS
  6
BYBLOCK
 62
     0
 10
4549.999987
 20
84000.0
 30
0.0
  0
POINT
  5
5B
  8
DEFPOINTS
  6
BYBLOCK
 62
     0
 10
4850.0
 20
83625.0
 30
0.0
  0
POINT
  5
5C
  8
DEFPOINTS
  6
BYBLOCK
 62
     0
 10
4918.795674
 20
83625.0
 30
0.0
  0
ENDBLK
  5
5E
  8
0
  0
BLOCK
  8
0
  2
*D3
 70
     1
 10
0.0
 20
0.0
 30
0.0
  3
*D3
  1

  0
LINE
  5
3B
  8
0
  6
BYBLOCK
 62
     9
 10
4860.0
 20
84375.0
 30
0.0
 11
4984.54149
 21
84375.0
 31
0.0
  0
LINE
  5
3C
  8
0
  6
BYBLOCK
 62
     9
 10
4860.0
 20
83625.0
 30
0.0
 11
4984.54149
 21
83625.0
 31
0.0
  0
LINE
  5
3D
  8
0
  6
BYBLOCK
 62
     9
 10
4983.54149
 20
84355.0
 30
0.0
 11
4983.54149
 21
84046.51378
 31
0.0
  0
LINE
  5
3E
  8
0
  6
BYBLOCK
 62
     9
 10
4983.54149
 20
83645.0
 30
0.0
 11
4983.54149
 21
83953.48622
 31
0.0
  0
SOLID
  5
3F
  8
0
  6
BYBLOCK
 62
     9
 10
4980.208157
 20
84355.0
 30
0.0
 11
4986.874823
 21
84355.0
 31
0.0
 12
4983.54149
 22
84375.0
 32
0.0
 13
4983.54149
 23
84375.0
 33
0.0
  0
SOLID
  5
40
  8
0
  6
BYBLOCK
 62
     9
 10
4980.208157
 20
83645.0
 30
0.0
 11
4986.874823
 21
83645.0
 31
0.0
 12
4983.54149
 22
83625.0
 32
0.0
 13
4983.54149
 23
83625.0
 33
0.0
  0
TEXT
  5
41
  8
0
  6
BYBLOCK
 62
    11
 10
5001.04149
 20
83963.23622
 30
0.0
 40
35.0
  1
750
 50
90.0
  0
POINT
  5
42
  8
DEFPOINTS
  6
BYBLOCK
 62
     0
 10
4850.0
 20
84375.0
 30
0.0
  0
POINT
  5
43
  8
DEFPOINTS
  6
BYBLOCK
 62
     0
 10
4850.0
 20
83625.0
 30
0.0
  0
POINT
  5
44
  8
DEFPOINTS
  6
BYBLOCK
 62
     0
 10
4983.54149
 20
83625.0
 30
0.0
  0
ENDBLK
  5
46
  8
0
  0
ENDSEC
  0
SECTION
  2
ENTITIES
  0
POLYLINE
  5
20
  8
TEAM-BODY
 66
     1
 10
0.0
 20
0.0
 30
0.0
  0
VERTEX
  5
4A2
  8
TEAM-BODY
 10
-465.000027
 20
0.0
 30
0.0
 42
-0.046869
  0
VERTEX
  5
4A3
  8
TEAM-BODY
 10
-445.806175
 20
204.31219
 30
0.0
 42
-0.360349
  0
VERTEX
  5
4A4
  8
TEAM-BODY
 10
-396.680997
 20
245.0
 30
0.0
  0
VERTEX
  5
4A5
  8
TEAM-BODY
 10
17.071349
 20
245.0
 30
0.0
 42
0.001483
  0
VERTEX
  5
4A6
  8
TEAM-BODY
 10
36.117349
 20
245.0
 30
0.0
  0
VERTEX
  5
4A7
  8
TEAM-BODY
 10
80.927289
 20
245.0
 30
0.0
 42
0.000368
  0
VERTEX
  5
4A8
  8
TEAM-BODY
 10
99.97329
 20
245.0
 30
0.0
  0
VERTEX
  5
4A9
  8
TEAM-BODY
 10
622.410325
 20
245.0
 30
0.0
 42
-0.353208
  0
VERTEX
  5
4AA
  8
TEAM-BODY
 10
671.283805
 20
205.553815
 30
0.0
 42
-0.076007
  0
VERTEX
  5
4AB
  8
TEAM-BODY
 10
696.0
 20
0.0
 30
0.0
  0
SEQEND
  5
4AC
  8
TEAM-BODY
  0
POLYLINE
  5
22
  8
TEAM-BODY
 66
     1
 10
0.0
 20
0.0
 30
0.0
  0
VERTEX
  5
4AD
  8
TEAM-BODY
 10
-780.000027
 20
0.0
 30
0.0
 42
-0.061584
  0
VERTEX
  5
4AE
  8
TEAM-BODY
 10
-746.96721
 20
267.177479
 30
0.0
 42
-0.343858
  0
VERTEX
  5
4AF
  8
TEAM-BODY
 10
-698.472787
 20
305.0
 30
0.0
  0
VERTEX
  5
4B0
  8
TEAM-BODY
 10
698.47276
 20
305.0
 30
0.0
 42
-0.343858
  0
VERTEX
  5
4B1
  8
TEAM-BODY
 10
746.967183
 20
267.177479
 30
0.0
 42
-0.061584
  0
VERTEX
  5
4B2
  8
TEAM-BODY
 10
780.0
 20
0.0
 30
0.0
  0
SEQEND
  5
4B3
  8
TEAM-BODY
  0
POLYLINE
  5
23
  8
TEAM-BODY
 66
     1
 10
0.0
 20
0.0
 30
0.0
  0
VERTEX
  5
4B4
  8
TEAM-BODY
 10
-850.0
 20
0.0
 30
0.0
  0
VERTEX
  5
4B5
  8
TEAM-BODY
 10
-850.0
 20
375.0
 30
0.0
  0
VERTEX
  5
4B6
  8
TEAM-BODY
 10
850.0
 20
375.0
 30
0.0
  0
VERTEX
  5
4B7
  8
TEAM-BODY
 10
850.0
 20
0.0
 30
0.0
  0
SEQEND
  5
4B8
  8
TEAM-BODY
  0
POLYLINE
  5
24
  8
TEAM-BODY
 66
     1
 10
0.0
 20
0.0
 30
0.0
  0
VERTEX
  5
4B9
  8
TEAM-BODY
 10
-780.000027
 20
0.0
 30
0.0
 42
0.061584
  0
VERTEX
  5
4BA
  8
TEAM-BODY
 10
-746.96721
 20
-267.177479
 30
0.0
 42
0.343858
  0
VERTEX
  5
4BB
  8
TEAM-BODY
 10
-698.472787
 20
-305.0
 30
0.0
  0
VERTEX
  5
4BC
  8
TEAM-BODY
 10
698.47276
 20
-305.0
 30
0.0
 42
0.343858
  0
VERTEX
  5
4BD
  8
TEAM-BODY
 10
746.967183
 20
-267.177479
 30
0.0
 42
0.061584
  0
VERTEX
  5
4BE
  8
TEAM-BODY
 10
780.0
 20
0.0
 30
0.0
  0
SEQEND
  5
4BF
  8
TEAM-BODY
  0
POLYLINE
  5
25
  8
TEAM-BODY
 66
     1
 10
0.0
 20
0.0
 30
0.0
  0
VERTEX
  5
4C0
  8
TEAM-BODY
 10
-850.0
 20
0.0
 30
0.0
  0
VERTEX
  5
4C1
  8
TEAM-BODY
 10
-850.0
 20
-375.0
 30
0.0
  0
VERTEX
  5
4C2
  8
TEAM-BODY
 10
850.0
 20
-375.0
 30
0.0
  0
VERTEX
  5
4C3
  8
TEAM-BODY
 10
850.0
 20
0.0
 30
0.0
  0
SEQEND
  5
4C4
  8
TEAM-BODY
  0
DIMENSION
  5
26
  8
TEAM-MAS
  2
*D0
 10
-850.000027
 20
535.800293
 30
0.0
 11
-0.000013
 21
535.800293
 31
0.0
 12
-4000.0
 22
-84000.0
 32
0.0
 13
850.0
 23
0.0
 33
0.0
 14
-850.000027
 24
0.0
 34
0.0
1001
ACAD
1000
DSTYLE
1002
{
1070
    40
1040
1.0
1002
}
  0
POLYLINE
  5
35
  8
TEAM-BODY
 66
     1
 10
0.0
 20
0.0
 30
0.0
  0
VERTEX
  5
4C5
  8
TEAM-BODY
 10
-465.000027
 20
0.0
 30
0.0
 42
0.046869
  0
VERTEX
  5
4C6
  8
TEAM-BODY
 10
-445.806175
 20
-204.31219
 30
0.0
 42
0.360349
  0
VERTEX
  5
4C7
  8
TEAM-BODY
 10
-396.680997
 20
-245.0
 30
0.0
  0
VERTEX
  5
4C8
  8
TEAM-BODY
 10
17.071349
 20
-245.0
 30
0.0
 42
-0.001483
  0
VERTEX
  5
4C9
  8
TEAM-BODY
 10
36.117349
 20
-245.0
 30
0.0
  0
VERTEX
  5
4CA
  8
TEAM-BODY
 10
80.927289
 20
-245.0
 30
0.0
 42
-0.000368
  0
VERTEX
  5
4CB
  8
TEAM-BODY
 10
99.97329
 20
-245.0
 30
0.0
  0
VERTEX
  5
4CC
  8
TEAM-BODY
 10
622.410325
 20
-245.0
 30
0.0
 42
0.353208
  0
VERTEX
  5
4CD
  8
TEAM-BODY
 10
671.283805
 20
-205.553815
 30
0.0
 42
0.076007
  0
VERTEX
  5
4CE
  8
TEAM-BODY
 10
696.0
 20
0.0
 30
0.0
  0
SEQEND
  5
4CF
  8
TEAM-BODY
  0
TEXT
  5
36
  8
TEAM-TXT
 10
-695.913202
 20
248.017529
 30
0.0
 40
30.0
  1
team 121811
 41
0.8
 51
15.0
  7
TEAM
  0
DIMENSION
  5
39
  8
TEAM-MAS
  2
*D3
 10
983.54149
 20
-375.0
 30
0.0
 11
983.54149
 21
0.0
 31
0.0
 12
-4000.0
 22
-84000.0
 32
0.0
 13
850.0
 23
375.0
 33
0.0
 14
850.0
 24
-375.0
 34
0.0
 50
90.0
1001
ACAD
1000
DSTYLE
1002
{
1070
    40
1040
1.0
1002
}
  0
CIRCLE
  5
47
  8
TEAM-KAN
 10
549.999987
 20
0.0
 30
0.0
 40
26.0
  0
LINE
  5
49
  8
TEAM-AXE
 10
764.297871
 20
-34.380001
 30
0.0
 11
764.297871
 21
34.390001
 31
0.0
  0
POLYLINE
  5
4C
  8
TEAM-DET1
 66
     1
 10
0.0
 20
0.0
 30
0.0
  0
VERTEX
  5
4D0
  8
TEAM-DET1
 10
764.297871
 20
26.0
 30
0.0
  0
VERTEX
  5
4D1
  8
TEAM-DET1
 10
763.987871
 20
25.95
 30
0.0
  0
VERTEX
  5
4D2
  8
TEAM-DET1
 10
763.667871
 20
25.8
 30
0.0
  0
VERTEX
  5
4D3
  8
TEAM-DET1
 10
763.357871
 20
25.54
 30
0.0
  0
VERTEX
  5
4D4
  8
TEAM-DET1
 10
763.057871
 20
25.19
 30
0.0
  0
VERTEX
  5
4D5
  8
TEAM-DET1
 10
762.757871
 20
24.73
 30
0.0
  0
VERTEX
  5
4D6
  8
TEAM-DET1
 10
762.457871
 20
24.18
 30
0.0
  0
VERTEX
  5
4D7
  8
TEAM-DET1
 10
762.167871
 20
23.53
 30
0.0
  0
VERTEX
  5
4D8
  8
TEAM-DET1
 10
761.887871
 20
22.79
 30
0.0
  0
VERTEX
  5
4D9
  8
TEAM-DET1
 10
761.617871
 20
21.95
 30
0.0
  0
VERTEX
  5
4DA
  8
TEAM-DET1
 10
761.357871
 20
21.04
 30
0.0
  0
VERTEX
  5
4DB
  8
TEAM-DET1
 10
761.107871
 20
20.04
 30
0.0
  0
VERTEX
  5
4DC
  8
TEAM-DET1
 10
760.877871
 20
18.95
 30
0.0
  0
VERTEX
  5
4DD
  8
TEAM-DET1
 10
760.647871
 20
17.8
 30
0.0
  0
VERTEX
  5
4DE
  8
TEAM-DET1
 10
760.447871
 20
16.58
 30
0.0
  0
VERTEX
  5
4DF
  8
TEAM-DET1
 10
760.257871
 20
15.29
 30
0.0
  0
VERTEX
  5
4E0
  8
TEAM-DET1
 10
760.077871
 20
13.93
 30
0.0
  0
VERTEX
  5
4E1
  8
TEAM-DET1
 10
759.917871
 20
12.53
 30
0.0
  0
VERTEX
  5
4E2
  8
TEAM-DET1
 10
759.777871
 20
11.07
 30
0.0
  0
VERTEX
  5
4E3
  8
TEAM-DET1
 10
759.647871
 20
9.58
 30
0.0
  0
VERTEX
  5
4E4
  8
TEAM-DET1
 10
759.537871
 20
8.04
 30
0.0
  0
VERTEX
  5
4E5
  8
TEAM-DET1
 10
759.457871
 20
6.47
 30
0.0
  0
VERTEX
  5
4E6
  8
TEAM-DET1
 10
759.387871
 20
4.88
 30
0.0
  0
VERTEX
  5
4E7
  8
TEAM-DET1
 10
759.337871
 20
3.26
 30
0.0
  0
VERTEX
  5
4E8
  8
TEAM-DET1
 10
759.307871
 20
1.63
 30
0.0
  0
VERTEX
  5
4E9
  8
TEAM-DET1
 10
759.297871
 20
0.0
 30
0.0
  0
VERTEX
  5
4EA
  8
TEAM-DET1
 10
759.307871
 20
-1.63
 30
0.0
  0
VERTEX
  5
4EB
  8
TEAM-DET1
 10
759.337871
 20
-3.26
 30
0.0
  0
VERTEX
  5
4EC
  8
TEAM-DET1
 10
759.387871
 20
-4.87
 30
0.0
  0
VERTEX
  5
4ED
  8
TEAM-DET1
 10
759.457871
 20
-6.46
 30
0.0
  0
VERTEX
  5
4EE
  8
TEAM-DET1
 10
759.537871
 20
-8.03
 30
0.0
  0
VERTEX
  5
4EF
  8
TEAM-DET1
 10
759.647871
 20
-9.57
 30
0.0
  0
VERTEX
  5
4F0
  8
TEAM-DET1
 10
759.777871
 20
-11.07
 30
0.0
  0
VERTEX
  5
4F1
  8
TEAM-DET1
 10
759.917871
 20
-12.52
 30
0.0
  0
VERTEX
  5
4F2
  8
TEAM-DET1
 10
760.077871
 20
-13.93
 30
0.0
  0
VERTEX
  5
4F3
  8
TEAM-DET1
 10
760.257871
 20
-15.28
 30
0.0
  0
VERTEX
  5
4F4
  8
TEAM-DET1
 10
760.447871
 20
-16.57
 30
0.0
  0
VERTEX
  5
4F5
  8
TEAM-DET1
 10
760.647871
 20
-17.8
 30
0.0
  0
VERTEX
  5
4F6
  8
TEAM-DET1
 10
760.877871
 20
-18.95
 30
0.0
  0
VERTEX
  5
4F7
  8
TEAM-DET1
 10
761.107871
 20
-20.03
 30
0.0
  0
VERTEX
  5
4F8
  8
TEAM-DET1
 10
761.357871
 20
-21.03
 30
0.0
  0
VERTEX
  5
4F9
  8
TEAM-DET1
 10
761.617871
 20
-21.95
 30
0.0
  0
VERTEX
  5
4FA
  8
TEAM-DET1
 10
761.887871
 20
-22.78
 30
0.0
  0
VERTEX
  5
4FB
  8
TEAM-DET1
 10
762.167871
 20
-23.52
 30
0.0
  0
VERTEX
  5
4FC
  8
TEAM-DET1
 10
762.457871
 20
-24.17
 30
0.0
  0
VERTEX
  5
4FD
  8
TEAM-DET1
 10
762.757871
 20
-24.73
 30
0.0
  0
VERTEX
  5
4FE
  8
TEAM-DET1
 10
763.057871
 20
-25.18
 30
0.0
  0
VERTEX
  5
4FF
  8
TEAM-DET1
 10
763.357871
 20
-25.54
 30
0.0
  0
SEQEND
  5
500
  8
TEAM-DET1
  0
CIRCLE
  5
4E
  8
TEAM-DET1
 10
549.999987
 20
0.0
 30
0.0
 40
35.0
  0
CIRCLE
  5
4F
  8
TEAM-INSP
 10
0.0
 20
0.0
 30
0.0
 40
10.0
  0
DIMENSION
  5
51
  8
TEAM-MAS
  2
*D2
 10
918.795674
 20
-375.0
 30
0.0
 11
918.795674
 21
-187.5
 31
0.0
 12
-4000.0
 22
-84000.0
 32
0.0
 13
549.999987
 23
0.0
 33
0.0
 14
850.0
 24
-375.0
 34
0.0
 50
90.0
1001
ACAD
1000
DSTYLE
1002
{
1070
    40
1040
1.0
1002
}
  0
DIMENSION
  5
5F
  8
TEAM-MAS
  2
*D1
 10
549.999987
 20
453.317306
 30
0.0
 11
699.999993
 21
453.317306
 31
0.0
 12
-4000.0
 22
-84000.0
 32
0.0
 13
850.0
 23
0.0
 33
0.0
 14
549.999987
 24
0.0
 34
0.0
1001
ACAD
1000
DSTYLE
1002
{
1070
    40
1040
1.0
1002
}
  0
POLYLINE
  5
6D
  8
TEAM-DET1
 66
     1
 10
0.0
 20
0.0
 30
0.0
  0
VERTEX
  5
501
  8
TEAM-DET1
 10
763.357871
 20
-25.54
 30
0.0
  0
VERTEX
  5
502
  8
TEAM-DET1
 10
763.667871
 20
-25.79
 30
0.0
  0
VERTEX
  5
503
  8
TEAM-DET1
 10
763.987871
 20
-25.94
 30
0.0
  0
VERTEX
  5
504
  8
TEAM-DET1
 10
764.297871
 20
-26.0
 30
0.0
  0
VERTEX
  5
505
  8
TEAM-DET1
 10
764.607871
 20
-25.94
 30
0.0
  0
VERTEX
  5
506
  8
TEAM-DET1
 10
764.927871
 20
-25.79
 30
0.0
  0
VERTEX
  5
507
  8
TEAM-DET1
 10
765.237871
 20
-25.54
 30
0.0
  0
VERTEX
  5
508
  8
TEAM-DET1
 10
765.537871
 20
-25.18
 30
0.0
  0
VERTEX
  5
509
  8
TEAM-DET1
 10
765.847871
 20
-24.73
 30
0.0
  0
VERTEX
  5
50A
  8
TEAM-DET1
 10
766.137871
 20
-24.17
 30
0.0
  0
VERTEX
  5
50B
  8
TEAM-DET1
 10
766.427871
 20
-23.52
 30
0.0
  0
VERTEX
  5
50C
  8
TEAM-DET1
 10
766.707871
 20
-22.78
 30
0.0
  0
VERTEX
  5
50D
  8
TEAM-DET1
 10
766.977871
 20
-21.95
 30
0.0
  0
VERTEX
  5
50E
  8
TEAM-DET1
 10
767.237871
 20
-21.03
 30
0.0
  0
VERTEX
  5
50F
  8
TEAM-DET1
 10
767.487871
 20
-20.03
 30
0.0
  0
VERTEX
  5
510
  8
TEAM-DET1
 10
767.717871
 20
-18.95
 30
0.0
  0
VERTEX
  5
511
  8
TEAM-DET1
 10
767.947871
 20
-17.8
 30
0.0
  0
VERTEX
  5
512
  8
TEAM-DET1
 10
768.147871
 20
-16.57
 30
0.0
  0
VERTEX
  5
513
  8
TEAM-DET1
 10
768.347871
 20
-15.28
 30
0.0
  0
VERTEX
  5
514
  8
TEAM-DET1
 10
768.517871
 20
-13.93
 30
0.0
  0
VERTEX
  5
515
  8
TEAM-DET1
 10
768.677871
 20
-12.52
 30
0.0
  0
VERTEX
  5
516
  8
TEAM-DET1
 10
768.817871
 20
-11.07
 30
0.0
  0
VERTEX
  5
517
  8
TEAM-DET1
 10
768.947871
 20
-9.57
 30
0.0
  0
VERTEX
  5
518
  8
TEAM-DET1
 10
769.047871
 20
-8.03
 30
0.0
  0
VERTEX
  5
519
  8
TEAM-DET1
 10
769.137871
 20
-6.46
 30
0.0
  0
VERTEX
  5
51A
  8
TEAM-DET1
 10
769.207871
 20
-4.87
 30
0.0
  0
VERTEX
  5
51B
  8
TEAM-DET1
 10
769.257871
 20
-3.26
 30
0.0
  0
VERTEX
  5
51C
  8
TEAM-DET1
 10
769.287871
 20
-1.63
 30
0.0
  0
VERTEX
  5
51D
  8
TEAM-DET1
 10
769.297871
 20
0.0
 30
0.0
  0
VERTEX
  5
51E
  8
TEAM-DET1
 10
769.287871
 20
1.63
 30
0.0
  0
VERTEX
  5
51F
  8
TEAM-DET1
 10
769.257871
 20
3.26
 30
0.0
  0
VERTEX
  5
520
  8
TEAM-DET1
 10
769.207871
 20
4.88
 30
0.0
  0
VERTEX
  5
521
  8
TEAM-DET1
 10
769.137871
 20
6.47
 30
0.0
  0
VERTEX
  5
522
  8
TEAM-DET1
 10
769.047871
 20
8.04
 30
0.0
  0
VERTEX
  5
523
  8
TEAM-DET1
 10
768.947871
 20
9.58
 30
0.0
  0
VERTEX
  5
524
  8
TEAM-DET1
 10
768.817871
 20
11.07
 30
0.0
  0
VERTEX
  5
525
  8
TEAM-DET1
 10
768.677871
 20
12.53
 30
0.0
  0
VERTEX
  5
526
  8
TEAM-DET1
 10
768.517871
 20
13.93
 30
0.0
  0
VERTEX
  5
527
  8
TEAM-DET1
 10
768.347871
 20
15.29
 30
0.0
  0
VERTEX
  5
528
  8
TEAM-DET1
 10
768.147871
 20
16.58
 30
0.0
  0
VERTEX
  5
529
  8
TEAM-DET1
 10
767.947871
 20
17.8
 30
0.0
  0
VERTEX
  5
52A
  8
TEAM-DET1
 10
767.717871
 20
18.95
 30
0.0
  0
VERTEX
  5
52B
  8
TEAM-DET1
 10
767.487871
 20
20.04
 30
0.0
  0
VERTEX
  5
52C
  8
TEAM-DET1
 10
767.237871
 20
21.04
 30
0.0
  0
VERTEX
  5
52D
  8
TEAM-DET1
 10
766.977871
 20
21.95
 30
0.0
  0
VERTEX
  5
52E
  8
TEAM-DET1
 10
766.707871
 20
22.79
 30
0.0
  0
VERTEX
  5
52F
  8
TEAM-DET1
 10
766.427871
 20
23.53
 30
0.0
  0
VERTEX
  5
530
  8
TEAM-DET1
 10
766.137871
 20
24.18
 30
0.0
  0
SEQEND
  5
531
  8
TEAM-DET1
  0
POLYLINE
  5
6E
  8
TEAM-KAN
 66
     1
 10
0.0
 20
0.0
 30
0.0
  0
VERTEX
  5
532
  8
TEAM-KAN
 10
766.137871
 20
24.18
 30
0.0
  0
VERTEX
  5
533
  8
TEAM-KAN
 10
765.847871
 20
24.73
 30
0.0
  0
VERTEX
  5
534
  8
TEAM-KAN
 10
765.537871
 20
25.19
 30
0.0
  0
VERTEX
  5
535
  8
TEAM-KAN
 10
765.237871
 20
25.54
 30
0.0
  0
VERTEX
  5
536
  8
TEAM-KAN
 10
764.927871
 20
25.8
 30
0.0
  0
VERTEX
  5
537
  8
TEAM-KAN
 10
764.607871
 20
25.95
 30
0.0
  0
VERTEX
  5
538
  8
TEAM-KAN
 10
764.297871
 20
26.0
 30
0.0
  0
SEQEND
  5
539
  8
TEAM-KAN
  0
ENDSEC
  0
EOF
